osu file format v5

[General]
AudioFilename: Queen_-_Don't_Stop_Me_Now.mp3
AudioLeadIn: 0
PreviewTime: 65766
Countdown: 0
SampleSet: Normal
StackLeniency: 0.7
Mode: 0
LetterboxInBreaks: 0
SkinPreference:EliteBeatOsu

[Editor]
Bookmarks: 120257,133648
DistanceSpacing: 1
BeatDivisor: 4
GridSize: 8

[Metadata]
Title:Don't Stop Me Now
Artist:Queen
Creator:m980
Version:Cruisin'
Source:
Tags:

[Difficulty]
HPDrainRate:4
CircleSize:3
OverallDifficulty:1
SliderMultiplier:1.8
SliderTickRate:2

[Events]
//Background and Video events
0,0,"bg.jpg"
//Break Periods
2,52327,64853
2,89111,95490
2,133781,148811
//Storyboard Layer 0 (Background)
//Storyboard Layer 1 (Fail)
//Storyboard Layer 2 (Pass)
//Storyboard Layer 3 (Foreground)
//Storyboard Sound Samples
//Background Colour Transformations
3,100,163,162,255

[TimingPoints]
35318,387.096774193548,4,1,1,80,1,0
35898,-100,4,2,1,80,0,0
36382,-100,4,1,1,80,0,0
38801,-100,4,2,1,80,0,0
39092,-100,4,1,1,80,0,0
39382,-100,4,2,1,80,0,0
39672,-100,4,1,1,80,0,0
41511,-100,4,2,2,80,0,0
42672,-100,4,1,1,80,0,0
43640,-100,4,2,1,80,0,0
44317,-100,4,1,1,80,0,0
44995,-100,4,2,1,80,0,0
45866,-100,4,1,1,80,0,0
46127,387.096774193548,4,1,1,80,1,0
46707,-100,4,1,1,100,0,0
47192,-100,4,1,1,80,0,0
51160,-100,4,1,2,80,0,0
63091,382.165605095541,4,1,1,80,1,0
66173,382.409177820268,4,1,1,80,1,0
66937,-100,4,2,1,80,0,0
68371,-100,4,1,2,80,0,0
68658,-100,4,1,1,80,0,0
68945,-100,4,2,1,80,0,0
69136,-100,4,1,1,80,0,0
73056,-100,4,2,1,80,0,0
74490,-100,4,1,2,80,0,0
74777,-100,4,1,1,80,0,0
75064,-100,4,2,1,100,0,0
75255,-100,4,1,1,100,0,0
78601,-100,4,2,1,80,0,0
78888,-100,4,1,1,80,0,0
79557,-100,4,2,1,80,0,0
79844,-100,4,1,1,80,0,0
80895,-100,4,2,1,80,0,0
81278,-100,4,1,1,80,0,0
81660,-100,4,2,1,80,0,0
81947,-100,4,1,1,80,0,0
82616,-100,4,2,1,80,0,0
83477,-100,4,1,1,80,0,0
85006,-100,4,2,1,80,0,0
85197,-100,4,1,1,80,0,0
85867,-100,4,1,2,80,0,0
86345,-100,4,1,1,80,0,0
86918,-100,4,1,2,80,0,0
87492,-100,4,1,1,80,0,0
88065,-100,4,2,2,80,0,0
95427,-100,4,1,1,80,0,0
96820,387.096774193548,4,1,1,80,1,0
97400,-100,4,2,1,80,0,0
97884,-100,4,1,1,80,0,0
99529,-100,4,2,1,80,0,0
100110,-100,4,1,1,80,0,0
100690,-100,4,2,1,80,0,0
100981,-100,4,1,1,80,0,0
104078,-100,4,2,1,80,0,0
104536,383.386581469649,4,2,1,80,1,0
104755,-100,4,2,2,80,0,0
105592,-100,4,1,1,100,0,0
107028,-100,4,2,1,80,0,0
107315,-100,4,1,1,80,0,0
108561,-100,4,2,1,80,0,0
109616,-100,4,1,1,80,0,0
109903,-100,4,2,1,80,0,0
110478,-100,4,1,2,80,0,0
110862,-100,4,1,1,80,0,0
111149,-100,4,2,1,80,0,0
111341,-100,4,1,1,80,0,0
112395,-100,4,2,1,80,0,0
113545,-100,4,2,2,80,0,0
114216,-100,4,2,1,80,0,0
114600,-100,4,1,1,80,0,0
115462,-100,4,2,1,80,0,0
115941,-100,4,1,1,80,0,0
116229,-100,4,2,1,80,0,0
116612,-100,4,1,1,80,0,0
116809,380.469245402663,4,1,1,80,1,0
118342,384.615384615385,4,1,1,80,1,0
121130,-100,4,2,1,80,0,0
121313,-100,4,2,2,80,0,0
121409,383.141713554987,4,2,2,80,1,0
121505,-100,4,2,2,80,0,0
121792,-100,4,2,1,80,0,0
122079,-100,4,2,2,80,0,0
122271,-100,4,1,1,80,0,0
122558,-100,4,2,1,80,0,0
122845,-100,4,2,2,80,0,0
123133,-100,4,1,1,80,0,0
123516,-100,4,2,1,80,0,0
123899,-100,4,1,2,80,0,0
124186,-100,4,2,1,80,0,0
124386,-100,4,2,2,80,0,0
124482,380.228136882129,4,2,2,80,1,0
124577,-100,4,1,1,80,0,0
124862,-100,4,2,1,80,0,0
125147,-100,4,2,2,80,0,0
125337,-100,4,1,1,80,0,0
126383,-100,4,1,2,80,0,0
126953,-100,4,2,1,80,0,0
127428,-100,4,2,2,80,0,0
127618,-100,4,1,1,80,0,0
127904,-100,4,2,1,80,0,0
128189,-100,4,2,2,80,0,0
128379,-100,4,1,1,80,0,0
129995,-100,4,2,2,80,0,0
130280,-100,4,2,1,80,0,0
130470,-100,4,2,2,80,0,0
130660,-100,4,1,1,80,0,0
130945,-100,4,2,1,80,0,0
131231,-100,4,2,2,80,0,0
131421,-100,4,1,1,80,0,0
131896,-100,4,2,2,100,0,0
132081,375,4,2,2,80,1,0
132268,-100,4,1,1,80,0,0
133393,-100,4,2,2,80,0,0
150268,-100,4,1,1,100,0,0
150491,383.385605095541,4,1,1,80,1,0
150875,-100,4,2,1,80,0,0
151258,-100,4,1,1,80,0,0
152216,-100,4,2,1,80,0,0
152504,-100,4,1,1,80,0,0
152983,-100,4,2,1,80,0,0
154038,-100,4,1,1,80,0,0
154325,-100,4,2,1,80,0,0
154900,-100,4,1,2,80,0,0
155188,-100,4,2,1,80,0,0
155379,-100,4,1,1,80,0,0
156145,-100,4,2,1,80,0,0
156337,-100,4,1,1,80,0,0
156912,-100,4,2,1,100,0,0
157200,-100,4,2,1,80,0,0
157967,-100,4,2,2,80,0,0
158255,-100,4,2,1,80,0,0
158446,-100,4,1,1,80,0,0
160171,-100,4,2,1,80,0,0
160363,-100,4,1,1,80,0,0
160651,-100,4,2,1,80,0,0
161896,-100,4,1,1,80,0,0
162567,-100,4,2,1,80,0,0
163239,-100,4,1,1,80,0,0
163526,-100,4,2,1,80,0,0
163813,-100,4,1,1,80,0,0
164101,-100,4,1,1,100,0,0
164291,383.136581469648,4,1,1,80,1,0
165057,-100,4,2,1,80,0,0
166494,-100,4,1,2,80,0,0
166781,-100,4,1,1,80,0,0
167069,-100,4,2,1,80,0,0
167260,-100,4,1,1,80,0,0
171188,-100,4,2,1,80,0,0
172624,-100,4,1,2,80,0,0
172912,-100,4,1,1,80,0,0
173198,-100,4,2,1,100,0,0
173390,-100,4,1,1,100,0,0
176743,-100,4,2,1,80,0,0
177030,-100,4,1,1,80,0,0
177701,-100,4,2,1,80,0,0
177988,-100,4,1,1,80,0,0
179424,-100,4,1,1,100,0,0
179606,383.136581469648,4,1,1,80,1,0
179797,-100,4,2,1,80,0,0
180083,-100,4,1,1,80,0,0
180752,-100,4,2,1,80,0,0
181612,-100,4,1,1,80,0,0
182472,-100,4,2,2,80,0,0

[Colours]
Combo1 : 240,32,0
Combo2 : 240,160,0
Combo3 : 0,232,24
Combo4 : 64,96,240

[HitObjects]
168,48,35317,2,0,B|256:16|352:48,1,180,2|0
256,160,36092,1,2
184,184,36285,1,0
112,208,36479,1,8
80,320,36866,2,0,B|258:381|449:316,1,360,6|0
328,184,38027,1,0
256,160,38221,1,8
256,24,38608,1,0
136,264,38995,5,0
136,264,39188,1,2
256,368,39576,1,0
256,368,39769,1,10
376,264,40156,1,0
296,64,40737,1,2
216,64,40930,1,0
32,144,41317,2,0,B|496:144,1,450,6|2
344,48,43059,6,0,B|256:16|160:48,1,180,2|0
256,160,43834,1,2
328,184,44027,1,0
400,208,44221,1,0
433,275,44414,2,0,B|255:336|64:271,1,360,14|0
112,208,45382,1,2
256,160,45769,1,0
256,160,45963,1,10
256,24,46320,1,0
256,368,47094,5,0
256,368,47288,1,8
80,368,47675,1,6
256,264,48256,1,6
432,368,48836,1,6
360,192,49417,1,6
152,192,49997,1,10
40,72,50578,2,0,B|168:-16|344:168|488:48,1,450,6|6
168,24,66173,6,0,B|8:24|8:200,1,270,6|8
104,336,67129,1,2
192,200,67511,1,4
376,24,68276,5,0
427,82,68467,2,0,B|504:140|478:264,1,180,8|10
432,304,69041,1,0
376,360,69232,1,0
328,192,69614,1,6
256,336,70761,6,0,B|-24:336,1,270,2|14
344,24,72291,6,0,B|504:24|504:200,1,270,6|8
408,336,73247,1,2
320,200,73629,1,4
136,360,74394,5,0
85,302,74585,2,0,B|8:244|34:120,1,180,2|10
80,80,75159,1,0
136,24,75350,1,0
184,192,75732,1,6
256,336,76880,6,0,B|544:336,1,270,2|14
16,32,78410,6,0,B|216:32,1,180,6|0
272,32,78983,1,2
424,32,79366,1,2
344,160,79748,1,0
387,228,79939,6,0,B|256:287|122:226,2,270,10|2|2
496,352,81469,6,0,B|296:352,1,180,10|0
240,352,82042,1,6
88,352,82425,1,2
168,224,82807,1,0
112,168,82999,5,2
256,104,83381,1,0
256,104,83572,1,2
400,168,83955,1,6
48,88,84528,5,2
184,32,84911,1,8
256,0,85102,1,0
328,32,85293,1,0
464,88,85675,1,0
392,200,86058,1,12
256,80,86631,1,6
120,200,87205,1,12
256,320,87779,1,6
256,80,88352,1,8
344,336,96820,6,0,B|256:368|160:336,1,180,2|0
256,224,97594,1,2
328,200,97787,1,0
400,176,97981,1,8
432,64,98368,2,0,B|254:3|63:68,1,360,6|0
112,136,99336,1,8
256,224,99723,1,0
256,224,99916,1,2
256,360,100303,1,6
256,16,100884,5,0
256,16,101078,1,8
80,16,101465,1,6
256,120,102045,1,6
432,16,102626,1,6
360,192,103207,1,6
152,192,103787,1,10
80,352,104368,2,0,B|448:352,1,360,4|8
40,24,106069,5,6
184,24,106452,1,0
328,24,106836,1,2
472,24,107219,1,0
437,100,107411,2,0,B|72:100,1,360,10|2
352,304,108944,5,0
352,304,109136,1,2
160,304,109520,1,0
160,304,109711,1,2
256,112,110095,5,8
256,112,110286,1,8
368,24,110670,6,0,B|472:24|504:128,1,180,8|0
440,168,111245,1,0
376,120,111436,1,2
312,168,111628,1,0
432,304,112012,2,0,B|256:368|64:296,1,360,8|0
152,232,112970,5,2
256,112,113353,1,8
144,24,113737,6,0,B|40:24|8:128,1,180,2|0
72,168,114312,1,0
136,120,114504,1,0
200,168,114695,1,2
80,304,115079,2,0,B|256:368|448:296,1,360,10|0
376,232,116037,1,10
256,96,116420,1,2
480,176,116809,5,8
368,96,117189,1,2
256,176,117569,1,0
144,96,117950,1,8
32,176,118342,6,0,B|32:296|160:296,3,180,4|0|0|8
256,368,119880,1,4
256,248,120265,1,0
256,128,120649,1,0
256,16,121034,1,8
176,24,121226,5,0
128,88,121409,1,4
176,152,121600,1,0
336,24,121983,1,0
384,88,122175,1,4
336,152,122366,1,0
256,16,122749,5,0
256,96,122941,2,0,B|256:304,1,180,4|8
176,152,123707,1,2
336,152,124090,1,8
336,232,124282,5,0
384,296,124482,1,4
336,360,124672,1,0
176,360,125052,1,0
128,296,125242,1,4
176,232,125432,1,0
168,100,125812,6,0,B|256:68|347:101,2,180,4|0|2
137,24,127333,5,0
72,64,127523,1,4
32,128,127713,1,0
32,256,128094,1,0
72,320,128284,1,4
137,360,128474,1,0
168,104,129044,5,8
168,280,129424,1,0
344,280,129805,1,0
344,104,130185,1,2
376,24,130375,5,0
440,64,130565,1,4
480,128,130755,1,0
480,256,131135,1,0
440,320,131326,1,4
376,360,131516,1,0
0,368,132081,6,2,C|200:312|72:256|248:192,1,540,4|6
424,104,133581,1,8
120,32,150491,6,0,B|400:32,1,270,6|2
344,176,151449,1,2
168,176,151832,2,0,B|48:176|48:344|176:336,1,270,10|0
160,256,152599,1,6
352,80,153366,5,0
352,80,153558,1,2
160,80,153941,1,0
160,80,154133,1,6
256,248,154516,5,8
256,248,154708,1,8
464,184,155091,5,8
512,248,155283,1,0
464,312,155475,1,0
336,352,155858,2,0,B|232:376|152:296,1,180,2|8
112,256,156433,2,0,B|40:184|64:64,1,180,0|0
104,24,157008,1,8
256,32,157391,5,0
256,112,157583,1,8
256,192,157775,1,8
96,184,158158,5,2
48,248,158350,1,0
96,312,158542,2,0,B|168:384|272:368,1,180,0|2
336,344,159117,1,0
456,248,159500,2,0,B|480:64|312:32,1,270,2|0
256,56,160267,1,0
256,56,160459,1,8
256,192,160842,1,2
256,272,161034,1,0
328,320,161225,5,0
256,352,161417,1,8
256,352,161609,1,8
184,320,161800,1,0
120,272,161992,2,0,B|32:232|8:128,2,180,2|12|2
256,272,163142,1,0
256,272,163334,1,6
256,128,163717,1,0
256,128,163909,1,6
344,24,164291,6,0,B|504:24|504:200,1,270,6|8
408,336,165248,1,2
320,200,165631,1,4
136,24,166398,5,0
85,82,166589,2,0,B|8:140|34:264,1,180,8|10
80,304,167164,1,0
136,360,167356,1,0
184,192,167739,1,6
256,336,168888,6,0,B|536:336,1,270,2|6
168,24,170421,6,0,B|8:24|8:200,1,270,6|8
104,336,171379,1,2
192,200,171762,1,4
376,24,172528,5,0
427,82,172719,2,0,B|504:140|478:264,1,180,2|10
432,304,173293,1,0
376,360,173484,1,0
328,192,173866,1,6
256,336,175018,6,0,B|-32:336,1,270,2|14
496,32,176551,6,0,B|296:32,1,180,6|0
240,32,177126,1,2
88,32,177509,1,2
168,160,177892,1,0
125,228,178083,6,0,B|256:287|390:226,2,270,10|2|6
16,352,179606,6,0,B|216:352,1,180,10|0
272,352,180180,1,6
424,352,180563,1,2
344,224,180946,1,0
400,168,181138,5,2
256,104,181521,1,0
256,104,181713,1,2
112,168,182096,1,6
256,192,182671,12,8,187172
