osu file format v7

[General]
AudioFilename: Bohemian Rhapsody.mp3
AudioLeadIn: 993
PreviewTime: 142770
Countdown: 1
SampleSet: Normal
StackLeniency: 0.7
Mode: 0
LetterboxInBreaks: 1

[Editor]
DistanceSpacing: 0.899999976158142
BeatDivisor: 4
GridSize: 32

[Metadata]
Title:Bohemian Rhapsody
Artist:Queen
Creator:ogicu8abruok
Version:Normal
Source:
Tags:freddie mercury a night at the opera

[Difficulty]
HPDrainRate:5
CircleSize:5
OverallDifficulty:5
SliderMultiplier:1.4
SliderTickRate:0.5

[Events]
//Background and Video events
0,0,"Queen-Classic-Del-1992-Delantera.jpg"
//Break Periods
2,103791,114372
2,212593,216445
2,291586,294936
//Storyboard Layer 0 (Background)
//Storyboard Layer 1 (Fail)
//Storyboard Layer 2 (Pass)
//Storyboard Layer 3 (Foreground)
//Storyboard Sound Samples
//Background Colour Transformations
3,100,163,162,255

[TimingPoints]
520,830.679772947529,4,1,1,10,1,0
7753,808.624999999999,4,1,1,10,1,0
9444,809.356157176966,4,1,1,10,1,0
15195,879.636416947662,4,1,1,10,1,0
20032,910.608590074366,4,1,1,10,1,0
22334,820.625042740888,4,1,1,10,1,0
25634,851.619496409005,4,1,1,10,1,0
32395,824.625000000001,4,1,1,10,1,0
39014,865.625,4,1,1,10,1,0
42466,827.325000000001,4,1,1,10,1,0
45752,828.325000000001,4,1,1,10,1,0
48316,947.268708556994,4,1,1,10,1,0
49285,849.85835694051,4,1,1,10,1,0
69631,850.653585504863,4,1,1,10,1,0
78352,849.85835694051,4,1,1,10,1,0
79859,849.85835694051,4,1,1,20,1,0
82853,424.929178470255,4,1,1,30,1,0
94751,413.527875224856,4,1,1,30,1,0
96794,424.929178470255,4,1,1,20,1,0
100618,849.85835694051,4,1,1,15,1,0
115572,848.656294200849,4,1,1,20,1,0
141243,848.656294200849,4,1,1,30,1,0
142770,424.929178470255,4,1,1,30,1,0
173358,436.046511627907,4,1,1,30,1,0
176838,418.118466898955,4,1,1,30,1,0
183636,418.118466898955,4,1,1,20,1,0
183936,418.118466898955,4,1,1,20,1,0
186878,408.107740443477,4,1,1,20,1,0
190126,404.585300067431,4,1,1,20,1,0
193070,404.585300067431,4,1,1,40,1,0
193332,401.14996322792,4,1,1,40,1,0
196735,392.156862745098,4,1,1,20,1,0
200068,385.158556939273,4,1,1,20,1,0
203468,403.931600915578,4,1,1,20,1,0
203558,403.931600915578,4,1,1,20,1,0
206497,403.931600915578,4,1,1,40,1,0
206761,402.287675917048,4,1,1,40,1,0
217249,396.63127834261,4,1,1,40,1,0
224821,395.929841232134,4,1,1,40,1,0
232314,397.030213999285,4,1,1,40,1,0
234710,396.63127834261,4,1,1,40,1,0
237918,398.329670913304,4,1,1,40,1,0
241915,430.910657856938,4,1,1,40,1,0
245346,421.929059660769,4,1,1,40,1,0
248769,439.071510113281,4,1,1,40,1,0
254039,435.8722894192,4,1,1,40,1,0
255720,439.8722894192,4,1,1,40,1,0
267117,434.870843359522,4,1,1,40,1,0
284471,449.87291090267,4,1,1,40,1,0
286270,449.87291090267,4,1,1,40,1,0
288099,437.871428571429,4,1,1,40,1,0
289910,442.871428571429,4,1,1,40,1,0
295623,442.871428571429,4,1,1,30,1,0
296136,836.142857142857,4,1,1,30,1,0
301152,827.142857142857,4,1,1,30,1,0
306044,831.142857142857,4,1,1,20,1,0
306519,831.142857142857,4,1,1,20,1,0
307806,864.142857142857,4,1,1,10,1,0
309146,864.142857142857,4,1,1,10,1,0
313040,864.142857142857,4,1,1,10,1,0
318245,871.142857142857,4,1,1,10,1,0
324125,871.142857142857,4,1,1,10,1,0
328360,770.142857142857,4,1,1,10,1,0
331460,763.142857142857,4,1,1,10,1,0
334131,634.115409004439,4,1,1,10,1,0
335067,714.342857142857,4,1,1,10,1,0
335779,776.342857142857,4,1,1,10,1,0
338088,910.342857142858,4,1,1,10,1,0
339611,910.342857142858,4,1,1,6,1,0
339958,1064.34285714286,4,1,1,5,1,0
344146,870.342857142857,4,1,1,6,1,0
345835,1106.53410740203,4,1,1,5,1,0
346941,1328.56377488326,4,1,1,6,1,0
348679,1328.56377488326,4,1,1,6,1,0

[Colours]
Combo1 : 133,6,46
Combo2 : 99,145,31
Combo3 : 238,168,21
Combo4 : 231,229,156

[HitObjects]
255,45,520,1,0
255,128,935,1,0
255,211,1350,1,0
338,215,1766,2,0,B|256:345,1,140
137,194,4258,5,0
221,194,4673,1,0
304,194,5088,1,0
387,195,5504,2,0,B|443:169|425:114,1,70
427,101,6127,2,0,B|401:41|314:55,1,105
258,271,7753,5,0
256,187,8157,1,0
256,103,8561,1,0
190,155,8965,2,0,B|255:191|338:145,2,140
98,156,11062,1,0
99,239,11467,1,0
183,239,11872,1,0
245,183,12276,2,0,B|293:204|298:249,1,70
243,297,13086,2,0,B|261:343|319:353,1,70
434,68,15195,5,4
350,68,15634,1,0
266,69,16074,1,0
266,152,16514,2,0,B|331:181|364:245|360:328,1,210
280,297,18273,6,0,B|225:289|198:244,1,70
163,203,19153,1,0
131,124,19593,1,0
194,68,20032,2,0,B|307:58|339:114,2,140
238,137,22334,5,0
286,205,22744,1,0
195,203,23154,1,0
239,274,23564,1,0
322,277,23975,2,0,B|404:253|409:152,1,140
257,66,25634,5,0
257,66,26059,1,0
257,66,26485,1,0
257,66,26911,2,0,B|255:166|311:215,2,140
339,47,29040,1,4
339,47,29466,1,0
412,87,29892,1,0
415,170,30317,1,4
367,239,30743,1,0
331,262,30956,1,0
196,83,32395,6,0,B|271:83,2,70
350,148,34044,2,0,B|424:148,2,70
194,212,35693,2,0,B|269:212,2,70
350,273,37342,2,0,B|425:273,2,70
193,240,39014,5,0
255,184,39446,1,0
192,127,39879,1,0
260,78,40312,1,0
323,133,40745,2,0,B|386:104|423:28,1,140
462,205,42466,5,0
389,247,42879,1,0
304,246,43293,1,0
225,216,43706,1,0
180,144,44120,2,0,B|107:173|125:276,1,140
197,315,45361,1,0
197,315,45752,2,0,B|321:45,1,280
371,209,48316,6,0,B|323:222|343:170|278:197,1,70
207,190,49285,1,4
142,243,49709,1,0
86,180,50134,1,0
90,96,50559,1,0
155,43,50984,2,0,B|271:15|318:64,1,140
255,209,52684,5,0
317,265,53109,1,0
380,209,53534,1,0
381,124,53959,1,0
317,69,54384,2,0,B|244:29|171:71,1,140
380,135,56083,5,0
329,149,56296,2,0,B|241:176|233:268|129:305,1,245
449,313,59058,5,0
442,208,59483,2,0,B|419:170|384:172|371:176,1,70
351,215,60120,2,0,B|259:221|164:142,1,175
499,115,62457,5,0
447,92,62670,1,0
391,83,62882,2,0,B|329:95|349:191|409:236|303:336,1,280
122,296,65432,6,0,B|168:262|152:207,1,70
178,135,66282,1,0
153,69,66565,1,0
91,102,66848,2,0,B|27:192|121:285,1,186.666666666667
464,329,69631,5,0
436,284,69843,2,0,B|359:249|340:145|256:111,1,245
56,190,72182,5,0
117,102,72608,1,0
208,46,73033,2,0,B|266:22|334:51,1,105
353,74,73884,2,0,B|411:142|298:222|421:358,1,280
299,335,76010,5,0
241,247,76436,1,0
135,249,76861,1,0
73,163,77286,1,0
177,159,77712,1,0
239,74,78137,1,0
386,129,78776,1,0
424,164,78989,2,4,B|478:241|344:178|320:246,1,140
243,270,80283,2,4,B|95:328|38:39,1,350
283,54,83277,5,0
343,72,83490,2,0,B|421:126|418:306|54:324,1,490
54,197,85402,5,0
149,279,85827,2,0,B|236:278|251:200,1,140
265,141,86464,1,0
292,84,86677,2,0,B|336:25|402:25|446:62|464:156|432:214,1,280
384,309,87952,5,0
258,304,88377,2,0,B|151:168|262:44,1,280
382,51,89651,5,0
382,51,89864,1,0
383,115,90076,2,0,B|385:228|216:259,1,210
184,258,90926,1,0
81,330,91351,1,0
81,330,91564,2,0,B|209:344|354:348|444:328,1,350
276,220,93263,5,0
276,220,93476,2,0,B|194:197|137:132,2,140
399,197,94751,1,0
439,148,94957,2,0,B|490:22|306:24,1,210
205,45,95991,5,4
127,144,96405,1,0
105,203,96611,2,4,B|107:290|258:333,1,210
463,124,98068,5,0
397,136,98281,1,0
338,114,98493,2,0,B|261:70|130:44|50:100,1,280
109,208,99768,1,0
161,173,99980,1,0
215,204,100193,2,0,B|302:256|503:262,1,280
443,163,101467,5,0
412,120,101680,1,0
364,155,101892,2,0,B|318:86|333:37|374:4,2,140
416,68,115572,5,0
383,167,115996,2,0,B|266:272,1,140
195,324,117269,2,0,B|88:216,1,140
199,202,118542,5,0
292,154,118966,2,0,B|332:126|297:70,1,70
272,53,119603,2,0,B|234:21|134:54|234:171,1,175
216,329,121936,5,0
309,280,122361,1,0
350,241,122573,2,0,B|377:208|360:172|358:130|456:147|497:193|464:296,1,245
144,311,124907,5,0
120,263,125119,2,0,B|87:217|141:157,1,105
223,114,126180,1,0
217,218,126604,1,0
292,150,127028,2,0,B|320:117|348:122|345:174|393:198|512:183,1,210
354,89,129150,5,0
285,96,129433,2,0,B|181:109|142:182,1,163.333333333333
137,224,130635,1,0
186,239,130847,1,0
224,203,131059,1,0
444,61,132120,5,0
339,52,132545,2,0,B|271:42|229:64,1,105
188,85,133393,2,0,B|121:144|229:235|158:367,1,280
269,332,135515,5,0
303,296,135727,1,0
336,251,135939,1,0
402,169,136364,1,0
403,63,136788,1,0
297,65,137212,1,0
248,69,137424,2,0,B|180:106|281:181,1,140
316,208,138485,2,4,B|383:282|273:251|199:291,1,175
158,298,139758,2,4,B|105:318|80:241|106:193|142:157|177:142,1,210
260,115,141455,1,4
299,211,141879,1,4
318,259,142091,1,0
340,306,142303,1,4
449,126,142770,5,0
388,107,142982,2,0,B|263:69|170:106|154:214|276:340|413:321,1,490
433,223,144894,5,0
433,94,145319,2,0,B|439:41|388:35|339:65|353:115,1,140
356,163,145956,1,0
359,226,146169,2,0,B|374:294|354:346|192:301|162:216,1,280
188,102,147444,5,0
302,47,147869,2,0,B|351:197|289:329,1,280
135,127,149568,6,0,B|356:127,1,210
408,127,150418,1,4
458,204,150737,1,4
417,287,151056,2,4,B|81:166,1,350
195,320,152755,5,0
195,320,152968,2,0,B|329:247,2,140
239,202,154243,1,0
190,85,154668,1,0
251,71,154880,1,0
306,99,155092,1,0
387,195,155517,2,0,B|440:298|399:358|294:384|226:373|138:254,1,420
86,149,157217,6,0,B|166:51|280:49,1,210
325,61,158067,2,0,B|435:82|462:194|381:294,1,280
269,311,159342,1,0
134,228,159873,2,0,B|330:229|406:196,1,245
126,178,161466,5,0
250,162,161891,1,0
299,123,162104,1,0
307,185,162316,5,0
431,166,162741,1,0
465,113,162954,1,0
486,53,163166,2,0,B|475:10|445:0|355:28|331:167|357:208,1,280
496,339,164653,5,0
433,332,164866,1,4
447,270,165078,1,0
383,269,165291,1,0
390,206,165503,1,0
333,177,165716,2,4,B|246:152|156:226|81:204|66:123,1,280
60,85,166778,1,0
114,116,166990,2,0,B|187:96,1,70
164,158,167415,2,4,B|237:138,1,70
213,200,167840,2,0,B|286:180,1,70
262,242,168265,2,0,B|335:222,1,70
312,284,168690,2,0,B|385:264,1,70
363,326,169115,2,4,B|500:286,2,140
443,229,170390,5,4
316,229,170815,1,0
428,172,171240,5,4
301,171,171665,1,0
414,117,172090,5,4
287,114,172515,1,0
401,61,172939,2,0,B|271:9|124:19|12:164,1,420
43,250,174666,5,0
88,206,174884,1,0
132,250,175102,2,0,B|142:297|173:298|255:242,1,140
290,206,175756,1,0
334,250,175974,2,0,B|344:297|375:298|457:242,1,140
464,189,176628,1,0
476,124,176838,2,0,B|415:89|282:50|180:112,1,280
81,116,178092,5,0
93,177,178301,1,0
151,153,178510,2,0,B|347:375,3,280
388,296,181297,1,0
394,212,181576,1,0
374,130,181855,2,0,B|227:118|154:289,2,280
258,79,183936,5,0
147,99,184354,1,0
257,123,184772,1,0
146,142,185190,1,0
257,164,185608,1,0
147,185,186026,1,0
256,203,186444,1,0
369,184,186878,5,0
259,160,187286,1,0
368,134,187694,1,0
257,111,188102,1,0
366,87,188510,1,0
257,65,188918,1,0
366,40,189326,1,0
457,104,189734,5,0
457,104,189938,1,0
456,160,190126,2,0,B|458:241|342:252,1,140
310,250,190732,1,0
253,251,190935,2,0,B|169:243|165:156,1,140
180,106,191542,1,0
229,132,191744,1,0
229,132,191946,1,0
273,97,192148,1,0
372,45,192553,1,0
466,104,192958,1,0
457,219,193332,5,0
401,215,193532,1,0
347,199,193733,1,0
295,177,193933,1,0
239,175,194134,2,0,B|165:182|140:275,1,140
241,318,194936,5,0
285,284,195137,1,0
340,276,195337,1,0
395,273,195538,1,0
448,255,195738,2,0,B|486:215|490:167|461:117,2,140
375,169,196931,6,0,B|301:169,3,70
274,215,197715,5,0
274,215,197911,1,0
274,215,198107,1,0
274,215,198303,1,0
239,170,198499,6,0,B|165:170,3,70
139,217,199284,5,0
139,217,199480,1,0
139,217,199676,1,0
139,217,199872,1,0
98,178,200068,6,0,B|98:101,6,70
285,55,201993,5,4
259,104,202186,1,4
354,162,202571,1,4
312,265,202956,1,4
266,297,203149,1,4
157,293,203558,5,0
236,214,203961,1,0
236,214,204163,1,0
278,177,204365,1,0
367,109,204769,1,0
399,216,205173,1,0
320,296,205577,1,0
320,296,205779,1,0
264,299,205981,2,0,B|201:234|199:133,1,140
199,62,206761,6,0,B|359:97,1,140
336,148,207364,1,0
336,203,207565,2,0,B|491:243,1,140
471,125,208370,1,0
416,112,208571,1,0
361,99,208772,1,0
336,208,209174,1,0
281,192,209375,1,0
227,175,209577,1,0
277,74,209979,6,4,B|342:225,1,140
350,255,210582,1,0
366,308,210783,2,4,B|187:309,1,140
169,308,211387,1,0
113,311,211588,2,4,B|40:311|40:311|88:236,1,140
110,210,212191,1,0
144,166,212393,1,4
89,244,217645,5,0
91,132,218042,1,0
89,244,218438,1,0
92,132,218835,2,0,B|200:101|313:162,1,210
337,191,219628,1,0
332,302,220025,1,0
220,305,220422,1,0
249,257,220620,6,4,B|215:241|163:259,2,70
417,259,221611,5,0
418,146,222008,1,0
416,258,222405,1,0
306,269,222801,5,0
207,216,223198,1,0
254,114,223595,1,0
295,76,223793,6,4,B|316:113|300:153,2,70
187,205,224821,5,0
189,93,225216,1,0
187,205,225612,1,0
288,252,226008,5,0
384,195,226404,1,0
332,95,226800,1,0
276,93,226998,6,0,B|240:115|223:154,2,70
295,145,227592,5,0
290,256,227988,1,0
181,282,228384,1,0
149,235,228582,6,0,B|125:197|130:148,2,70
201,215,229176,5,0
300,164,229572,1,0
351,64,229968,1,0
456,101,230364,1,0
399,197,230759,5,0
350,224,230957,2,0,B|212:261,3,140
160,274,232314,5,0
132,165,232711,1,0
231,217,233108,1,0
231,104,233505,1,0
302,190,233902,1,0
327,80,234299,2,0,B|473:28,1,140
469,144,235106,5,0
359,167,235503,1,0
450,231,235899,1,0
341,257,236296,1,0
254,328,236693,5,4
198,329,236891,1,0
145,309,237089,2,4,B|86:211|126:121|330:120,1,280
211,223,238316,6,0,B|338:223|338:223|466:34,1,350
463,38,239511,1,0
458,149,239909,1,0
458,149,240108,1,0
402,150,240307,1,0
402,150,240507,1,0
345,150,240706,1,0
345,150,240905,1,0
310,105,241104,2,0,B|160:105,1,140
92,173,241915,6,0,B|85:254|195:300|308:288,1,233.333333333333
302,292,242776,1,0
370,203,243207,1,0
367,90,243638,2,0,B|247:89|138:149,1,233.333333333333
111,166,244500,1,0
107,54,244931,1,0
206,109,245346,2,0,B|278:171|365:161|360:51|308:20|426:27|453:185|365:259|279:225,1,420
189,262,247033,6,4,B|165:220|165:220|212:220|212:220|180:171,3,140
226,82,248769,6,0,B|190:82|190:82|167:147,1,93.3333333333333
98,118,249354,1,0
67,184,249647,1,0
101,250,249939,2,0,B|124:274|155:279,2,46.6666666666667
163,208,250525,6,0,B|199:207|199:207|222:277,1,93.3333333333333
287,235,251110,1,0
331,175,251403,2,0,B|329:112,2,46.6666666666667
455,257,252281,6,0,B|416:258|416:258|385:327,1,93.3333333333333
318,307,252867,1,0
246,286,253159,1,0
186,240,253452,2,0,B|154:264|122:270,2,46.6666666666667
210,174,254039,6,0,B|250:175|250:175|271:230,1,93.3333333333333
333,187,254620,1,0
389,138,254910,2,0,B|402:107|385:74,2,46.6666666666667
279,333,256013,5,0
338,288,256306,1,0
395,240,256599,1,0
344,185,256892,5,0
286,232,257186,1,0
226,276,257479,1,0
178,218,257772,5,0
242,179,258065,1,0
299,130,258359,2,0,B|248:89|164:73,1,140
68,119,259238,6,0,B|47:176|80:228,1,93.3333333333333
92,239,259678,1,0
203,246,260118,6,0,B|246:288,6,46.6666666666667
209,171,261291,2,0,B|129:127|229:79|217:23|137:50,1,186.666666666667
73,69,262171,5,0
73,143,262464,1,0
71,217,262757,1,0
145,219,263051,5,0
142,144,263344,1,0
144,69,263637,1,0
218,70,263930,5,0
218,144,264224,1,0
220,218,264517,1,0
294,218,264810,5,0
292,143,265103,1,0
291,68,265397,2,0,B|369:67|399:97,1,93.3333333333333
412,105,265837,2,0,B|458:136|451:159|371:158|403:185|389:256,1,140
349,280,266570,5,0
274,279,266863,1,0
219,242,267117,2,0,B|141:193|139:89|187:24|262:37,2,280
136,317,269291,2,0,B|265:354|369:297,1,233.333333333333
270,96,270885,5,0
320,150,271175,1,0
372,203,271465,1,0
446,208,271755,5,0
390,258,272045,1,0
330,302,272335,2,0,B|265:265|211:195,1,140
139,104,274074,5,0
196,151,274364,1,0
269,165,274654,1,0
338,138,274944,2,0,B|398:80|454:48|477:45,1,140
449,166,275814,5,0
384,203,276104,1,0
309,205,276394,1,0
241,173,276684,2,0,B|174:148|124:144|119:143,4,93.3333333333333
263,101,278133,5,0
337,102,278423,1,0
411,107,278713,2,0,B|454:65,2,46.6666666666667
411,181,279293,5,0
412,255,279583,1,0
337,255,279873,1,0
262,255,280163,2,0,B|209:199,2,46.6666666666667
101,99,281032,5,0
175,103,281322,1,0
249,104,281612,1,0
323,106,281902,1,0
397,107,282192,2,0,B|442:58,2,46.6666666666667
396,181,282772,5,0
396,255,283062,1,0
321,255,283352,1,0
246,252,283642,1,0
171,254,283932,2,0,B|122:208,2,46.6666666666667
221,193,284511,6,0,B|261:140,2,46.6666666666667
155,156,285070,2,0,B|187:110,2,46.6666666666667
92,115,285670,2,0,B|123:69,2,46.6666666666667
128,196,286270,5,0
56,191,286569,1,0
156,241,286869,1,0
89,279,287169,1,0
201,274,287469,1,0
187,334,287769,1,4
263,275,288099,5,0
277,334,288390,1,0
316,245,288682,1,0
360,288,288974,1,0
346,190,289266,1,0
405,202,289558,1,4
337,129,289910,5,0
399,110,290205,1,0
299,80,290500,1,0
342,34,290795,1,0
237,71,291090,1,0
229,10,291386,1,4
293,289,296136,5,0
341,339,296345,1,0
390,289,296554,1,0
436,236,296763,1,0
481,182,296972,2,4,B|431:139|345:132,1,140
313,191,298017,5,0
257,148,298226,1,0
204,101,298435,1,0
147,59,298644,2,4,B|225:4|296:17,1,140
318,71,299689,5,0
273,125,299898,1,0
324,172,300107,1,0
370,119,300316,1,4
164,313,301152,6,0,B|95:238|127:152,1,140
360,45,302806,2,0,B|415:105|411:197,1,140
167,280,304460,6,0,B|217:252|184:219|277:171,1,140
311,157,305494,6,0,B|371:128|343:73|308:79,1,105
97,153,306934,5,0
185,260,307350,1,0
319,261,307806,2,0,B|359:263|376:255|390:237|415:165|420:95,1,210
298,174,309578,6,0,B|134:174,1,140
132,311,310874,2,0,B|144:311|157:308|166:297|170:287|181:270|202:264|222:270|241:300|286:331|331:324,1,210
388,76,313040,6,0,B|287:66|236:159,1,175
265,205,314336,2,0,B|330:188|356:166,1,70
74,178,316496,5,0
130,252,316784,1,0
211,296,317072,2,0,B|308:314|380:249,1,175
232,60,319987,6,0,B|202:131|253:183,1,122.5
363,182,321294,2,0,B|418:204|436:264,1,105
183,65,324125,6,0,B|173:138,2,70
261,125,325431,2,0,B|298:152|333:154,1,70
88,301,327174,5,0
174,261,327609,2,0,B|277:187|314:99|308:38|388:17|463:71|413:201|483:279,1,525
172,261,332223,5,0
117,197,332604,1,0
199,182,332986,1,0
245,112,333367,1,0
334,158,333749,5,4
328,241,334131,1,0
256,197,334448,1,0
183,154,334765,1,0
121,195,335067,2,0,B|156:185|152:232|195:227,1,70
231,276,335779,2,0,B|266:266|262:313|305:308,1,70
372,317,336555,2,0,B|409:328|477:387|435:247,1,140
379,142,338088,5,0
315,196,338543,1,0
315,196,338998,1,0
354,57,339958,6,0,B|317:49|333:92|271:90,1,70
220,127,341022,2,0,B|183:119|199:162|137:160,1,70
259,190,343328,1,4
113,240,344146,5,0
116,156,344581,1,0
199,156,345016,1,0
200,81,345451,1,0
274,83,345835,1,0
256,192,346388,12,0,348679
