osu file format v7

[General]
AudioFilename: Bohemian Rhapsody.mp3
AudioLeadIn: 993
PreviewTime: 142796
Countdown: 1
SampleSet: Normal
StackLeniency: 0.7
Mode: 0
LetterboxInBreaks: 1

[Editor]
DistanceSpacing: 1
BeatDivisor: 4
GridSize: 32

[Metadata]
Title:Bohemian Rhapsody
Artist:Queen
Creator:ogicu8abruok
Version:Easy
Source:
Tags:freddie mercury a night at the opera

[Difficulty]
HPDrainRate:4
CircleSize:4
OverallDifficulty:4
SliderMultiplier:1.4
SliderTickRate:0.5

[Events]
//Background and Video events
0,0,"Queen-Classic-Del-1992-Delantera.jpg"
//Break Periods
2,49481,54759
2,103791,114256
2,156380,163572
2,212613,216325
2,286470,294822
//Storyboard Layer 0 (Background)
//Storyboard Layer 1 (Fail)
//Storyboard Layer 2 (Pass)
//Storyboard Layer 3 (Foreground)
//Storyboard Sound Samples
//Background Colour Transformations
3,100,163,162,255

[TimingPoints]
555,830.679772947529,4,1,1,10,1,0
7793,806.624999999999,4,1,1,10,1,0
9444,809.355650261204,4,1,1,10,1,0
15195,879.636416947662,4,1,1,10,1,0
20032,910.608590074366,4,1,1,10,1,0
22334,820.625042740888,4,1,1,10,1,0
25634,851.620572879921,4,1,1,10,1,0
32398,824.625000000001,4,1,1,10,1,0
39014,865.625,4,1,1,10,1,0
42466,827.325000000001,4,1,1,10,1,0
45758,828.12305908658,4,1,1,10,1,0
48360,947.268708556994,4,1,1,10,1,0
49281,849.85835694051,4,1,1,10,1,0
69631,850.65835694051,4,1,1,10,1,0
78392,849.85835694051,4,1,1,10,1,0
79879,849.85835694051,4,1,1,30,1,0
82857,849.85835694051,4,1,1,30,1,0
94751,827.061450665784,4,1,1,30,1,0
96794,849.85835694051,4,1,1,20,1,0
100618,849.85835694051,4,1,1,15,1,0
115576,848.656294200849,4,1,1,20,1,0
141243,848.656294200849,4,1,1,30,1,0
142796,849.85835694051,4,1,1,30,1,0
173366,872.093023255814,4,1,1,30,1,0
176846,836.236933797909,4,1,1,30,1,0
183636,836.236933797909,4,1,1,20,1,0
183936,836.236933797909,4,1,1,20,1,0
186904,816.215480886954,4,1,1,20,1,0
190158,809.170600134862,4,1,1,20,1,0
193070,809.170600134862,4,1,1,40,1,0
193342,802.29992645584,4,1,1,40,1,0
196758,784.313725490196,4,1,1,20,1,0
200086,770.317113878547,4,1,1,20,1,0
203468,807.863201831157,4,1,1,20,1,0
203586,807.863201831157,4,1,1,20,1,0
206501,807.863201831157,4,1,1,40,1,0
206781,804.580746382739,4,1,1,40,1,0
217249,793.26255668522,4,1,1,40,1,0
224821,791.859682464267,4,1,1,40,1,0
232314,794.060427998571,4,1,1,40,1,0
234788,771.76255668522,4,1,1,40,1,0
238687,804.76255668522,4,1,1,40,1,0
241915,861.821315713875,4,1,1,40,1,0
245346,843.858119321538,4,1,1,40,1,0
248771,878.143020226561,4,1,1,40,1,0
254039,871.750911706162,4,1,1,40,1,0
267123,869.565217391304,4,1,1,40,1,0
284471,899.752568043788,4,1,1,40,1,0
286270,899.752568043788,4,1,1,40,1,0
288049,875.746208748705,4,1,1,40,1,0
289910,885.739592559788,4,1,1,40,1,0
295623,885.739592559788,4,1,1,30,1,0
296142,836.142857142857,4,1,1,30,1,0
301152,827.142857142857,4,1,1,30,1,0
306044,831.142857142857,4,1,1,20,1,0
306529,831.142857142857,4,1,1,20,1,0
307806,864.142857142857,4,1,1,10,1,0
309096,864.142857142857,4,1,1,10,1,0
313020,864.142857142857,4,1,1,10,1,0
318245,871.142857142857,4,1,1,10,1,0
324125,916.142857142857,4,1,1,10,1,0
328360,770.142857142857,4,1,1,10,1,0
331460,763.142857142857,4,1,1,10,1,0
334131,634.115409004439,4,1,1,10,1,0
335067,714.342857142857,4,1,1,10,1,0
335779,776.342857142857,4,1,1,10,1,0
338098,910.342857142858,4,1,1,10,1,0
339611,910.342857142858,4,1,1,6,1,0
339958,1064.34285714286,4,1,1,5,1,0
344152,870.342857142857,4,1,1,6,1,0
345835,1106.53410740203,4,1,1,5,1,0
346941,1328.56377488326,4,1,1,6,1,0
348679,1328.56377488326,4,1,1,6,1,0

[Colours]
Combo1 : 133,6,46
Combo2 : 99,145,31
Combo3 : 238,168,21
Combo4 : 231,229,156

[HitObjects]
255,45,550,1,0
257,114,970,1,0
258,183,1385,1,0
327,186,1801,2,0,B|255:328,1,140
137,194,4293,5,0
207,195,4708,1,0
276,196,5123,1,0
345,196,5539,2,0,B|401:170|381:96,1,105
258,271,7798,5,0
259,201,8196,1,0
259,131,8599,1,0
260,61,9002,2,0,B|325:97|339:191,1,140
194,156,10658,5,0
123,154,11062,1,0
125,223,11467,1,0
195,225,11872,1,0
264,226,12276,2,0,B|312:247|317:292,1,70
247,297,13086,2,0,B|261:343|319:353,1,70
460,146,15195,5,4
397,177,15634,1,0
327,178,16074,1,0
258,162,16514,2,0,B|191:142|142:108|100:24,1,210
66,90,18273,6,0,B|64:143|83:182,1,70
137,188,19153,1,0
206,183,19593,1,0
253,131,20032,2,0,B|366:121|407:70,1,140
476,196,21853,2,0,B|259:195|160:96,1,332.5
107,217,24795,1,0
259,199,25634,5,4
259,199,26059,1,0
259,199,26485,1,0
259,199,26911,2,0,B|340:199|354:313,2,140
253,129,29040,1,0
253,129,29466,1,0
300,77,29892,1,0
343,131,30317,2,0,B|381:181|351:228|312:256,1,140
124,191,32398,6,0,B|124:107,2,70
223,289,34047,2,0,B|222:202,2,70
323,191,35696,2,0,B|323:113,2,70
418,293,37345,2,0,B|418:199,2,70
284,293,39014,5,0
224,256,39446,1,0
285,222,39879,1,0
224,186,40312,1,0
287,157,40745,2,0,B|350:128|387:52,1,140
432,197,42466,5,0
398,258,42879,1,0
363,197,43293,1,0
331,259,43706,1,0
294,199,44120,2,0,B|252:256|139:253,1,140
91,255,45361,1,0
91,255,45775,2,0,B|291:40,1,280
331,173,48360,6,0,B|283:186|303:134|238:161,1,70
184,158,49281,1,4
108,191,56079,6,0,B|229:221|246:321|366:325,1,280
441,314,59054,5,0
441,243,59479,1,0
441,173,59904,1,0
370,174,60329,2,0,B|296:174|304:235|224:232,1,140
85,95,62453,5,0
153,80,62878,2,0,B|224:54|298:81|384:224,1,280
168,274,65428,6,0,B|214:240|198:185,1,70
205,145,66278,1,0
186,115,66490,2,0,B|144:76|53:105|96:288,1,245
439,313,69631,6,0,B|420:177|333:159|343:29,1,280
280,166,72182,1,0
216,137,72608,1,0
185,73,73033,1,0
324,66,73884,2,0,B|382:134|269:214|392:350,1,280
238,301,76436,5,0
175,270,76861,1,0
236,236,77286,1,0
174,202,77712,1,0
235,168,78137,1,4
298,139,78604,1,0
354,179,79029,2,4,B|438:266|441:320|352:349|93:324,1,420
122,186,82428,1,0
201,76,83281,6,0,B|339:70|453:154|429:306|282:316,1,420
231,309,86256,1,0
170,273,86681,2,0,B|80:178|134:72|242:45,1,280
363,49,89230,1,0
468,147,90080,6,0,B|470:260|384:274,1,140
341,267,91355,1,0
273,249,91780,2,0,B|161:192|154:271|71:198,1,210
138,170,93480,1,0
203,144,93905,1,0
256,189,94330,1,0
302,136,94751,1,0
370,151,95164,1,0
351,83,95578,1,0
283,66,95991,5,0
213,78,96405,2,0,B|154:147|209:284,1,210
266,241,98068,5,0
308,185,98493,2,4,B|231:141|181:126|102:146,1,210
118,213,100193,2,0,B|205:265|354:241,1,210
395,225,101892,2,0,B|429:171|382:112|312:132|270:202|166:160,1,280
416,68,115576,5,0
364,114,116000,2,0,B|247:219,1,140
207,253,117273,2,0,B|100:145,1,140
156,102,118546,5,0
217,69,118970,2,0,B|257:41|355:94,1,140
449,184,120667,2,0,B|411:288|336:305,1,140
297,300,121940,5,0
236,251,122365,2,0,B|242:151|396:134|403:309,1,280
166,267,124911,6,0,B|114:235|113:136,1,140
173,107,126184,1,0
230,147,126608,1,0
272,202,127032,2,0,B|300:169|328:174|325:226|373:250|463:236,1,210
355,98,129154,5,0
272,104,129578,2,0,B|187:107|142:165,1,140
123,238,130851,1,0
302,128,132124,5,0
326,62,132549,1,0
186,79,133397,2,0,B|119:138|227:229|156:361,1,280
230,327,135519,5,0
284,282,135943,1,0
327,226,136368,1,0
353,160,136792,1,0
325,95,137216,1,0
259,79,137641,1,0
229,142,138065,1,0
282,186,138489,6,4,B|349:260|204:196|73:325,1,280
74,192,141035,1,0
164,85,141883,1,4
230,61,142303,1,0
299,70,142780,6,4,B|419:109|448:232|326:278,1,280
272,269,144920,1,0
201,260,145345,2,0,B|147:257|129:214|154:177|223:160,1,140
261,162,146620,5,0
324,132,147045,1,0
348,64,147470,1,0
280,44,147895,2,0,B|227:107|233:189,1,140
88,232,149594,6,4,B|256:232,1,140
296,232,150869,1,4
360,232,151294,2,4,B|448:233|480:312,1,140
337,330,152994,5,0
280,288,153419,1,4
341,254,153844,1,0
280,218,154269,1,4
335,174,154694,1,0
276,136,155118,1,4
220,178,155543,2,4,B|169:226|91:174,1,105
461,335,164892,5,0
408,288,165317,1,0
367,230,165742,2,0,B|316:146|251:127,1,140
199,141,167016,1,0
218,205,167441,1,0
148,209,167866,1,0
185,268,168291,1,0
121,297,168716,1,0
59,329,169141,1,0
268,315,170416,5,4
315,263,170841,1,0
384,263,171266,5,4
348,202,171691,1,0
278,199,172116,5,4
314,139,172541,1,0
384,137,172965,6,4,B|364:64|306:49|197:88,1,210
146,120,174674,5,0
146,120,174892,1,0
146,120,175110,1,0
215,119,175546,5,0
215,119,175764,1,0
215,119,175982,1,0
284,119,176418,5,0
284,119,176636,1,0
284,119,176838,2,0,B|297:54|414:37,1,140
409,108,178100,1,0
410,177,178518,1,0
275,217,179354,1,0
412,243,180190,1,0
225,244,181305,1,0
257,210,181584,1,0
270,165,181863,2,0,B|123:153|44:354,1,280
62,172,184354,5,0
103,38,185190,1,0
118,177,186026,1,0
152,37,186904,5,0
170,175,187720,1,0
207,40,188536,1,0
223,179,189352,1,0
348,114,190158,5,0
344,253,190967,1,0
465,183,191776,1,0
325,185,192585,1,0
197,252,193342,5,0
198,182,193743,1,0
199,112,194144,1,0
199,42,194545,1,0
248,91,194946,5,0
289,147,195347,1,0
335,202,195748,1,0
404,203,196150,1,0
444,151,196551,1,0
397,100,196954,6,0,B|344:35,1,70
309,101,197738,2,0,B|266:161,1,70
229,99,198522,2,0,B|180:28,1,70
149,99,199307,2,0,B|104:159,1,70
67,96,200091,2,0,B|35:51|129:19|229:49|259:66,1,210
363,116,202011,5,4
383,144,202204,2,4,B|286:177,2,70
420,239,203586,5,0
350,242,203989,1,0
279,243,204393,1,0
208,241,204797,1,0
205,171,205201,5,0
275,172,205605,1,0
345,172,206009,1,0
415,171,206413,1,0
413,101,206781,6,0,B|319:100,1,70
273,99,207585,2,0,B|189:99,1,70
162,156,208390,6,0,B|162:230,1,70
159,296,209194,2,0,B|246:296,1,70
276,244,209999,1,0
327,197,210401,1,0
376,246,210803,1,0
423,194,211206,1,0
398,128,211608,1,0
332,102,212010,1,0
297,102,212211,1,0
267,120,212413,1,0
115,219,217645,5,0
116,149,218042,1,0
115,219,218438,1,0
116,149,218835,2,0,B|212:120|275:134,1,140
319,156,220025,1,0
373,200,220422,2,4,B|421:253|417:315,1,105
312,306,221611,5,0
313,236,222008,1,0
312,306,222405,1,0
242,300,222801,1,0
182,263,223198,1,0
142,205,223595,2,4,B|122:159|141:90,1,105
231,150,224821,5,0
231,79,225216,1,0
231,150,225612,1,0
439,278,226998,5,4
439,278,227196,1,0
439,278,227394,1,0
238,216,228582,5,4
238,216,228780,1,0
238,216,228978,1,0
356,87,229968,6,0,B|208:34|76:105|84:311,1,420
153,285,232711,1,0
193,227,233108,1,0
263,228,233505,1,0
307,173,233902,1,0
377,174,234299,1,0
422,120,234696,1,0
77,60,236717,5,4
124,111,237103,1,4
175,158,237489,1,4
231,199,237875,1,4
284,244,238260,1,0
336,198,238681,2,4,B|363:165|386:103|270:114,1,140
221,107,239894,2,0,B|197:153,6,35
269,56,241503,1,0
332,64,241915,6,0,B|413:111|417:201,1,140
358,301,243638,2,0,B|257:346|199:309,1,140
178,265,244931,1,0
135,208,245346,2,0,B|89:145|132:30|308:26|445:73|481:182,1,490
414,195,248769,5,0
370,249,249210,1,0
328,192,249649,1,0
287,249,250088,1,0
247,191,250527,1,0
205,247,250966,1,0
165,189,251405,1,0
125,131,251844,1,0
164,73,252283,5,0
202,131,252722,1,0
243,74,253161,1,0
281,132,253600,1,0
316,74,254039,1,0
357,130,254474,1,0
398,73,254910,1,0
436,131,255346,1,0
472,190,255782,6,0,B|40:190,1,420
50,260,258833,1,0
120,259,259269,2,0,B|192:262|219:242,1,70
256,192,260141,12,0,261230
83,44,261884,6,0,B|421:337,1,420
452,272,264935,1,0
395,229,265371,2,0,B|361:193|358:139,1,70
159,195,267117,6,0,B|254:300,2,140
210,147,269296,1,0
441,258,270891,5,0
407,225,271180,1,0
374,192,271470,1,0
340,160,271760,1,0
309,124,272050,1,0
275,91,272340,2,0,B|236:139|256:187,1,70
107,309,274079,5,0
110,239,274514,1,0
171,271,274949,1,0
174,201,275383,1,0
234,236,275818,1,0
234,165,276253,1,0
296,196,276688,1,0
288,126,277123,1,0
355,145,277557,2,0,B|440:184,1,70
439,246,278427,5,0
298,246,279296,1,0
157,247,280166,1,0
155,107,281036,1,0
294,111,281905,1,0
434,112,282775,1,0
432,252,283644,1,0
256,192,284471,12,0,286270
293,289,296142,5,0
345,243,296560,1,0
397,197,296978,2,4,B|347:154|261:147,1,140
200,129,298232,1,0
133,107,298650,2,4,B|211:52|282:65,1,140
332,60,299904,1,0
401,67,300322,1,4
407,208,301152,6,0,B|353:259|248:254,1,140
142,218,302806,2,0,B|204:175|303:179,1,140
407,222,304460,6,0,B|476:155|516:92|281:76,1,280
195,167,306944,5,0
216,233,307360,1,0
286,245,307806,2,0,B|326:247|343:239|357:221|382:149|388:97,1,140
237,184,309528,6,0,B|73:184,1,140
101,114,310824,2,0,B|113:114|126:111|135:100|139:90|150:73|171:67|191:73|210:103|255:134|300:127,1,210
408,112,313020,6,0,B|335:121|341:218|385:249,1,175
432,288,314532,2,0,B|460:299|488:280,1,52.5
284,103,316476,5,0
238,113,316764,1,0
207,148,317052,1,0
210,241,317484,2,0,B|206:297|279:330,1,105
232,64,319987,6,0,B|301:126|349:135,1,122.5
426,82,321294,2,0,B|481:104|499:164,1,105
139,272,324125,6,0,B|227:263|258:215,1,122.5
313,147,325499,2,0,B|355:171|331:219,1,70
120,294,327178,5,0
174,250,327560,2,0,B|277:176|294:117|304:58|382:35|448:73|413:190|476:274,1,490
215,294,332223,5,0
148,273,332604,1,0
92,230,332986,1,0
58,168,333367,1,0
78,86,333749,5,4
147,86,334131,1,0
193,138,334448,1,0
144,187,334765,1,0
193,224,335082,2,0,B|228:214|224:261|267:256,1,70
311,255,335779,2,0,B|346:245|342:292|385:287,1,70
432,317,336555,2,0,B|469:328|537:387|495:247,1,140
428,177,338098,5,0
368,213,338553,1,0
368,213,339008,1,0
357,93,339958,6,0,B|320:85|336:128|274:126,1,70
230,142,341022,2,0,B|193:134|209:177|147:175,1,70
259,190,343284,1,4
140,239,344152,5,0
116,172,344587,1,0
185,177,345022,1,0
162,110,345457,1,0
240,104,345973,1,0
256,192,346388,12,0,348679
