osu file format v4

[General]
AudioFilename: Queen - Another One Bites The Dust.mp3
AudioLeadIn: 0
AudioHash: 282cc646bb47057471b9831b4203644d
PreviewTime: -1
SampleSet: Normal

[Metadata]
Title:Another One Bites The Dust
Artist:Queen
Creator:kennyloo69
Version:Normal

[Difficulty]
HPDrainRate:4
CircleSize:5
OverallDifficulty:6
SliderMultiplier: 1.4
SliderTickRate: 2

[Events]
0,0,"qnon88threeinchcd8xl2.jpg"
2,21153,25334
2,56137,64742
2,127333,139746

[TimingPoints]
4718,546.499999999999,4,1,0

[HitObjects]
160,160,4718,1,0
256,160,5264,1,0
352,160,5811,1,0
128,160,6904,1,0
192,160,7177,1,0
256,160,7450,1,0
320,160,7723,1,0
352,160,7860,1,0
352,160,9090,5,0
256,160,9636,1,0
160,160,10183,1,0
352,160,11276,1,0
288,160,11549,1,0
224,160,11822,1,0
160,160,12095,1,0
128,160,12232,1,0
256,96,13462,5,0
256,192,14008,1,0
256,288,14555,1,0
256,320,15648,1,0
256,256,15921,1,0
256,192,16194,1,0
256,128,16467,1,0
256,96,16604,1,0
288,256,17834,5,0
224,192,18380,1,0
288,128,18927,1,0
256,128,20020,1,0
224,192,20293,1,0
288,192,20566,1,0
256,256,20839,1,0
256,288,20976,1,0
96,128,26578,5,0
160,128,26851,1,0
224,128,27124,1,0
288,128,27397,1,0
352,128,27671,1,0
416,128,27944,1,0
448,128,28080,1,0
448,256,28764,1,0
384,256,29037,1,0
320,256,29310,1,0
256,256,29583,1,0
224,256,29720,1,0
128,256,30676,5,0
96,224,30812,1,0
128,192,30949,1,0
160,224,31085,1,0
384,192,31769,5,0
416,224,31906,1,0
384,256,32043,1,0
352,224,32179,1,0
320,224,32316,1,0
288,224,32452,1,0
192,320,32862,6,0,B|192:320|128:256|96:224|96:160|128:128|160:96|192:64|192:64,1,303.333333333333
384,96,35322,5,0
384,192,35868,1,0
384,288,36415,1,0
128,288,37508,1,0
128,192,38054,1,0
129,107,38464,1,0
192,128,39693,5,0
256,192,40239,1,0
320,256,40786,1,0
320,256,41880,1,0
288,192,42153,1,0
256,256,42426,1,0
224,192,42699,1,0
192,192,42836,1,0
320,128,44066,5,0
256,192,44612,1,0
192,256,45159,1,0
192,256,46115,1,0
192,224,46252,1,0
224,224,46388,1,0
224,256,46525,1,0
288,256,46798,1,0
288,192,47071,1,0
288,160,47208,1,0
128,96,48164,6,0,B|128:96|352:96,1,210
384,160,49257,2,0,B|384:160|160:160,1,210
96,160,50624,5,0
128,96,50897,1,0
192,64,51170,1,0
256,64,51443,1,0
288,64,51580,1,0
352,96,52810,5,0
352,192,53356,1,0
256,192,53903,1,0
256,160,54859,1,0
288,192,54996,1,0
256,224,55132,1,0
224,192,55269,1,0
160,192,55542,1,0
96,192,55815,1,0
64,192,55952,1,0
128,160,65926,6,0,B|128:160|256:160,1,122.5
288,160,67019,6,0,B|288:160|408:160,1,105
347,257,68111,6,0,B|347:257|94:258|100:261,1,245
128,64,70298,2,0,B|128:64|320:64|448:160|494:254,1,420
352,256,72483,6,0,B|352:256|98:257|92:256,1,245
128,160,74396,5,0
128,160,74532,1,0
128,160,74669,1,0
128,160,74805,1,0
384,160,75489,5,0
384,160,75626,1,0
384,160,75763,1,0
384,160,75899,1,0
448,160,76241,1,0
256,192,79041,12,0,82184
352,288,83413,5,0
256,288,83959,1,0
160,288,84506,1,0
384,288,85463,1,0
352,288,85600,1,0
320,288,85736,1,0
288,288,85873,1,0
224,288,86146,1,0
160,288,86419,1,0
128,288,86556,1,0
160,128,87786,5,0
256,128,88332,1,0
352,128,88879,1,0
384,160,89971,2,0,B|384:160|128:160,1,245
64,64,91611,6,0,B|64:64|352:64,1,280
342,64,92977,6,0,B|342:64|342:289,1,210
288,320,94343,1,0
256,288,94480,1,0
224,320,94617,1,0
160,320,94890,1,0
160,256,95163,1,0
160,224,95299,1,0
64,96,96530,5,0
288,96,97623,1,0
384,96,98169,1,0
352,192,98716,1,0
320,224,98852,1,0
288,192,98989,1,0
224,192,99262,1,0
224,256,99535,1,0
224,288,99672,1,0
32,32,100902,6,0,B|32:32|480:32|505:77|512:160|509:230|500:299|487:351|416:352|384:352|320:352|256:352|192:352|96:352|32:352|0:320|0:288|0:224|7:132|19:80|58:68|128:64|224:73|307:88|373:115|418:155|439:208|416:256|352:288|320:288|288:288|256:288|224:288|160:288|137:266|128:256|103:223|121:183|192:160|260:192|242:211,1,1820
256,192,109645,12,0,113198
128,128,114564,5,0
384,128,115657,1,0
384,288,116750,1,0
128,288,117843,1,0
192,128,118936,2,0,L|192:128|343:127,1,140
333,128,120029,6,0,L|333:128|334:279,1,140
333,267,121122,6,0,L|333:267|182:266,1,140
193,266,122215,6,0,L|193:266|192:115,1,140
192,128,123308,6,0,L|192:128|271:127,1,70
320,128,123854,1,0
320,128,124401,6,0,L|320:128|321:207,1,70
320,256,124947,1,0
320,256,125494,6,0,L|320:256|241:255,1,70
192,256,126040,1,0
192,256,126587,6,0,L|192:256|191:177,1,70
192,128,127133,1,0
160,128,140796,5,0
352,128,141889,1,0
352,256,142982,1,0
192,256,143802,1,0
160,256,144075,1,0
160,256,145168,5,0
352,256,146261,1,0
352,128,147354,1,0
192,128,148174,1,0
160,128,148447,1,0
160,64,148994,5,0
256,64,149540,1,0
352,64,150087,1,0
384,128,151180,1,0
352,64,151453,1,0
320,128,151726,1,0
288,64,151999,1,0
256,64,152136,1,0
352,320,153366,5,0
256,320,153912,1,0
160,320,154459,1,0
96,320,155552,1,0
128,256,155825,1,0
160,320,156098,1,0
192,256,156371,1,0
224,256,156508,1,0
128,128,157737,6,0,B|128:128|236:128,1,105
288,128,158831,6,0,B|288:128|397:128,1,105
416,192,159923,6,0,B|416:192|352:256|256:320|192:288,1,245
416,128,162110,6,0,B|416:128|257:128,1,140
186,128,163202,6,0,B|186:128|64:128,1,105
64,192,164296,6,0,B|64:192|128:256|224:320|285:284,1,245
160,320,166208,5,0
192,320,166344,1,0
224,320,166481,1,0
256,320,166617,1,0
352,256,167302,5,0
320,256,167438,1,0
288,256,167575,1,0
256,256,167711,1,0
224,256,167848,1,0
192,256,167985,1,0
96,224,168394,5,0
96,160,168668,1,0
128,128,168941,1,0
160,96,169214,1,0
224,96,169487,1,0
256,96,169624,1,0
384,96,170854,5,0
384,288,171947,1,0
128,288,173040,1,0
128,128,173996,1,0
160,288,175226,5,0
256,288,175772,1,0
352,288,176319,1,0
128,288,177275,1,0
160,256,177412,1,0
192,288,177548,1,0
224,256,177685,1,0
288,288,177958,1,0
352,288,178231,1,0
384,288,178368,1,0
352,128,179598,5,0
256,128,180144,1,0
160,128,180691,1,0
128,160,181783,2,0,B|128:160|390:162,1,245
448,64,183423,6,0,L|448:64|160:64,1,280
168,63,184789,6,0,B|168:63|168:288,1,210
224,288,186156,1,0
256,320,186292,1,0
288,288,186429,1,0
352,320,186702,1,0
352,256,186975,1,0
352,224,187112,1,0
384,96,188342,5,0
160,96,189435,1,0
64,96,189981,1,0
160,192,190528,1,0
192,160,190664,1,0
224,192,190801,1,0
288,192,191074,1,0
288,256,191347,1,0
288,288,191484,1,0
480,32,192714,6,0,B|480:32|32:32|7:77|0:160|3:230|12:299|25:351|96:352|128:352|192:352|256:352|320:352|416:352|480:352|512:320|512:288|512:224|505:132|493:80|454:68|384:64|288:73|205:88|139:115|94:155|73:208|96:256|160:288|192:288|224:288|256:288|288:288|352:288|375:266|384:256|409:223|391:183|320:160|252:192|272:210,1,1820
