osu file format v9

[General]
AudioFilename: Quazar - hybrid song.mp3
AudioLeadIn: 0
PreviewTime: 51640
Countdown: 0
SampleSet: Soft
StackLeniency: 0.7
Mode: 0
LetterboxInBreaks: 1

[Editor]
DistanceSpacing: 1.3
BeatDivisor: 2
GridSize: 8

[Metadata]
Title:Hybrid Song
Artist:Quazar
Creator:morphina
Version:Normal
Source:
Tags:8bit keygen la cataline samiljul

[Difficulty]
HPDrainRate:4
CircleSize:3
OverallDifficulty:4
ApproachRate:4
SliderMultiplier:1
SliderTickRate:2

[Events]
//Background and Video events
0,0,"background.png"
//Break Periods
2,66411,72506
2,110949,122352
//Storyboard Layer 0 (Background)
//Storyboard Layer 1 (Fail)
//Storyboard Layer 2 (Pass)
//Storyboard Layer 3 (Foreground)
//Storyboard Sound Samples
//Background Colour Transformations
3,100,0,0,0

[TimingPoints]
7365,461.538461538462,4,2,0,76,1,0
125486,-100,4,2,0,76,0,1
140255,-100,4,2,0,76,0,0

[HitObjects]
88,120,22134,2,0,B|123:84,1,50
176,48,22595,2,0,B|240:48,1,50,8|0
290,49,23057,2,0,B|352:48,1,50,0|0
392,88,23518,2,0,B|437:133,1,50,8|0
427,253,24211,6,0,B|392:289,1,50,2|8
336,320,24672,2,0,B|264:320,1,50
224,320,25134,2,0,B|136:320,1,50,0|8
119,288,25595,2,0,B|85:253,1,50,0|4
136,136,26288,6,0,C|147:82|209:62,1,100,8|0
256,64,26980,1,0
320,64,27211,2,0,C|360:78|371:132,1,100,8|0
376,264,28134,6,0,C|365:318|302:337,1,100,8|0
256,336,28826,1,2
192,336,29057,2,0,C|151:321|140:267,1,100,8|4
256,208,29980,5,8
385,208,30441,2,0,B|385:158,2,50,0|0|8
385,273,31134,1,0
385,78,31826,5,8
292,170,32288,1,0
200,78,32749,1,8
107,170,33211,1,4
136,296,33672,6,0,B|168:248,1,50,10|0
229,254,34134,2,0,B|261:302,1,50,0|0
321,295,34595,2,0,B|369:239,1,50,8|0
353,61,35518,6,0,B|313:133|313:125,1,50,8|0
262,104,35980,2,0,B|214:48,1,50
164,66,36441,2,0,B|165:92,2,25,8|0|0
256,192,36903,12,2,39672
160,88,40595,6,0,B|96:192|176:304,1,200,0|2
216,304,41749,2,0,B|280:304|288:240,1,100,0|2
286,182,42441,2,0,B|286:78,1,100,0|8
239,35,43134,2,0,B|175:35|127:59|79:123,1,150,0|8
256,192,44288,12,2,47057
128,128,47980,6,0,B|200:64|312:64|408:128,1,300,2|8
384,256,49826,2,0,B|333:306,1,50
282,295,50288,2,0,B|194:295,1,50,8|0
170,287,50749,2,0,B|122:239,2,50,0|0|8
208,224,51441,1,0
208,158,51672,1,4
82,193,52134,6,0,B|82:113,1,50,8|0
106,81,52595,2,0,B|162:33,1,50
210,33,53057,2,0,B|282:33,1,50,8|0
390,33,53749,6,0,B|329:33,1,50,2|8
340,98,54211,2,0,B|340:178,1,50
405,148,54672,2,0,B|455:148,1,50,0|8
455,213,55134,2,0,B|455:263,1,50,0|4
344,304,55826,6,0,C|297:335|258:316,1,100,8|0
204,278,56518,1,0
159,227,56749,2,0,C|140:187|171:141,1,100,8|0
248,72,57672,6,0,C|293:42|351:71,1,100,8|0
383,105,58364,1,2
429,151,58595,2,0,C|447:189|416:235,1,100,8|4
292,193,59518,5,8
232,304,59980,2,0,B|282:304,2,50,0|0|8
166,304,60672,1,0
328,192,61365,5,10
208,248,61826,1,0
118,155,62288,1,8
232,93,62749,1,4
362,93,63211,6,0,B|322:45,1,50,8|0
264,54,63672,2,0,B|224:102,1,50
166,92,64134,2,0,B|126:36,1,50,8|2
160,176,64826,5,0
209,221,65057,1,10
255,267,65288,2,0,B|295:203,1,50
346,224,65749,2,0,B|386:272,1,50,0|8
424,308,66211,1,4
256,64,73826,6,0,B|256:128,1,50,2|0
256,176,74288,2,0,B|256:232,1,50,8|0
160,320,74980,2,0,B|112:256,2,50,0|8|0
225,320,75672,6,0,B|225:248,1,50,2|0
224,208,76134,2,0,B|224:144,1,50,8|0
316,65,76826,2,0,B|372:121,2,50,0|8|0
248,64,77518,6,0,B|72:64,1,150,2|0
64,192,78672,1,0
110,238,78903,2,0,B|145:273,1,50,8|0
332,330,79826,6,0,B|388:273,1,50,8|0
399,237,80288,2,0,B|400:169,1,50
374,127,80749,2,0,B|323:76,1,50,8|0
256,192,81211,12,0,83980
328,288,84903,6,0,B|408:168|336:64,1,200,2|0
309,52,86057,2,0,B|205:52,1,100,2|0
162,98,86749,2,0,B|146:210,1,100,2|8
147,262,87441,2,0,B|291:318,1,150,2|8
256,192,88595,12,0,91365
112,136,92288,6,0,B|200:88|304:88|400:136|400:136,1,300,2|8
406,257,94134,2,0,B|355:307,1,50
304,296,94596,2,0,B|216:296,1,50,8|0
192,288,95057,2,0,B|152:256,2,50,0|0|8
238,241,95749,1,0
284,194,95980,1,4
152,192,96441,6,0,B|176:120,1,50,8|0
233,144,96903,2,0,B|249:88,1,50,0|0
312,95,97365,2,0,B|368:95,1,50,8|0
256,256,98288,5,8
171,290,98749,2,0,B|139:218,1,50,2|0
133,181,99211,2,0,B|133:126,2,50,8|0|4
263,181,100134,5,8
316,299,100595,2,0,B|372:339,1,50
402,281,101057,2,0,B|458:321,1,50,8|0
488,264,101518,1,0
416,160,101980,5,8
315,76,102441,2,0,B|243:76,1,50,2|0
265,141,102903,2,0,B|201:141,1,50,8|0
215,206,103365,1,0
123,297,103826,5,8
253,297,104288,2,0,C|308:285|322:245,1,100,0|8
322,179,104980,1,0
318,111,105211,2,0,C|303:70|249:59,1,100,0|8
157,151,106134,6,0,B|157:231,1,50,2|0
91,201,106595,2,0,B|91:289,1,50,8|0
25,251,107057,1,0
152,224,107518,6,0,C|163:279|203:293,1,100,8|0
269,293,108210,1,0
336,296,108441,2,0,C|376:281|387:227,1,100,8|4
389,122,109365,6,0,B|469:122,2,50,8|0|0
323,122,110057,1,0
257,122,110288,2,0,B|256:192,1,50,8|0
256,237,110749,1,4
102,128,123672,5,2
232,128,124134,2,0,B|232:178,1,50,8|0
297,178,124595,2,0,B|297:228,1,50
297,293,125057,1,4
184,352,125518,6,0,B|130:319,1,50
104,272,125979,2,0,B|80:208,1,50,8|0
88,160,126441,2,0,B|114:95,1,50
144,64,126902,2,0,B|208:32,1,50,8|0
320,40,127595,6,0,B|364:62,1,50,2|8
401,112,128056,2,0,B|419:158,1,50
422,223,128518,2,0,B|404:269,1,50,0|8
367,324,128979,2,0,B|324:350,1,50,0|4
288,224,129672,6,0,B|208:224,2,50,8|0|0
288,158,130365,1,0
288,96,130595,2,0,B|352:96,1,50,8|0
400,96,131057,1,0
433,224,131518,5,8
309,265,131980,2,0,B|308:318,2,50,0|0|8
309,199,132672,1,0
243,199,132903,1,4
184,320,133365,6,0,C|129:308|115:268,1,100,8|0
115,202,134057,1,0
119,134,134288,2,0,C|134:93|188:82,1,100,8|0
318,82,135211,6,0,C|371:92|386:133,1,100,8|0
390,201,135903,1,2
390,268,136134,2,0,C|376:307|321:319,1,100,8|0
256,208,137057,5,8
128,208,137518,2,0,B|215:208,2,50,0|0|8
128,142,138211,1,4
255,114,138672,5,2
301,68,138903,1,8
347,114,139134,1,0
393,160,139365,2,0,B|338:215,1,50
403,241,139826,2,0,B|348:296,1,50,8|0
