osu file format v12

[General]
AudioFilename: Slam Fukkireta - Quad City DJs vs. Lamaze-P.mp3
AudioLeadIn: 3000
PreviewTime: 6880
Countdown: 1
SampleSet: Normal
StackLeniency: 0.7
Mode: 0
LetterboxInBreaks: 1

[Editor]
DistanceSpacing: 0.8
BeatDivisor: 2
GridSize: 8

[Metadata]
Title:Slam Fukkireta
TitleUnicode:Slam Fukkireta
Artist:Quad City DJs vs. Lamaze-P
ArtistUnicode:Quad City DJs vs. Lamaze-P
Creator:Miracle Lotus
Version:Hard
Source:
Tags:Space Jam Slam
BeatmapID:225115
BeatmapSetID:81003

[Difficulty]
HPDrainRate:7
CircleSize:4
OverallDifficulty:5
ApproachRate:8
SliderMultiplier:1.4
SliderTickRate:2

[Events]
//Background and Video events
0,0,"58f.jpg",1,1
//Break Periods
2,13479,18930
2,55079,60529
//Storyboard Layer 0 (Background)
//Storyboard Layer 1 (Fail)
//Storyboard Layer 2 (Pass)
//Storyboard Layer 3 (Foreground)
//Storyboard Sound Samples
//Background Colour Transformations
3,100,163,162,255

[TimingPoints]
480.138946901058,399.997984084881,4,1,0,100,1,0
6880,-100,4,1,0,100,0,1
13280,-100,4,1,0,100,0,0

[HitObjects]
88,80,480,2,0,P|72:136|144:192,1,140
176,216,1080,1,0,0:0:0:0:
232,216,1280,2,0,P|296:200|336:256,1,140
400,232,1880,5,0,0:0:0:0:
400,288,2080,2,0,L|304:288,2,70
400,344,2680,1,0,0:0:0:0:
344,344,2880,2,0,P|272:352|208:320,1,140
184,280,3480,1,0,0:0:0:0:
120,280,3680,6,0,B|120:128|248:128|248:304,1,280
272,336,4680,1,0,0:0:0:0:
328,336,4880,2,0,P|392:296|360:232,1,140
256,192,5480,12,0,6480,0:0:0:0:
88,64,6880,6,0,L|88:136,1,70
88,192,7280,2,0,L|144:240,1,70
200,240,7680,1,0,0:0:0:0:
256,240,7880,2,0,L|376:240,1,70
384,240,8280,2,0,P|416:240|456:280,1,70
448,320,8680,1,0,0:0:0:0:
392,320,8880,2,0,L|288:320,2,70
392,208,9680,6,0,P|320:208|320:152,1,140
264,152,10280,2,0,L|192:152,1,70
192,96,10680,1,0,0:0:0:0:
136,96,10880,1,0,0:0:0:0:
136,208,11280,5,0,0:0:0:0:
136,264,11480,1,0,0:0:0:0:
136,320,11680,2,0,P|232:320|232:312,1,140
288,320,12280,1,0,0:0:0:0:
344,320,12480,2,0,L|344:176,2,140
256,176,19680,5,0,0:0:0:0:
256,352,20080,2,0,P|192:360|136:312,1,140
136,256,20680,1,0,0:0:0:0:
136,200,20880,2,0,P|200:160|272:184,1,140
256,352,21680,6,0,P|192:360|136:312,1,140
136,256,22280,1,0,0:0:0:0:
136,200,22480,2,0,P|200:160|272:184,1,140
416,192,23280,6,0,P|424:256|376:312,1,140
320,312,23880,1,0,0:0:0:0:
264,312,24080,2,0,P|224:248|248:176,1,140
96,192,24880,6,0,P|88:128|136:72,1,140
192,72,25480,1,0,0:0:0:0:
248,72,25680,2,0,L|328:72,1,70
320,128,26080,1,0,0:0:0:0:
320,184,26280,2,0,P|288:240|216:248,1,140
216,192,26880,2,0,L|128:192,2,70
272,192,27480,5,0,0:0:0:0:
272,248,27680,2,0,L|272:320,2,70
272,192,28279,1,0,0:0:0:0:
272,136,28479,1,0,0:0:0:0:
160,136,28879,2,0,P|192:72|256:88,1,140
304,104,29479,1,0,0:0:0:0:
352,136,29679,6,0,L|352:216,1,70
352,264,30079,2,0,P|352:344|296:344,2,140
296,264,31079,1,0,0:0:0:0:
240,264,31279,1,0,0:0:0:0:
240,208,31479,2,0,L|240:120,2,70
240,264,32079,1,0,0:0:0:0:
240,320,32279,5,0,0:0:0:0:
184,320,32479,2,0,L|32:320,1,140
40,264,33079,1,0,0:0:0:0:
40,208,33279,2,0,L|128:208,2,70
40,152,33879,1,0,0:0:0:0:
40,96,34079,2,0,L|192:96,1,140
240,96,34679,5,0,0:0:0:0:
296,96,34879,1,0,0:0:0:0:
296,152,35079,2,0,L|296:224,3,70
296,280,35879,1,0,0:0:0:0:
344,312,36079,2,0,P|440:312|440:264,1,140
448,232,36679,1,0,0:0:0:0:
448,176,36879,2,0,P|448:80|408:80,1,140
376,80,37479,5,0,0:0:0:0:
320,80,37679,1,0,0:0:0:0:
272,112,37879,1,0,0:0:0:0:
240,160,38079,2,0,P|184:208|216:264,1,140
176,304,38679,1,0,0:0:0:0:
120,296,38879,1,0,0:0:0:0:
88,344,39079,6,0,P|56:328|56:280,1,70
80,248,39479,2,0,P|112:224|152:240,1,70
192,232,39879,2,0,P|192:200|160:168,1,70
208,128,40279,1,0,0:0:0:0:
208,128,40479,1,0,0:0:0:0:
264,128,40679,6,0,L|344:128,1,70
392,128,41079,2,0,P|432:168|432:192,1,70
432,232,41479,2,0,P|384:280|360:280,1,70
328,280,41879,2,0,L|256:280,1,70
200,280,42279,5,0,0:0:0:0:
200,223,42479,2,0,L|200:79,1,140
256,80,43079,1,0,0:0:0:0:
311,83,43279,2,0,L|311:243,1,140
312,280,43879,1,0,0:0:0:0:
312,336,44079,1,0,0:0:0:0:
256,336,44279,2,0,L|216:336|168:336,3,70
184,280,45079,5,0,0:0:0:0:
184,224,45279,2,0,L|184:144,1,70
240,152,45679,1,0,0:0:0:0:
296,152,45879,1,0,0:0:0:0:
352,152,46079,2,0,L|352:240,3,70
352,280,46879,5,0,0:0:0:0:
296,280,47079,2,0,L|224:280,1,70
168,280,47479,2,0,L|88:280,1,70
96,224,47879,1,0,0:0:0:0:
96,168,48079,1,0,0:0:0:0:
136,64,48479,5,0,0:0:0:0:
216,144,48879,1,0,0:0:0:0:
256,184,49079,1,0,0:0:0:0:
256,240,49279,2,0,L|256:328,1,70
312,312,49679,1,0,0:0:0:0:
368,312,49879,2,0,L|368:232,1,70
368,128,50479,5,0,0:0:0:0:
368,72,50679,1,0,0:0:0:0:
368,72,50879,2,0,P|312:32|264:80,1,140
264,184,51679,5,0,0:0:0:0:
208,184,51879,1,0,0:0:0:0:
152,184,52079,2,0,P|72:184|72:240,1,140
64,288,52679,1,0,0:0:0:0:
64,344,52879,1,0,0:0:0:0:
256,192,53079,12,0,54879,0:0:0:0:
88,64,61279,5,0,0:0:0:0:
88,120,61479,1,0,0:0:0:0:
88,176,61679,2,0,L|168:176,1,70
216,176,62079,1,0,0:0:0:0:
328,176,62479,6,0,P|328:120|352:120,1,70
384,104,62879,2,0,P|440:104|440:128,1,70
440,160,63279,2,0,L|440:232,1,70
440,288,63679,1,0,0:0:0:0:
392,304,64679,5,0,0:0:0:0:
392,248,64879,1,0,0:0:0:0:
392,192,65079,2,0,L|312:192,1,70
152,192,65879,6,0,P|152:248|128:248,1,70
96,264,66279,2,0,P|40:264|40:240,1,70
40,208,66679,1,0,0:0:0:0:
40,152,66879,1,0,0:0:0:0:
88,64,67679,5,0,0:0:0:0:
88,120,67879,2,0,L|168:120,1,70
216,120,68279,1,0,0:0:0:0:
216,176,68479,1,0,0:0:0:0:
328,176,69079,6,0,P|328:120|352:120,1,70
384,104,69479,2,0,P|440:104|440:128,3,70
352,368,71079,5,0,0:0:0:0:
352,312,71279,1,0,0:0:0:0:
352,256,71479,2,0,L|272:256,1,70
112,256,72279,6,0,P|112:312|88:312,1,70
56,328,72679,2,0,P|0:328|0:304,1,70
0,272,73079,1,0,0:0:0:0:
0,216,73279,1,0,0:0:0:0:
224,184,74079,6,0,P|280:144|328:192,2,140
224,240,75079,1,0,0:0:0:0:
224,296,75279,2,0,P|280:336|328:288,1,140
328,240,75879,1,0,0:0:0:0:
328,184,76079,2,0,L|328:112,1,70
272,112,76479,1,0,0:0:0:0:
160,112,76879,5,0,0:0:0:0:
160,168,77079,1,0,0:0:0:0:
160,224,77279,2,0,L|200:288,1,70
248,296,77679,1,0,0:0:0:0:
304,280,77879,2,0,L|344:216,1,70
344,168,78279,1,0,0:0:0:0:
344,112,78479,1,0,0:0:0:0:
232,112,78879,6,0,L|160:112,2,70
232,168,79479,2,0,L|232:248,1,70
288,240,79879,2,0,L|368:240,1,70
360,296,80279,1,0,0:0:0:0:
416,296,80479,2,0,P|416:240|400:232,3,70
408,184,81279,1,0,0:0:0:0:
408,128,81479,1,0,0:0:0:0:
352,128,81679,5,0,0:0:0:0:
296,128,81879,2,0,L|192:128,1,70
224,184,82279,2,0,L|224:264,1,70
168,256,82679,2,0,L|96:256,1,70
96,200,83079,2,0,L|96:128,1,70
