osu file format v14

[General]
AudioFilename: Xia Guang.mp3
AudioLeadIn: 0
PreviewTime: 50692
Countdown: 0
SampleSet: Soft
StackLeniency: 0.7
Mode: 0
LetterboxInBreaks: 0
WidescreenStoryboard: 0

[Editor]
DistanceSpacing: 1
BeatDivisor: 4
GridSize: 32
TimelineZoom: 1

[Metadata]
Title:Xia Guang
TitleUnicode:霞光
Artist:Qu Jin Nan
ArtistUnicode:曲锦楠
Creator:AIR
Version:Normal
Source:精灵世纪
Tags:
BeatmapID:663448
BeatmapSetID:295273

[Difficulty]
HPDrainRate:3
CircleSize:4
OverallDifficulty:4
ApproachRate:5
SliderMultiplier:1.5
SliderTickRate:1

[Events]
//Background and Video events
0,0,"bg36.jpg",0,0
//Break Periods
//Storyboard Layer 0 (Background)
//Storyboard Layer 1 (Fail)
//Storyboard Layer 2 (Pass)
//Storyboard Layer 3 (Foreground)
//Storyboard Sound Samples

[TimingPoints]
1489,480.038403072246,3,2,1,30,1,0
51893,-83.3333333333333,3,2,1,50,0,1
74934,-100,3,2,1,30,0,0
102297,-83.3333333333333,3,2,1,50,0,1
125338,-125,3,2,1,20,0,0
149820,-100,3,2,1,15,0,0
150300,-100,3,2,1,10,0,0

[Colours]
Combo1 : 255,192,0
Combo2 : 255,255,121
Combo3 : 230,230,230
Combo4 : 225,0,113

[HitObjects]
147,181,13009,6,0,P|154:261|140:341,1,150,4|0,0:1|0:0,0:0:0:0:
33,227,13969,2,0,P|20:186|28:146,1,75
47,83,14450,2,0,B|63:58|68:37|68:37|97:85|156:107,1,150,4|0,0:0|0:0,0:0:0:0:
290,119,15410,1,0,0:0:0:0:
432,73,15890,6,0,B|455:49|489:42|489:42|499:89|492:143,1,150,8|0,0:1|0:0,0:0:0:0:
464,272,16850,1,0,0:0:0:0:
325,330,17330,2,0,P|254:347|170:322,1,150,4|0,0:0|0:0,0:0:0:0:
31,311,18290,1,0,0:0:0:0:
111,184,18770,6,0,B|102:126|102:126|83:103|83:103|71:12,1,150,2|0,0:1|0:0,0:0:0:0:
217,89,19730,1,0,0:0:0:0:
345,12,20210,2,0,B|358:69|358:69|350:104|350:104|369:170,1,150,4|0,0:0|0:0,0:0:0:0:
355,307,21170,1,0,0:0:0:0:
475,217,21650,6,0,B|446:204|403:225|403:225|359:244|306:218,1,150,8|0,0:1|0:0,0:0:0:0:
258,204,22370,2,0,P|216:197|173:208,1,75
43,253,23090,1,4,0:0:0:0:
9,117,23570,2,0,B|7:162|42:184|42:184|26:220|43:253,1,150
154,351,24530,5,0,0:0:0:0:
293,295,25010,2,0,L|448:286,2,150,8|8|0,0:3|0:3|0:0,0:0:0:0:
194,182,26450,2,0,L|23:173,2,150,8|8|0,0:3|0:3|0:0,0:0:0:0:
317,95,27891,2,0,L|485:83,1,150,8|8,0:3|0:3,0:0:0:0:
364,194,28851,6,0,B|316:211|275:195|275:195|246:184|211:198,1,150,0|8,0:0|0:3,0:0:0:0:
149,226,29571,2,0,P|107:239|63:226,1,75,0|8,0:0|0:3,0:0:0:0:
15,96,30291,6,0,L|4:251,1,150,0|8,0:0|0:3,0:0:0:0:
34,314,31011,2,0,P|72:328|114:329,1,75,0|8,0:0|0:3,0:0:0:0:
250,290,31731,6,0,P|304:276|406:305,1,150,0|8,0:0|0:3,0:0:0:0:
446,350,32451,1,0,0:0:0:0:
467,278,32691,2,0,P|475:238|468:188,1,75,8|0,0:3|0:0,0:0:0:0:
413,158,33171,2,0,P|408:84|465:5,2,150,0|8|8,0:0|0:3|0:3,0:0:0:0:
274,101,34611,6,0,B|227:96|227:96|197:108|197:108|116:102,1,150,0|8,0:0|0:3,0:0:0:0:
57,73,35331,1,0,0:0:0:0:
48,147,35571,2,0,P|35:207|40:237,1,75,8|0,0:3|0:0,0:0:0:0:
54,292,36051,6,0,B|94:315|136:301|136:301|180:286|219:306,1,150,0|8,0:0|0:3,0:0:0:0:
342,344,37011,1,8,0:3:0:0:
482,291,37491,6,0,P|502:242|474:118,1,150,0|8,0:0|0:3,0:0:0:0:
454,82,38211,1,0,0:0:0:0:
416,147,38451,2,0,P|354:155|314:155,1,75,8|0,0:3|0:0,0:0:0:0:
267,167,38931,6,0,B|231:152|214:119|214:119|186:150|134:154,1,150,0|8,0:0|0:3,0:0:0:0:
6,99,39892,1,8,0:3:0:0:
51,241,40372,6,0,P|23:308|86:349,1,150,0|8,0:0|0:3,0:0:0:0:
122,290,41092,1,0,0:0:0:0:
192,318,41332,2,0,P|253:335|343:313,1,150,8|0,0:3|0:0,0:0:0:0:
479,274,42292,6,0,P|440:281|403:274,1,75,8|0,0:3|0:0,0:0:0:0:
340,239,42772,2,0,B|337:205|307:180|307:180|296:128|332:98,1,150,8|0,0:3|0:0,0:0:0:0:
437,21,43732,6,0,P|446:65|430:115,1,75,8|0,0:3|0:0,0:0:0:0:
391,159,44212,1,8,0:3:0:0:
260,233,44692,6,0,B|217:234|192:265|192:265|161:240|100:252,1,150,0|8,0:0|0:3,0:0:0:0:
51,269,45412,2,0,P|22:304|15:345,1,75,0|8,0:0|0:3,0:0:0:0:
66,191,46132,6,0,P|101:120|50:57,1,150,0|8,0:0|0:3,0:0:0:0:
27,129,46852,1,0,0:0:0:0:
66,192,47092,2,0,L|155:185,1,75,8|0,0:3|0:0,0:0:0:0:
205,148,47572,6,0,P|241:161|284:163,1,75
351,150,48052,2,0,P|383:137|418:95,1,75,8|0,0:3|0:0,0:0:0:0:
469,61,48532,2,0,P|482:99|480:138,1,75,8|0,0:3|0:0,0:0:0:0:
473,208,49012,6,0,P|496:295|448:352,1,150,0|8,0:0|0:3,0:0:0:0:
408,293,49732,1,0,0:0:0:0:
339,323,49972,2,0,P|292:339|239:336,1,75,8|0,0:3|0:0,0:0:0:0:
196,313,50452,6,0,B|160:297|119:311|119:311|83:326|41:304,1,150
88,164,51412,2,0,P|93:201|88:238,1,75
11,191,51893,6,0,P|1:138|52:3,1,179.999994506836,4|0,0:1|0:0,0:0:0:0:
214,52,52853,2,0,P|160:71|110:71,1,89.9999972534181,2|0,0:0|0:0,0:0:0:0:
180,145,53333,2,0,P|226:149|286:177,1,89.9999972534181,4|0,0:0|0:0,0:0:0:0:
318,237,53813,2,0,P|350:195|396:180,1,89.9999972534181
469,206,54293,2,0,P|461:162|480:107,1,89.9999972534181,2|0,0:0|0:0,0:0:0:0:
428,40,54773,6,0,P|376:103|287:61,1,179.999994506836,8|0,0:1|0:0,0:0:0:0:
399,220,55733,2,0,P|409:280|390:328,1,89.9999972534181,8|0,0:0|0:0,0:0:0:0:
327,357,56213,2,0,B|270:349|270:349|245:356|245:356|135:346,1,179.999994506836,4|0,0:0|0:0,0:0:0:0:
59,353,56933,1,0,0:0:0:0:
97,271,57173,2,0,P|114:223|105:171,1,89.9999972534181,2|0,0:0|0:0,0:0:0:0:
39,129,57653,6,0,P|23:189|43:239,1,89.9999972534181,2|0,0:1|0:0,0:0:0:0:
97,271,58133,2,0,P|158:271|190:254,1,89.9999972534181
228,182,58613,2,0,P|212:126|174:89,1,89.9999972534181,2|0,0:0|0:0,0:0:0:0:
107,75,59093,2,0,P|167:20|270:60,1,179.999994506836,4|0,0:0|0:0,0:0:0:0:
402,144,60053,2,0,P|355:158|303:149,1,89.9999972534181,2|0,0:0|0:0,0:0:0:0:
354,72,60533,6,0,P|444:67|486:138,1,179.999994506836,8|0,0:1|0:0,0:0:0:0:
484,226,61253,1,0,0:0:0:0:
419,288,61493,2,0,P|370:299|325:283,1,89.9999972534181,2|0,0:0|0:0,0:0:0:0:
248,318,61973,2,0,B|204:340|152:328|152:328|104:315|49:348,1,179.999994506836,4|0,0:0|0:0,0:0:0:0:
35,159,62933,2,0,P|21:211|43:261,1,89.9999972534181,2|0,0:0|0:0,0:0:0:0:
113,207,63413,6,0,B|152:144|110:78|110:78|78:75|46:87,1,179.999994506836,4|0,0:1|0:0,0:0:0:0:
228,161,64374,2,0,P|277:164|319:153,1,89.9999972534181,2|0,0:0|0:0,0:0:0:0:
404,137,64854,2,0,P|424:99|418:44,1,89.9999972534181,4|0,0:0|0:0,0:0:0:0:
342,11,65334,2,0,P|298:39|278:90,1,89.9999972534181
317,154,65814,2,0,P|354:215|396:232,1,89.9999972534181,2|0,0:0|0:0,0:0:0:0:
457,233,66294,6,0,B|492:239|512:266|512:266|485:319|397:320,1,179.999994506836,8|0,0:1|0:0,0:0:0:0:
239,352,67254,2,0,P|286:352|332:314,1,89.9999972534181,2|0,0:0|0:0,0:0:0:0:
255,268,67734,2,0,B|201:252|160:289|160:289|118:320|61:299,1,179.999994506836,4|0,0:0|0:0,0:0:0:0:
86,128,68694,2,0,P|119:185|115:231,1,89.9999972534181,2|0,0:0|0:0,0:0:0:0:
31,189,69174,6,0,P|4:140|22:78,1,89.9999972534181,2|0,0:1|0:0,0:0:0:0:
80,45,69654,2,0,P|135:62|163:105,1,89.9999972534181
214,152,70134,2,0,P|257:131|302:134,1,89.9999972534181,2|0,0:0|0:0,0:0:0:0:
383,102,70614,2,0,P|370:53|394:-8,1,89.9999972534181,4|0,0:0|0:0,0:0:0:0:
457,58,71094,2,0,P|469:117|457:161,1,89.9999972534181
422,225,71574,2,0,P|377:252|327:257,1,89.9999972534181,2|0,0:0|0:0,0:0:0:0:
252,239,72054,6,0,P|203:228|69:256,1,179.999994506836,8|0,0:1|0:0,0:0:0:0:
16,317,72774,1,0,0:0:0:0:
103,339,73014,2,0,P|153:343|198:363,1,89.9999972534181,2|0,0:0|0:0,0:0:0:0:
279,355,73494,2,0,B|321:324|371:335|371:335|425:348|465:317,2,179.999994506836,4|0|0,0:0|0:0|0:0,0:0:0:0:
230,213,74934,5,0,0:0:0:0:
88,162,75414,2,0,P|79:229|126:319,2,150,8|8|0,0:3|0:3|0:0,0:0:0:0:
230,213,76855,2,0,P|285:219|316:140,2,150,8|8|0,0:3|0:3|0:0,0:0:0:0:
175,84,78295,2,0,P|224:139|230:214,1,150,8|8,0:3|0:3,0:0:0:0:
80,163,79255,6,0,P|135:154|118:229,1,150,0|8,0:0|0:3,0:0:0:0:
54,238,79975,2,0,P|18:215|1:176,1,75,0|8,0:0|0:3,0:0:0:0:
104,298,80695,2,0,P|169:305|265:276,1,150,0|8,0:0|0:3,0:0:0:0:
322,265,81415,2,0,P|360:278|396:280,1,75,0|8,0:0|0:3,0:0:0:0:
506,179,82135,6,0,P|511:128|488:21,1,150,0|8,0:0|0:3,0:0:0:0:
418,22,82855,1,0,0:0:0:0:
389,91,83095,2,0,P|345:103|310:102,1,75,8|0,0:3|0:0,0:0:0:0:
246,74,83575,2,0,B|212:49|169:60|169:60|132:73|90:57,1,150,0|8,0:0|0:3,0:0:0:0:
31,34,84295,2,0,P|18:92|22:127,1,75,0|8,0:0|0:3,0:0:0:0:
91,238,85015,6,0,B|66:219|40:218|40:218|3:268|35:319,1,150,0|8,0:0|0:3,0:0:0:0:
100,332,85735,1,0,0:0:0:0:
173,319,85975,2,0,P|222:311|250:321,1,75,8|0,0:3|0:0,0:0:0:0:
318,334,86455,2,0,P|377:338|471:305,1,150,0|8,0:0|0:3,0:0:0:0:
496,243,87175,1,0,0:0:0:0:
466,174,87415,2,0,P|423:189|377:184,1,75,8|0,0:3|0:0,0:0:0:0:
322,165,87895,6,0,P|279:100|302:23,1,150,0|8,0:0|0:3,0:0:0:0:
361,65,88615,2,0,P|404:75|437:67,1,75,0|8,0:0|0:3,0:0:0:0:
287,103,89336,2,0,P|237:89|139:109,1,150,0|8,0:0|0:3,0:0:0:0:
81,151,90056,2,0,P|45:171|1:172,1,75,0|8,0:0|0:3,0:0:0:0:
48,319,90776,6,0,B|71:282|133:282|133:282|160:309|146:348,1,150,0|8,0:0|0:3,0:0:0:0:
224,337,91496,2,0,P|262:324|300:337,1,75,0|8,0:0|0:3,0:0:0:0:
443,352,92216,2,0,P|469:310|471:206,1,150,0|8,0:0|0:3,0:0:0:0:
428,151,92936,2,0,P|402:183|400:225,1,75,0|8,0:0|0:3,0:0:0:0:
481,90,93656,6,0,P|460:49|356:32,1,150,0|8,0:0|0:3,0:0:0:0:
299,64,94376,1,0,0:0:0:0:
349,119,94616,2,0,P|315:136|274:134,1,75,8|0,0:3|0:0,0:0:0:0:
225,82,95096,2,0,P|184:65|69:77,1,150,0|8,0:0|0:3,0:0:0:0:
7,53,95816,1,0,0:0:0:0:
29,124,96056,2,0,P|20:165|35:208,1,75,8|0,0:3|0:0,0:0:0:0:
95,163,96536,6,0,P|109:208|48:304,1,150,0|8,0:0|0:3,0:0:0:0:
16,351,97256,1,0,0:0:0:0:
89,365,97496,2,0,P|134:368|172:361,1,75,8|0,0:3|0:0,0:0:0:0:
233,336,97976,2,0,P|279:345|311:346,1,75
380,328,98456,2,0,P|422:348|460:347,1,75,8|0,0:3|0:0,0:0:0:0:
493,287,98936,2,0,P|497:233|486:189,1,75,8|0,0:3|0:0,0:0:0:0:
442,157,99416,6,0,P|477:94|424:27,1,150,0|8,0:0|0:3,0:0:0:0:
374,70,100136,1,0,0:0:0:0:
304,99,100376,2,0,P|248:113|205:108,1,75,8|0,0:3|0:0,0:0:0:0:
157,100,100856,2,0,B|112:74|56:75|56:75|30:91|26:121,2,150
141,279,102297,6,0,B|173:258|178:207|178:207|129:158|74:187,1,179.999994506836,4|0,0:1|0:0,0:0:0:0:
81,359,103257,2,0,P|128:374|169:370,1,89.9999972534181,8|0,0:0|0:0,0:0:0:0:
237,313,103737,2,0,P|302:311|338:296,1,89.9999972534181,4|0,0:0|0:0,0:0:0:0:
415,301,104217,2,0,P|465:282|495:258,1,89.9999972534181
445,183,104697,2,0,P|456:121|441:76,1,89.9999972534181,8|0,0:0|0:0,0:0:0:0:
368,132,105177,6,0,B|377:69|325:22|325:22|294:37|279:72,1,179.999994506836,8|0,0:1|0:0,0:0:0:0:
214,226,106137,2,0,P|195:186|196:142,1,89.9999972534181,8|0,0:0|0:0,0:0:0:0:
110,113,106617,2,0,B|115:58|161:12|161:12|199:34|213:71,1,179.999994506836,4|0,0:0|0:0,0:0:0:0:
196,141,107337,1,0,0:0:0:0:
139,211,107577,2,0,P|126:277|100:313,1,89.9999972534181,8|0,0:0|0:0,0:0:0:0:
51,360,108057,6,0,P|14:313|11:275,1,89.9999972534181,2|0,0:1|0:0,0:0:0:0:
25,195,108537,2,0,P|14:144|27:92,1,89.9999972534181
104,74,109017,2,0,P|130:31|171:16,1,89.9999972534181,8|0,0:0|0:0,0:0:0:0:
249,49,109497,2,0,P|316:44|436:84,1,179.999994506836,4|0,0:0|0:0,0:0:0:0:
497,239,110457,2,0,P|446:246|385:231,1,89.9999972534181,8|0,0:0|0:0,0:0:0:0:
318,240,110937,6,0,P|289:156|203:138,1,179.999994506836,8|0,0:1|0:0,0:0:0:0:
231,223,111657,1,0,0:0:0:0:
159,277,111897,2,0,P|102:293|60:288,1,89.9999972534181,8|0,0:0|0:0,0:0:0:0:
24,214,112377,2,0,P|7:151|32:33,1,179.999994506836,4|0,0:0|0:0,0:0:0:0:
202,83,113337,6,0,P|152:74|108:79,1,89.9999972534181,8|0,0:0|0:0,0:0:0:0:
157,155,113817,2,0,B|220:197|291:159|291:159|301:128|294:104,2,179.999994506836,4|0|8,0:1|0:0|0:0,0:0:0:0:
292,273,115258,2,0,P|340:282|386:271,1,89.9999972534181,4|0,0:0|0:0,0:0:0:0:
462,239,115738,2,0,P|496:193|501:149,1,89.9999972534181
496,71,116218,2,0,P|464:25|416:9,1,89.9999972534181,8|0,0:0|0:0,0:0:0:0:
351,47,116698,6,0,P|370:109|279:190,1,179.999994506836,8|0,0:1|0:0,0:0:0:0:
164,69,117658,2,0,P|96:64|68:71,1,89.9999972534181,8|0,0:0|0:0,0:0:0:0:
18,138,118138,2,0,P|32:209|126:275,1,179.999994506836,4|0,0:0|0:0,0:0:0:0:
199,244,118858,1,0,0:0:0:0:
277,288,119098,2,0,P|330:280|368:293,1,89.9999972534181,8|0,0:0|0:0,0:0:0:0:
444,330,119578,6,0,P|484:300|502:258,1,89.9999972534181,2|0,0:1|0:0,0:0:0:0:
437,200,120058,2,0,P|422:141|440:95,1,89.9999972534181
475,36,120538,2,0,P|427:29|365:47,1,89.9999972534181,8|0,0:0|0:0,0:0:0:0:
302,76,121018,2,0,P|252:95|200:95,1,89.9999972534181,4|0,0:0|0:0,0:0:0:0:
127,80,121498,2,0,P|63:89|6:76,1,89.9999972534181
25,174,121978,2,0,P|15:230|34:277,1,89.9999972534181,8|0,0:0|0:0,0:0:0:0:
90,321,122458,6,0,B|132:340|180:322|180:322|231:297|285:329,1,179.999994506836,8|0,0:1|0:0,0:0:0:0:
349,349,123178,1,0,0:0:0:0:
432,316,123418,2,0,P|485:301|513:271,1,89.9999972534181,8|0,0:0|0:0,0:0:0:0:
434,224,123898,2,0,P|414:179|420:128,1,89.9999972534181,4|0,0:0|0:0,0:0:0:0:
488,82,124378,2,0,B|464:35|432:10|432:10|401:46|353:66,1,179.999994506836
278,148,125338,6,0,P|219:159|94:116,1,180,8|0,0:3|0:0,0:0:0:0:
75,73,126298,2,0,P|50:67|9:78,2,60,0|0|8,0:0|0:0|0:3,0:0:0:0:
34,186,127259,2,0,P|27:237|36:269,1,60
61,294,127739,2,0,P|81:329|99:346,1,60
154,347,128219,6,0,P|198:350|280:326,1,120,8|0,0:3|0:0,0:0:0:0:
376,274,129179,2,0,P|417:292|444:295,1,60
484,264,129659,2,0,P|497:226|486:130,1,120,8|0,0:3|0:0,0:0:0:0:
442,38,130619,2,0,P|416:71|388:91,1,60
353,116,131099,6,0,P|306:137|276:138,1,60,8|0,0:3|0:0,0:0:0:0:
239,151,131579,2,0,P|181:155|156:146,1,60
120,151,132059,2,0,P|68:134|24:60,2,120,0|8|0,0:0|0:3|0:0,0:0:0:0:
157,264,133499,2,0,P|215:269|235:267,1,60
272,246,133979,6,0,P|338:233|460:273,1,180,8|0,0:3|0:0,0:0:0:0:
436,321,134939,2,0,P|401:337|362:340,1,60
319,341,135419,2,0,P|306:301|375:118,1,240,8|0,0:3|0:0,0:0:0:0:
253,87,136859,6,0,P|141:125|5:124,1,240,8|0,0:3|0:0,0:0:0:0:
24,66,138059,1,0,0:0:0:0:
73,32,138299,1,8,0:3:0:0:
130,137,138779,1,0,0:0:0:0:
127,257,139260,1,0,0:0:0:0:
81,368,139740,6,0,P|150:335|316:325,1,240,8|0,0:3|0:0,0:0:0:0:
425,359,141180,2,0,P|463:316|483:130,1,240,8|0,0:3|0:0,0:0:0:0:
444,29,142620,6,0,P|392:53|259:60,1,180,8|0,0:3|0:0,0:0:0:0:
211,57,143580,1,0,0:0:0:0:
147,158,144060,2,0,P|77:147|7:149,2,120,8|0|0,0:3|0:0|0:0,0:0:0:0:
251,216,145500,6,0,P|304:217|383:199,1,120,8|0,0:3|0:0,0:0:0:0:
351,322,146460,1,0,0:0:0:0:
231,337,146940,2,0,P|173:344|92:324,1,120,8|0,0:3|0:0,0:0:0:0:
38,239,147900,1,0,0:0:0:0:
256,192,148380,12,0,151260,0:0:0:0:
