osu file format v14

[General]
AudioFilename: Xia Guang.mp3
AudioLeadIn: 0
PreviewTime: 50692
Countdown: 0
SampleSet: Soft
StackLeniency: 0.7
Mode: 0
LetterboxInBreaks: 0
WidescreenStoryboard: 0

[Editor]
DistanceSpacing: 1
BeatDivisor: 4
GridSize: 32
TimelineZoom: 1

[Metadata]
Title:Xia Guang
TitleUnicode:霞光
Artist:Qu Jin Nan
ArtistUnicode:曲锦楠
Creator:AIR
Version:Easy
Source:精灵世纪
Tags:
BeatmapID:663447
BeatmapSetID:295273

[Difficulty]
HPDrainRate:2
CircleSize:3
OverallDifficulty:2
ApproachRate:3.5
SliderMultiplier:1.3
SliderTickRate:1

[Events]
//Background and Video events
0,0,"bg36.jpg",0,0
//Break Periods
2,24731,27471
2,75135,77876
//Storyboard Layer 0 (Background)
//Storyboard Layer 1 (Fail)
//Storyboard Layer 2 (Pass)
//Storyboard Layer 3 (Foreground)
//Storyboard Sound Samples

[TimingPoints]
1489,480.038403072246,3,2,1,30,1,0
51893,-100,3,2,1,50,0,1
74934,-100,3,2,1,30,0,0
102297,-100,3,2,1,50,0,1
125338,-100,3,2,1,20,0,0
149820,-100,3,2,1,15,0,0
150300,-100,3,2,1,10,0,0

[Colours]
Combo1 : 255,192,0
Combo2 : 255,255,121
Combo3 : 230,230,230
Combo4 : 225,0,113

[HitObjects]
512,145,13009,6,0,P|394:197|266:189,1,260,4|0,0:1|0:0,0:0:0:0:
219,68,14451,1,0,0:0:0:0:
136,168,14931,2,0,L|146:302,1,130
18,272,15890,6,0,P|0:162|93:47,1,260,8|0,0:1|0:0,0:0:0:0:
136,168,17331,2,0,P|201:238|350:176,1,260
364,64,18771,5,4,0:1:0:0:
468,141,19251,2,0,P|489:190|479:265,1,130
380,349,20211,1,0,0:0:0:0:
250,329,20691,2,0,L|121:340,1,130
95,213,21651,6,0,P|162:128|173:232,1,260,8|0,0:1|0:0,0:0:0:0:
122,341,23091,1,0,0:0:0:0:
22,257,23571,2,0,P|9:138|106:46,1,260
130,51,28851,6,0,P|24:125|52:243,1,260,0|8,0:0|0:3,0:0:0:0:
121,347,30291,2,0,P|232:345|190:225,1,260,0|8,0:0|0:3,0:0:0:0:
337,219,31731,6,0,P|298:110|397:2,1,260,0|8,0:0|0:3,0:0:0:0:
424,128,33171,2,0,P|436:197|430:263,1,130
330,338,34131,1,8,0:3:0:0:
202,317,34611,6,0,P|91:360|2:269,1,260,0|8,0:0|0:3,0:0:0:0:
115,205,36051,2,0,P|137:166|14:34,1,260,0|8,0:0|0:3,0:0:0:0:
3,162,37492,6,0,P|49:175|243:90,1,260,0|8,0:0|0:3,0:0:0:0:
303,210,38931,2,0,P|361:240|427:226,1,130
505,127,39893,1,8,0:3:0:0:
378,95,40373,6,0,P|421:230|398:363,1,260,0|8,0:0|0:3,0:0:0:0:
275,329,41813,2,0,P|221:342|144:331,1,130
122,205,42773,1,8,0:3:0:0:
55,316,43253,6,0,P|22:260|89:76,1,260,0|8,0:0|0:3,0:0:0:0:
122,205,44693,2,0,P|149:256|143:334,2,130,0|0|8,0:0|0:0|0:3,0:0:0:0:
240,260,46133,6,0,P|278:271|503:212,1,260,0|8,0:0|0:3,0:0:0:0:
391,136,47573,2,0,P|398:78|369:-1,1,130
256,57,48533,1,8,0:3:0:0:
150,132,49013,6,0,B|82:160|5:130|5:130|46:198|25:248,1,260,0|8,0:0|0:3,0:0:0:0:
103,342,50453,2,0,B|171:314|248:344|248:344|207:276|228:226,1,260,0|8,0:0|0:3,0:0:0:0:
273,118,51894,6,0,P|410:99|486:191,1,260,4|8,0:1|0:2,0:0:0:0:
358,223,53334,2,0,P|355:293|395:350,1,130
484,256,54294,1,8,0:2:0:0:
447,128,54774,6,0,P|318:120|205:178,1,260,2|8,0:1|0:2,0:0:0:0:
92,245,56214,2,0,P|75:187|90:111,1,130
197,51,57173,1,8,0:2:0:0:
204,180,57654,6,0,B|227:291|179:350|179:350|135:344|107:293,1,260,4|8,0:1|0:2,0:0:0:0:
111,174,59094,2,0,P|199:86|297:178,1,260,0|8,0:0|0:2,0:0:0:0:
335,274,60534,6,0,P|400:280|461:226,1,130,2|0,0:1|0:0,0:0:0:0:
497,123,61493,1,8,0:2:0:0:
381,62,61974,2,0,B|272:149|272:149|383:204,1,260,0|2,0:0|0:2,0:0:0:0:
492,266,63413,6,0,P|457:290|242:311,1,260,4|8,0:1|0:2,0:0:0:0:
121,274,64855,2,0,P|68:318|0:284,2,130,0|0|2,0:0|0:0|0:2,0:0:0:0:
245,312,66295,6,0,P|256:199|157:84,1,260,2|8,0:1|0:2,0:0:0:0:
280,23,67735,2,0,P|355:46|423:33,1,130
491,136,68695,1,8,0:2:0:0:
364,164,69175,6,0,P|443:262|399:380,1,260,4|8,0:1|0:2,0:0:0:0:
310,284,70615,2,0,P|269:307|177:325,1,130
135,206,71574,1,8,0:2:0:0:
36,120,72054,6,0,P|10:181|12:248,1,130,2|0,0:1|0:0,0:0:0:0:
135,206,73015,2,0,P|186:203|264:185,1,130,8|0,0:2|0:0,0:0:0:0:
371,114,73975,2,0,P|466:118|454:257,1,260
455,305,79256,6,0,P|465:258|394:52,1,260,0|8,0:0|0:3,0:0:0:0:
343,178,80696,2,0,P|356:220|242:186,1,260,0|8,0:0|0:3,0:0:0:0:
157,89,82136,6,0,P|125:158|147:348,1,260,0|8,0:0|0:3,0:0:0:0:
234,248,83576,2,0,P|274:238|364:238,1,130
484,281,84536,1,8,0:3:0:0:
366,336,85015,6,0,P|357:289|474:117,1,260,0|8,0:0|0:3,0:0:0:0:
336,94,86456,2,0,P|277:97|188:80,1,130
85,39,87415,1,8,0:3:0:0:
117,165,87896,6,0,P|170:314|99:377,1,260,0|8,0:0|0:3,0:0:0:0:
39,263,89337,2,0,P|161:284|303:252,1,260,0|8,0:0|0:3,0:0:0:0:
371,152,90777,6,0,P|364:38|472:69,1,260,0|8,0:0|0:3,0:0:0:0:
484,193,92217,2,0,P|371:242|251:180,1,260,0|8,0:0|0:3,0:0:0:0:
152,106,93656,6,0,P|50:168|142:234,1,260,0|8,0:0|0:3,0:0:0:0:
223,324,95096,2,0,P|162:354|78:361,2,130,0|0|8,0:0|0:0|0:3,0:0:0:0:
345,280,96536,6,0,P|403:368|403:260,1,260,0|8,0:0|0:3,0:0:0:0:
507,170,97976,2,0,P|465:167|377:181,1,130
251,208,98936,1,8,0:3:0:0:
121,216,99416,6,0,P|76:109|190:108,1,260,0|8,0:0|0:3,0:0:0:0:
251,208,100856,2,0,P|252:287|282:351,1,130
401,319,101817,1,0,0:0:0:0:
487,221,102297,6,0,P|443:115|386:215,1,260,4|8,0:1|0:2,0:0:0:0:
401,319,103737,2,0,P|296:334|149:278,1,260,0|8,0:0|0:2,0:0:0:0:
26,308,105177,6,0,P|18:243|40:171,1,130,2|0,0:1|0:0,0:0:0:0:
75,58,106137,1,8,0:2:0:0:
198,98,106617,2,0,P|266:186|158:217,1,260,0|8,0:0|0:2,0:0:0:0:
187,346,108057,6,0,P|248:348|332:318,1,130,4|0,0:1|0:0,0:0:0:0:
442,339,109017,1,8,0:2:0:0:
377,227,109497,2,0,P|320:151|432:164,1,260,0|8,0:0|0:2,0:0:0:0:
503,48,110937,6,0,P|449:28|353:31,1,130,2|0,0:1|0:0,0:0:0:0:
250,56,111897,1,8,0:2:0:0:
184,168,112377,2,0,P|71:177|4:50,1,260,0|8,0:0|0:2,0:0:0:0:
131,48,113817,6,0,P|91:188|120:312,1,260,4|8,0:1|0:2,0:0:0:0:
219,373,115258,2,0,P|237:324|227:235,1,130
189,124,116218,1,2,0:2:0:0:
62,155,116698,6,0,B|4:199|8:269|8:269|47:334|133:331,1,260,2|8,0:1|0:2,0:0:0:0:
240,300,118138,2,0,B|298:256|294:186|294:186|255:121|169:124,1,260,0|2,0:0|0:2,0:0:0:0:
145,256,119578,6,0,P|197:269|417:248,1,260,4|8,0:1|0:2,0:0:0:0:
485,155,121018,1,0,0:0:0:0:
355,149,121498,2,0,P|296:162|221:153,1,130,0|2,0:0|0:2,0:0:0:0:
166,39,122458,6,0,P|228:159|188:291,1,260,2|8,0:1|0:2,0:0:0:0:
85,337,123898,1,0,0:0:0:0:
141,219,124378,2,0,P|83:207|10:232,1,130
85,337,125338,6,0,B|159:348|210:309|210:309|273:357|354:312,1,260,8|0,0:3|0:0,0:0:0:0:
453,339,126779,2,0,P|485:258|485:187,2,130,8|0|0,0:3|0:0|0:0,0:0:0:0:
391,224,128219,6,0,P|383:184|497:11,1,260,8|0,0:3|0:0,0:0:0:0:
498,142,129659,2,0,P|460:157|239:120,1,260,8|0,0:3|0:0,0:0:0:0:
140,57,131099,6,0,P|99:39|10:31,2,130,8|0|0,0:3|0:0|0:0,0:0:0:0:
165,184,132539,2,0,P|183:304|250:228,1,260,8|0,0:3|0:0,0:0:0:0:
321,142,133979,6,0,P|362:280|306:372,1,260,8|0,0:3|0:0,0:0:0:0:
206,287,135419,2,0,P|275:262|471:278,1,260,8|0,0:3|0:0,0:0:0:0:
510,153,136859,6,0,P|492:109|302:11,1,260,8|0,0:3|0:0,0:0:0:0:
238,114,138299,2,0,P|171:121|98:110,1,130,8|0,0:3|0:0,0:0:0:0:
10,28,139260,1,0,0:0:0:0:
29,156,139740,6,0,P|32:297|145:348,1,260,8|0,0:3|0:0,0:0:0:0:
140,219,141180,2,0,P|177:197|383:242,1,260,8|0,0:3|0:0,0:0:0:0:
472,323,142620,6,0,P|496:230|471:69,1,260,8|0,0:3|0:0,0:0:0:0:
355,12,144060,2,0,P|341:67|363:140,2,130,8|0|0,0:3|0:0|0:0,0:0:0:0:
257,97,145500,6,0,P|192:124|10:55,1,260,8|0,0:3|0:0,0:0:0:0:
26,197,146940,2,0,P|127:286|218:221,1,260,8|0,0:3|0:0,0:0:0:0:
256,192,148380,12,0,151260,0:0:0:0:
