osu file format v14

[General]
AudioFilename: Qrispy Joybox feat Sana - Twinkle Wonderland.mp3
AudioLeadIn: 0
PreviewTime: -1
Countdown: 0
SampleSet: Normal
StackLeniency: 0.7
Mode: 3
LetterboxInBreaks: 0
SpecialStyle: 0
WidescreenStoryboard: 1

[Editor]
Bookmarks: 21381,31594,41807,52019,69892
DistanceSpacing: 1.1
BeatDivisor: 2
GridSize: 4
TimelineZoom: 1.6

[Metadata]
Title:Twinkle Wonderland
TitleUnicode:Twinkle Wonderland
Artist:Qrispy Joybox feat.sana
ArtistUnicode:Qrispy Joybox feat.sana
Creator:bLooD raYNe
Version:Insane
Source:REFLEC BEAT limelight
Tags:
BeatmapID:1305666
BeatmapSetID:619447

[Difficulty]
HPDrainRate:5
CircleSize:4
OverallDifficulty:5
ApproachRate:5
SliderMultiplier:1.4
SliderTickRate:1

[Events]
//Background and Video events
//Break Periods
2,25251,28958
2,30996,61032
//Storyboard Layer 0 (Background)
//Storyboard Layer 1 (Fail)
//Storyboard Layer 2 (Pass)
//Storyboard Layer 3 (Foreground)
//Storyboard Sound Samples

[TimingPoints]
956,319.148936170213,4,1,0,20,1,0
52019,-100,4,2,0,20,0,1
62232,-100,4,2,0,20,0,0
72445,-100,4,2,0,20,0,1
82578,-100,4,2,0,20,0,0
82658,-100,4,2,0,20,0,1
92870,-100,4,2,0,20,0,0

[HitObjects]
448,192,477,128,0,956:0:0:0:0:
64,192,956,1,0,0:0:0:0:
320,192,956,1,0,0:0:0:0:
192,192,1115,1,0,0:0:0:0:
320,192,1275,1,0,0:0:0:0:
448,192,1434,1,0,0:0:0:0:
192,192,1753,1,0,0:0:0:0:
64,192,1913,1,0,0:0:0:0:
320,192,1913,1,0,0:0:0:0:
448,192,2073,1,0,0:0:0:0:
192,192,2073,1,0,0:0:0:0:
64,192,2392,1,0,0:0:0:0:
192,192,2471,1,0,0:0:0:0:
64,192,2551,1,0,0:0:0:0:
192,192,2631,1,0,0:0:0:0:
64,192,2711,1,0,0:0:0:0:
448,192,2870,1,0,0:0:0:0:
192,192,3030,1,0,0:0:0:0:
320,192,3190,1,0,0:0:0:0:
448,192,3349,1,0,0:0:0:0:
64,192,3509,1,0,0:0:0:0:
320,192,3509,1,0,0:0:0:0:
192,192,3668,1,0,0:0:0:0:
320,192,3828,1,0,0:0:0:0:
448,192,3987,1,0,0:0:0:0:
192,192,4307,1,0,0:0:0:0:
64,192,4626,1,0,0:0:0:0:
448,192,4626,1,0,0:0:0:0:
448,192,4945,1,0,0:0:0:0:
192,192,5025,1,0,0:0:0:0:
320,192,5104,1,0,0:0:0:0:
64,192,5184,1,0,0:0:0:0:
320,192,5264,1,0,0:0:0:0:
192,192,5344,1,0,0:0:0:0:
448,192,5424,1,0,0:0:0:0:
192,192,5503,1,0,0:0:0:0:
64,192,5583,1,0,0:0:0:0:
320,192,5663,1,0,0:0:0:0:
448,192,5743,1,0,0:0:0:0:
192,192,5823,1,0,0:0:0:0:
64,192,5902,1,0,0:0:0:0:
320,192,5982,1,0,0:0:0:0:
448,192,6062,1,0,0:0:0:0:
192,192,6062,1,0,0:0:0:0:
320,192,6221,1,0,0:0:0:0:
192,192,6381,1,0,0:0:0:0:
64,192,6541,1,0,0:0:0:0:
320,192,6860,1,0,0:0:0:0:
192,192,7019,1,0,0:0:0:0:
448,192,7019,1,0,0:0:0:0:
64,192,7179,1,0,0:0:0:0:
320,192,7179,1,0,0:0:0:0:
448,192,7498,1,0,0:0:0:0:
320,192,7578,1,0,0:0:0:0:
448,192,7658,1,0,0:0:0:0:
320,192,7737,1,0,0:0:0:0:
448,192,7817,1,0,0:0:0:0:
64,192,7977,128,0,8615:0:0:0:0:
320,192,8136,1,0,0:0:0:0:
192,192,8296,1,0,0:0:0:0:
320,192,8456,1,0,0:0:0:0:
192,192,8615,1,0,0:0:0:0:
448,192,8615,1,0,0:0:0:0:
64,192,9253,1,0,0:0:0:0:
192,192,9253,1,0,0:0:0:0:
64,192,10051,1,0,0:0:0:0:
320,192,10051,1,0,0:0:0:0:
320,192,10370,1,0,0:0:0:0:
448,192,10370,1,0,0:0:0:0:
64,192,10690,1,0,0:0:0:0:
192,192,10690,1,0,0:0:0:0:
448,192,10690,128,0,11168:0:0:0:0:
192,192,11168,1,0,0:0:0:0:
320,192,11168,1,0,0:0:0:0:
64,192,11328,1,0,0:0:0:0:
192,192,11487,1,0,0:0:0:0:
448,192,11487,1,0,0:0:0:0:
320,192,11647,1,0,0:0:0:0:
64,192,11807,1,0,0:0:0:0:
192,192,11807,1,0,0:0:0:0:
320,192,11966,1,0,0:0:0:0:
192,192,12126,1,0,0:0:0:0:
448,192,12126,1,0,0:0:0:0:
64,192,12285,1,0,0:0:0:0:
192,192,12445,1,0,0:0:0:0:
448,192,12445,1,0,0:0:0:0:
320,192,12604,1,0,0:0:0:0:
64,192,12764,1,0,0:0:0:0:
448,192,12764,1,0,0:0:0:0:
192,192,12924,1,0,0:0:0:0:
320,192,13083,1,0,0:0:0:0:
448,192,13083,1,0,0:0:0:0:
192,192,13243,1,0,0:0:0:0:
448,192,13243,1,0,0:0:0:0:
64,192,13243,1,0,0:0:0:0:
192,192,13562,1,0,0:0:0:0:
64,192,13562,1,0,0:0:0:0:
320,192,13721,1,0,0:0:0:0:
64,192,13721,1,0,0:0:0:0:
448,192,13721,1,0,0:0:0:0:
192,192,13881,1,0,0:0:0:0:
64,192,14041,1,0,0:0:0:0:
320,192,14041,1,0,0:0:0:0:
192,192,14200,1,0,0:0:0:0:
64,192,14360,1,0,0:0:0:0:
448,192,14360,1,0,0:0:0:0:
192,192,14519,1,0,0:0:0:0:
448,192,14679,1,0,0:0:0:0:
320,192,14679,1,0,0:0:0:0:
64,192,14838,1,0,0:0:0:0:
192,192,14838,1,0,0:0:0:0:
448,192,14838,1,0,0:0:0:0:
448,192,15158,1,0,0:0:0:0:
320,192,15237,1,0,0:0:0:0:
192,192,15317,1,0,0:0:0:0:
64,192,15317,1,0,0:0:0:0:
448,192,15397,1,0,0:0:0:0:
320,192,15477,1,0,0:0:0:0:
192,192,15557,1,0,0:0:0:0:
64,192,15636,1,0,0:0:0:0:
448,192,15636,1,0,0:0:0:0:
320,192,15716,1,0,0:0:0:0:
192,192,15796,1,0,0:0:0:0:
64,192,15796,1,0,0:0:0:0:
448,192,15876,1,0,0:0:0:0:
320,192,15956,1,0,0:0:0:0:
192,192,16035,1,0,0:0:0:0:
64,192,16115,1,0,0:0:0:0:
448,192,16115,1,0,0:0:0:0:
320,192,16195,1,0,0:0:0:0:
192,192,16275,1,0,0:0:0:0:
64,192,16275,1,0,0:0:0:0:
448,192,16275,1,0,0:0:0:0:
320,192,16434,1,0,0:0:0:0:
64,192,16594,1,0,0:0:0:0:
448,192,16594,1,0,0:0:0:0:
192,192,16753,1,0,0:0:0:0:
64,192,16913,1,0,0:0:0:0:
320,192,16913,1,0,0:0:0:0:
448,192,17073,1,0,0:0:0:0:
64,192,17232,1,0,0:0:0:0:
192,192,17232,1,0,0:0:0:0:
320,192,17392,1,0,0:0:0:0:
448,192,17392,1,0,0:0:0:0:
64,192,17392,1,0,0:0:0:0:
192,192,17551,1,0,0:0:0:0:
320,192,17711,1,0,0:0:0:0:
448,192,17711,1,0,0:0:0:0:
192,192,17870,1,0,0:0:0:0:
64,192,18030,1,0,0:0:0:0:
448,192,18030,1,0,0:0:0:0:
192,192,18190,1,0,0:0:0:0:
64,192,18349,1,0,0:0:0:0:
320,192,18349,1,0,0:0:0:0:
192,192,18509,1,0,0:0:0:0:
320,192,18668,1,0,0:0:0:0:
64,192,18828,1,0,0:0:0:0:
192,192,18828,1,0,0:0:0:0:
448,192,18828,1,0,0:0:0:0:
448,192,18987,1,0,0:0:0:0:
320,192,18987,1,0,0:0:0:0:
64,192,19147,1,0,0:0:0:0:
192,192,19147,1,0,0:0:0:0:
320,192,19307,1,0,0:0:0:0:
448,192,19307,1,0,0:0:0:0:
192,192,19307,1,0,0:0:0:0:
64,192,19466,1,0,0:0:0:0:
320,192,19466,1,0,0:0:0:0:
192,192,19626,1,0,0:0:0:0:
448,192,19626,1,0,0:0:0:0:
320,192,19785,1,0,0:0:0:0:
64,192,19785,1,0,0:0:0:0:
448,192,19945,1,0,0:0:0:0:
64,192,19945,128,0,21062:0:0:0:0:
320,192,19945,128,0,20743:0:0:0:0:
448,192,20743,128,0,21381:0:0:0:0:
320,192,21062,1,0,0:0:0:0:
192,192,21142,1,0,0:0:0:0:
64,192,21221,1,0,0:0:0:0:
320,192,21381,1,0,0:0:0:0:
192,192,21381,1,0,0:0:0:0:
192,192,21541,1,0,0:0:0:0:
64,192,21700,1,0,0:0:0:0:
320,192,21700,1,0,0:0:0:0:
320,192,21860,1,0,0:0:0:0:
448,192,22019,1,0,0:0:0:0:
192,192,22019,1,0,0:0:0:0:
320,192,22179,1,0,0:0:0:0:
64,192,22179,1,0,0:0:0:0:
448,192,22338,1,0,0:0:0:0:
192,192,22338,1,0,0:0:0:0:
320,192,22498,1,0,0:0:0:0:
448,192,22658,1,0,0:0:0:0:
64,192,22658,1,0,0:0:0:0:
192,192,22817,1,0,0:0:0:0:
448,192,22817,1,0,0:0:0:0:
448,192,22977,1,0,0:0:0:0:
64,192,22977,1,0,0:0:0:0:
192,192,23136,1,0,0:0:0:0:
448,192,23136,1,0,0:0:0:0:
64,192,23296,1,0,0:0:0:0:
320,192,23296,1,0,0:0:0:0:
64,192,23456,1,0,0:0:0:0:
448,192,23456,1,0,0:0:0:0:
320,192,23615,1,0,0:0:0:0:
64,192,23615,1,0,0:0:0:0:
64,192,23775,1,0,0:0:0:0:
448,192,23775,1,0,0:0:0:0:
192,192,23934,1,0,0:0:0:0:
320,192,23934,1,0,0:0:0:0:
320,192,24094,1,0,0:0:0:0:
192,192,24253,1,0,0:0:0:0:
448,192,24253,1,0,0:0:0:0:
192,192,24413,1,0,0:0:0:0:
64,192,24573,1,0,0:0:0:0:
320,192,24573,1,0,0:0:0:0:
192,192,24732,1,0,0:0:0:0:
448,192,24732,1,0,0:0:0:0:
64,192,24892,1,0,0:0:0:0:
320,192,24892,1,0,0:0:0:0:
192,192,25051,1,0,0:0:0:0:
448,192,25051,1,0,0:0:0:0:
64,192,30158,5,0,0:0:0:0:
320,192,30158,1,0,0:0:0:0:
448,192,30158,1,0,0:0:0:0:
320,192,30477,1,0,0:0:0:0:
448,192,30477,1,0,0:0:0:0:
64,192,30477,1,0,0:0:0:0:
64,192,30796,1,0,0:0:0:0:
320,192,30796,1,0,0:0:0:0:
192,192,30796,1,0,0:0:0:0:
64,192,62232,132,0,63349:0:0:0:0:
192,192,62232,128,0,63190:0:0:0:0:
320,192,63190,1,0,0:0:0:0:
320,192,63349,128,0,64785:0:0:0:0:
448,192,63349,1,0,0:0:0:0:
64,192,64785,128,0,65902:0:0:0:0:
192,192,64785,1,0,0:0:0:0:
448,192,65902,1,0,0:0:0:0:
64,192,66221,1,0,0:0:0:0:
320,192,66301,1,0,0:0:0:0:
192,192,66381,1,0,0:0:0:0:
448,192,66461,1,0,0:0:0:0:
192,192,66541,1,0,0:0:0:0:
320,192,66620,1,0,0:0:0:0:
64,192,66700,1,0,0:0:0:0:
320,192,66780,1,0,0:0:0:0:
448,192,66860,1,0,0:0:0:0:
192,192,66940,1,0,0:0:0:0:
64,192,67019,1,0,0:0:0:0:
320,192,67099,1,0,0:0:0:0:
448,192,67179,1,0,0:0:0:0:
192,192,67259,1,0,0:0:0:0:
448,192,67338,128,0,68456:0:0:0:0:
320,192,67338,128,0,68296:0:0:0:0:
192,192,68296,1,0,0:0:0:0:
64,192,68456,1,0,0:0:0:0:
192,192,68456,128,0,69892:0:0:0:0:
320,192,69253,128,0,69892:0:0:0:0:
64,192,69892,1,0,0:0:0:0:
448,192,69892,1,0,0:0:0:0:
192,192,70530,1,0,0:0:0:0:
448,192,70530,1,0,0:0:0:0:
320,192,71328,1,0,0:0:0:0:
448,192,71328,1,0,0:0:0:0:
64,192,71647,1,0,0:0:0:0:
320,192,71647,1,0,0:0:0:0:
320,192,71966,1,0,0:0:0:0:
448,192,71966,1,0,0:0:0:0:
64,192,71966,128,0,72445:0:0:0:0:
192,192,72445,1,0,0:0:0:0:
320,192,72445,1,0,0:0:0:0:
448,192,72604,1,0,0:0:0:0:
64,192,72764,1,0,0:0:0:0:
320,192,72764,1,0,0:0:0:0:
448,192,72924,1,0,0:0:0:0:
64,192,73083,1,0,0:0:0:0:
192,192,73083,1,0,0:0:0:0:
320,192,73243,1,0,0:0:0:0:
192,192,73402,1,0,0:0:0:0:
448,192,73402,1,0,0:0:0:0:
320,192,73562,1,0,0:0:0:0:
448,192,73721,1,0,0:0:0:0:
64,192,73721,1,0,0:0:0:0:
320,192,73881,1,0,0:0:0:0:
192,192,74041,1,0,0:0:0:0:
64,192,74041,1,0,0:0:0:0:
448,192,74200,1,0,0:0:0:0:
192,192,74360,1,0,0:0:0:0:
64,192,74360,1,0,0:0:0:0:
64,192,74519,1,0,0:0:0:0:
320,192,74519,1,0,0:0:0:0:
448,192,74519,1,0,0:0:0:0:
192,192,74679,1,0,0:0:0:0:
64,192,74679,1,0,0:0:0:0:
320,192,74838,1,0,0:0:0:0:
448,192,74838,1,0,0:0:0:0:
448,192,74998,1,0,0:0:0:0:
192,192,74998,1,0,0:0:0:0:
64,192,74998,1,0,0:0:0:0:
320,192,75158,1,0,0:0:0:0:
64,192,75317,1,0,0:0:0:0:
192,192,75317,1,0,0:0:0:0:
320,192,75477,1,0,0:0:0:0:
448,192,75636,1,0,0:0:0:0:
192,192,75636,1,0,0:0:0:0:
320,192,75796,1,0,0:0:0:0:
192,192,75956,1,0,0:0:0:0:
64,192,75956,1,0,0:0:0:0:
448,192,76115,1,0,0:0:0:0:
64,192,76115,1,0,0:0:0:0:
320,192,76115,1,0,0:0:0:0:
64,192,76434,1,0,0:0:0:0:
192,192,76514,1,0,0:0:0:0:
448,192,76594,1,0,0:0:0:0:
320,192,76594,1,0,0:0:0:0:
64,192,76674,1,0,0:0:0:0:
192,192,76753,1,0,0:0:0:0:
320,192,76833,1,0,0:0:0:0:
448,192,76913,1,0,0:0:0:0:
64,192,76913,1,0,0:0:0:0:
192,192,76993,1,0,0:0:0:0:
448,192,77073,1,0,0:0:0:0:
320,192,77073,1,0,0:0:0:0:
64,192,77152,1,0,0:0:0:0:
192,192,77232,1,0,0:0:0:0:
320,192,77312,1,0,0:0:0:0:
64,192,77392,1,0,0:0:0:0:
448,192,77392,1,0,0:0:0:0:
192,192,77471,1,0,0:0:0:0:
448,192,77551,1,0,0:0:0:0:
320,192,77551,1,0,0:0:0:0:
64,192,77551,1,0,0:0:0:0:
192,192,77711,1,0,0:0:0:0:
64,192,77870,1,0,0:0:0:0:
448,192,77870,1,0,0:0:0:0:
320,192,78030,1,0,0:0:0:0:
192,192,78190,1,0,0:0:0:0:
448,192,78190,1,0,0:0:0:0:
320,192,78349,1,0,0:0:0:0:
64,192,78509,1,0,0:0:0:0:
192,192,78509,1,0,0:0:0:0:
448,192,78668,1,0,0:0:0:0:
64,192,78828,1,0,0:0:0:0:
320,192,78828,1,0,0:0:0:0:
192,192,78987,1,0,0:0:0:0:
320,192,79147,1,0,0:0:0:0:
448,192,79147,1,0,0:0:0:0:
64,192,79307,1,0,0:0:0:0:
192,192,79466,1,0,0:0:0:0:
320,192,79466,1,0,0:0:0:0:
64,192,79626,1,0,0:0:0:0:
448,192,79626,1,0,0:0:0:0:
192,192,79626,1,0,0:0:0:0:
320,192,79785,1,0,0:0:0:0:
192,192,79945,1,0,0:0:0:0:
448,192,80104,1,0,0:0:0:0:
320,192,80104,1,0,0:0:0:0:
64,192,80104,1,0,0:0:0:0:
64,192,80264,1,0,0:0:0:0:
192,192,80264,1,0,0:0:0:0:
320,192,80424,1,0,0:0:0:0:
448,192,80424,1,0,0:0:0:0:
320,192,80583,1,0,0:0:0:0:
192,192,80583,1,0,0:0:0:0:
64,192,80583,1,0,0:0:0:0:
192,192,80743,1,0,0:0:0:0:
448,192,80743,1,0,0:0:0:0:
64,192,80902,1,0,0:0:0:0:
320,192,80902,1,0,0:0:0:0:
448,192,81062,1,0,0:0:0:0:
192,192,81062,1,0,0:0:0:0:
64,192,81221,1,0,0:0:0:0:
192,192,81221,1,0,0:0:0:0:
448,192,81221,1,0,0:0:0:0:
448,192,81700,1,0,0:0:0:0:
192,192,81780,1,0,0:0:0:0:
320,192,81860,1,0,0:0:0:0:
64,192,81940,1,0,0:0:0:0:
320,192,82019,1,0,0:0:0:0:
192,192,82099,1,0,0:0:0:0:
448,192,82179,1,0,0:0:0:0:
192,192,82259,1,0,0:0:0:0:
64,192,82338,1,0,0:0:0:0:
320,192,82418,1,0,0:0:0:0:
448,192,82498,1,0,0:0:0:0:
192,192,82578,1,0,0:0:0:0:
64,192,82658,1,0,0:0:0:0:
320,192,82658,1,0,0:0:0:0:
448,192,82658,1,0,0:0:0:0:
192,192,82817,1,0,0:0:0:0:
64,192,82977,1,0,0:0:0:0:
320,192,82977,1,0,0:0:0:0:
448,192,82977,1,0,0:0:0:0:
320,192,83136,1,0,0:0:0:0:
192,192,83296,1,0,0:0:0:0:
64,192,83296,1,0,0:0:0:0:
448,192,83296,1,0,0:0:0:0:
320,192,83456,1,0,0:0:0:0:
192,192,83615,1,0,0:0:0:0:
64,192,83615,1,0,0:0:0:0:
448,192,83775,1,0,0:0:0:0:
64,192,83775,1,0,0:0:0:0:
320,192,83775,1,0,0:0:0:0:
192,192,83934,1,0,0:0:0:0:
448,192,83934,1,0,0:0:0:0:
320,192,84094,1,0,0:0:0:0:
64,192,84253,1,0,0:0:0:0:
192,192,84253,1,0,0:0:0:0:
448,192,84253,1,0,0:0:0:0:
320,192,84413,1,0,0:0:0:0:
192,192,84573,1,0,0:0:0:0:
64,192,84573,1,0,0:0:0:0:
192,192,84732,1,0,0:0:0:0:
320,192,84732,1,0,0:0:0:0:
448,192,84732,1,0,0:0:0:0:
320,192,85051,1,0,0:0:0:0:
448,192,85051,1,0,0:0:0:0:
64,192,85211,1,0,0:0:0:0:
192,192,85211,1,0,0:0:0:0:
320,192,85211,1,0,0:0:0:0:
320,192,85370,1,0,0:0:0:0:
64,192,85530,1,0,0:0:0:0:
192,192,85530,1,0,0:0:0:0:
448,192,85530,1,0,0:0:0:0:
192,192,85690,1,0,0:0:0:0:
320,192,85849,1,0,0:0:0:0:
64,192,85849,1,0,0:0:0:0:
448,192,85849,1,0,0:0:0:0:
64,192,86009,1,0,0:0:0:0:
448,192,86168,1,0,0:0:0:0:
320,192,86168,1,0,0:0:0:0:
64,192,86328,1,0,0:0:0:0:
448,192,86328,1,0,0:0:0:0:
192,192,86328,1,0,0:0:0:0:
448,192,86647,1,0,0:0:0:0:
320,192,86727,1,0,0:0:0:0:
64,192,86807,1,0,0:0:0:0:
192,192,86807,1,0,0:0:0:0:
448,192,86886,1,0,0:0:0:0:
320,192,86966,1,0,0:0:0:0:
192,192,87046,1,0,0:0:0:0:
64,192,87126,1,0,0:0:0:0:
448,192,87126,1,0,0:0:0:0:
320,192,87206,1,0,0:0:0:0:
64,192,87285,1,0,0:0:0:0:
192,192,87285,1,0,0:0:0:0:
448,192,87365,1,0,0:0:0:0:
320,192,87445,1,0,0:0:0:0:
192,192,87525,1,0,0:0:0:0:
448,192,87604,1,0,0:0:0:0:
64,192,87604,1,0,0:0:0:0:
320,192,87684,1,0,0:0:0:0:
64,192,87764,1,0,0:0:0:0:
192,192,87764,1,0,0:0:0:0:
448,192,87764,1,0,0:0:0:0:
64,192,87924,1,0,0:0:0:0:
64,192,88083,1,0,0:0:0:0:
320,192,88083,1,0,0:0:0:0:
192,192,88083,1,0,0:0:0:0:
320,192,88243,1,0,0:0:0:0:
192,192,88402,1,0,0:0:0:0:
448,192,88402,1,0,0:0:0:0:
64,192,88402,1,0,0:0:0:0:
448,192,88562,1,0,0:0:0:0:
192,192,88721,1,0,0:0:0:0:
64,192,88721,1,0,0:0:0:0:
320,192,88881,1,0,0:0:0:0:
448,192,88881,1,0,0:0:0:0:
64,192,88881,1,0,0:0:0:0:
448,192,89200,1,0,0:0:0:0:
64,192,89200,1,0,0:0:0:0:
320,192,89360,1,0,0:0:0:0:
64,192,89360,1,0,0:0:0:0:
192,192,89519,1,0,0:0:0:0:
64,192,89519,1,0,0:0:0:0:
320,192,89679,1,0,0:0:0:0:
448,192,89679,1,0,0:0:0:0:
192,192,89838,1,0,0:0:0:0:
64,192,89838,1,0,0:0:0:0:
192,192,89998,1,0,0:0:0:0:
448,192,89998,1,0,0:0:0:0:
320,192,90158,1,0,0:0:0:0:
64,192,90317,1,0,0:0:0:0:
448,192,90317,1,0,0:0:0:0:
192,192,90317,128,0,90796:0:0:0:0:
320,192,90477,1,0,0:0:0:0:
448,192,90636,1,0,0:0:0:0:
64,192,90796,1,0,0:0:0:0:
320,192,90796,128,0,91434:0:0:0:0:
192,192,90956,1,0,0:0:0:0:
64,192,91115,1,0,0:0:0:0:
192,192,91275,1,0,0:0:0:0:
64,192,91434,128,0,92870:0:0:0:0:
448,192,91434,128,0,92232:0:0:0:0:
192,192,92232,1,0,0:0:0:0:
320,192,92392,1,0,0:0:0:0:
448,192,92551,1,0,0:0:0:0:
192,192,92711,1,0,0:0:0:0:
448,192,92870,128,0,93987:0:0:0:0:
320,192,92870,128,0,93828:0:0:0:0:
192,192,93828,1,0,0:0:0:0:
64,192,93987,1,0,0:0:0:0:
320,192,93987,128,0,95424:0:0:0:0:
