osu file format v14

[General]
AudioFilename: Qrispy Joybox feat Sana - Twinkle Wonderland.mp3
AudioLeadIn: 0
PreviewTime: -1
Countdown: 0
SampleSet: Soft
StackLeniency: 0.7
Mode: 3
LetterboxInBreaks: 0
SpecialStyle: 0
WidescreenStoryboard: 1

[Editor]
Bookmarks: 21381,31594,41807
DistanceSpacing: 1.1
BeatDivisor: 2
GridSize: 4
TimelineZoom: 1.7

[Metadata]
Title:Twinkle Wonderland
TitleUnicode:Twinkle Wonderland
Artist:Qrispy Joybox feat.sana
ArtistUnicode:Qrispy Joybox feat.sana
Creator:bLooD raYNe
Version:Hard
Source:REFLEC BEAT limelight
Tags:
BeatmapID:1305665
BeatmapSetID:619447

[Difficulty]
HPDrainRate:5
CircleSize:4
OverallDifficulty:5
ApproachRate:5
SliderMultiplier:1.4
SliderTickRate:1

[Events]
//Background and Video events
//Break Periods
//Storyboard Layer 0 (Background)
//Storyboard Layer 1 (Fail)
//Storyboard Layer 2 (Pass)
//Storyboard Layer 3 (Foreground)
//Storyboard Sound Samples

[TimingPoints]
956,319.148936170213,4,2,0,20,1,0
52019,-100,4,2,0,20,0,1
62232,-100,4,2,0,20,0,0
72445,-100,4,2,0,20,0,1
82578,-100,4,2,0,20,0,0
82658,-100,4,2,0,20,0,1
92870,-100,4,2,0,20,0,0

[HitObjects]
192,192,477,128,0,956:0:0:0:0:
448,192,956,1,0,0:0:0:0:
64,192,956,1,0,0:0:0:0:
320,192,1115,1,0,0:0:0:0:
192,192,1275,1,0,0:0:0:0:
64,192,1434,1,0,0:0:0:0:
192,192,1753,1,0,0:0:0:0:
320,192,1913,1,0,0:0:0:0:
448,192,2073,1,0,0:0:0:0:
192,192,2073,1,0,0:0:0:0:
64,192,2392,1,0,0:0:0:0:
192,192,2471,1,0,0:0:0:0:
448,192,2551,1,0,0:0:0:0:
320,192,2631,1,0,0:0:0:0:
64,192,2711,1,0,0:0:0:0:
448,192,2870,1,0,0:0:0:0:
320,192,3030,1,0,0:0:0:0:
192,192,3190,1,0,0:0:0:0:
320,192,3349,1,0,0:0:0:0:
64,192,3509,1,0,0:0:0:0:
448,192,3509,1,0,0:0:0:0:
192,192,3668,1,0,0:0:0:0:
320,192,3828,1,0,0:0:0:0:
448,192,3987,1,0,0:0:0:0:
192,192,4307,1,0,0:0:0:0:
64,192,4626,1,0,0:0:0:0:
320,192,4626,1,0,0:0:0:0:
448,192,4945,1,0,0:0:0:0:
320,192,5025,1,0,0:0:0:0:
64,192,5104,1,0,0:0:0:0:
192,192,5184,1,0,0:0:0:0:
448,192,5264,1,0,0:0:0:0:
320,192,5344,1,0,0:0:0:0:
64,192,5424,1,0,0:0:0:0:
192,192,5503,1,0,0:0:0:0:
448,192,5583,1,0,0:0:0:0:
320,192,5663,1,0,0:0:0:0:
64,192,5743,1,0,0:0:0:0:
192,192,5823,1,0,0:0:0:0:
448,192,5902,1,0,0:0:0:0:
320,192,5982,1,0,0:0:0:0:
64,192,6062,1,0,0:0:0:0:
192,192,6062,1,0,0:0:0:0:
320,192,6221,1,0,0:0:0:0:
64,192,6381,1,0,0:0:0:0:
192,192,6541,1,0,0:0:0:0:
448,192,6860,1,0,0:0:0:0:
192,192,7019,1,0,0:0:0:0:
320,192,7179,1,0,0:0:0:0:
64,192,7179,1,0,0:0:0:0:
448,192,7498,1,0,0:0:0:0:
320,192,7578,1,0,0:0:0:0:
64,192,7658,1,0,0:0:0:0:
192,192,7737,1,0,0:0:0:0:
448,192,7817,1,0,0:0:0:0:
64,192,7977,1,0,0:0:0:0:
320,192,8136,1,0,0:0:0:0:
192,192,8296,1,0,0:0:0:0:
64,192,8456,1,0,0:0:0:0:
320,192,8615,1,0,0:0:0:0:
448,192,8615,1,0,0:0:0:0:
64,192,9253,1,0,0:0:0:0:
448,192,9253,1,0,0:0:0:0:
192,192,10051,1,0,0:0:0:0:
448,192,10051,1,0,0:0:0:0:
320,192,10370,1,0,0:0:0:0:
64,192,10370,1,0,0:0:0:0:
192,192,10690,128,0,11168:0:0:0:0:
448,192,10690,1,0,0:0:0:0:
320,192,11168,1,0,0:0:0:0:
64,192,11168,1,0,0:0:0:0:
192,192,11328,1,0,0:0:0:0:
64,192,11487,1,0,0:0:0:0:
448,192,11487,1,0,0:0:0:0:
320,192,11647,1,0,0:0:0:0:
448,192,11807,1,0,0:0:0:0:
192,192,11807,1,0,0:0:0:0:
320,192,11966,1,0,0:0:0:0:
192,192,12126,1,0,0:0:0:0:
64,192,12126,1,0,0:0:0:0:
448,192,12285,1,0,0:0:0:0:
320,192,12445,1,0,0:0:0:0:
192,192,12445,1,0,0:0:0:0:
64,192,12604,1,0,0:0:0:0:
448,192,12764,1,0,0:0:0:0:
192,192,12764,1,0,0:0:0:0:
320,192,12924,1,0,0:0:0:0:
64,192,13083,1,0,0:0:0:0:
192,192,13083,1,0,0:0:0:0:
320,192,13243,1,0,0:0:0:0:
448,192,13243,1,0,0:0:0:0:
320,192,13562,1,0,0:0:0:0:
448,192,13562,1,0,0:0:0:0:
192,192,13721,1,0,0:0:0:0:
64,192,13721,1,0,0:0:0:0:
320,192,13881,1,0,0:0:0:0:
448,192,14041,1,0,0:0:0:0:
64,192,14041,1,0,0:0:0:0:
192,192,14200,1,0,0:0:0:0:
320,192,14360,1,0,0:0:0:0:
448,192,14360,1,0,0:0:0:0:
64,192,14519,1,0,0:0:0:0:
320,192,14679,1,0,0:0:0:0:
192,192,14679,1,0,0:0:0:0:
64,192,14838,1,0,0:0:0:0:
448,192,14838,1,0,0:0:0:0:
192,192,15158,1,0,0:0:0:0:
64,192,15317,1,0,0:0:0:0:
320,192,15317,1,0,0:0:0:0:
192,192,15477,1,0,0:0:0:0:
320,192,15636,1,0,0:0:0:0:
448,192,15636,1,0,0:0:0:0:
64,192,15796,1,0,0:0:0:0:
192,192,15796,1,0,0:0:0:0:
64,192,16115,1,0,0:0:0:0:
192,192,16115,1,0,0:0:0:0:
320,192,16275,1,0,0:0:0:0:
448,192,16275,1,0,0:0:0:0:
192,192,16434,1,0,0:0:0:0:
64,192,16594,1,0,0:0:0:0:
448,192,16594,1,0,0:0:0:0:
320,192,16753,1,0,0:0:0:0:
192,192,16913,1,0,0:0:0:0:
64,192,16913,1,0,0:0:0:0:
320,192,17073,1,0,0:0:0:0:
448,192,17232,1,0,0:0:0:0:
64,192,17232,1,0,0:0:0:0:
192,192,17392,1,0,0:0:0:0:
320,192,17392,1,0,0:0:0:0:
448,192,17711,1,0,0:0:0:0:
64,192,17870,1,0,0:0:0:0:
192,192,17870,1,0,0:0:0:0:
320,192,18030,1,0,0:0:0:0:
64,192,18190,1,0,0:0:0:0:
448,192,18190,1,0,0:0:0:0:
192,192,18349,1,0,0:0:0:0:
448,192,18509,1,0,0:0:0:0:
320,192,18509,1,0,0:0:0:0:
192,192,18668,1,0,0:0:0:0:
64,192,18828,1,0,0:0:0:0:
320,192,18828,1,0,0:0:0:0:
448,192,18828,1,0,0:0:0:0:
192,192,18987,1,0,0:0:0:0:
320,192,19147,1,0,0:0:0:0:
64,192,19307,1,0,0:0:0:0:
448,192,19307,1,0,0:0:0:0:
192,192,19307,1,0,0:0:0:0:
320,192,19466,1,0,0:0:0:0:
192,192,19626,1,0,0:0:0:0:
320,192,19785,1,0,0:0:0:0:
64,192,19945,1,0,0:0:0:0:
448,192,19945,1,0,0:0:0:0:
192,192,19945,1,0,0:0:0:0:
448,192,20743,128,0,21381:0:0:0:0:
64,192,21062,1,0,0:0:0:0:
192,192,21142,1,0,0:0:0:0:
320,192,21221,1,0,0:0:0:0:
192,192,21381,1,0,0:0:0:0:
64,192,21381,128,0,21700:0:0:0:0:
448,192,21700,128,0,22019:0:0:0:0:
320,192,21700,1,0,0:0:0:0:
64,192,22019,1,0,0:0:0:0:
320,192,22019,1,0,0:0:0:0:
192,192,22179,1,0,0:0:0:0:
64,192,22338,1,0,0:0:0:0:
320,192,22338,1,0,0:0:0:0:
192,192,22498,128,0,23934:0:0:0:0:
448,192,22658,1,0,0:0:0:0:
320,192,22817,1,0,0:0:0:0:
64,192,22977,1,0,0:0:0:0:
448,192,22977,1,0,0:0:0:0:
320,192,23136,1,0,0:0:0:0:
64,192,23296,1,0,0:0:0:0:
320,192,23456,1,0,0:0:0:0:
448,192,23615,1,0,0:0:0:0:
64,192,23615,1,0,0:0:0:0:
320,192,23775,1,0,0:0:0:0:
448,192,23934,128,0,24253:0:0:0:0:
64,192,23934,1,0,0:0:0:0:
64,192,24253,128,0,24573:0:0:0:0:
192,192,24253,1,0,0:0:0:0:
192,192,24573,1,0,0:0:0:0:
448,192,24573,1,0,0:0:0:0:
320,192,24732,1,0,0:0:0:0:
192,192,24892,1,0,0:0:0:0:
448,192,24892,1,0,0:0:0:0:
320,192,25051,128,0,26009:0:0:0:0:
64,192,25211,1,0,0:0:0:0:
192,192,25370,1,0,0:0:0:0:
64,192,25530,1,0,0:0:0:0:
448,192,25530,1,0,0:0:0:0:
192,192,25690,1,0,0:0:0:0:
448,192,25849,1,0,0:0:0:0:
192,192,26009,128,0,26487:0:0:0:0:
64,192,26009,1,0,0:0:0:0:
64,192,26487,128,0,26807:0:0:0:0:
448,192,26487,1,0,0:0:0:0:
448,192,26807,128,0,27126:0:0:0:0:
320,192,26807,1,0,0:0:0:0:
64,192,27126,1,0,0:0:0:0:
320,192,27126,1,0,0:0:0:0:
192,192,27285,1,0,0:0:0:0:
64,192,27445,1,0,0:0:0:0:
320,192,27445,1,0,0:0:0:0:
192,192,27604,128,0,29041:0:0:0:0:
448,192,27764,1,0,0:0:0:0:
320,192,27924,1,0,0:0:0:0:
64,192,28083,1,0,0:0:0:0:
448,192,28083,1,0,0:0:0:0:
320,192,28243,1,0,0:0:0:0:
64,192,28402,1,0,0:0:0:0:
320,192,28562,1,0,0:0:0:0:
64,192,28721,1,0,0:0:0:0:
448,192,28721,1,0,0:0:0:0:
320,192,28881,1,0,0:0:0:0:
64,192,29041,128,0,29360:0:0:0:0:
448,192,29041,1,0,0:0:0:0:
320,192,29360,128,0,29679:0:0:0:0:
448,192,29360,1,0,0:0:0:0:
448,192,29679,1,0,0:0:0:0:
192,192,29679,1,0,0:0:0:0:
320,192,29838,1,0,0:0:0:0:
64,192,29998,1,0,0:0:0:0:
192,192,29998,1,0,0:0:0:0:
64,192,30158,1,0,0:0:0:0:
320,192,30158,1,0,0:0:0:0:
448,192,30158,1,0,0:0:0:0:
192,192,30477,1,0,0:0:0:0:
64,192,30477,1,0,0:0:0:0:
448,192,30477,1,0,0:0:0:0:
448,192,30796,1,0,0:0:0:0:
64,192,30796,1,0,0:0:0:0:
320,192,30796,128,0,31594:0:0:0:0:
192,192,31275,128,0,31594:0:0:0:0:
64,192,31594,1,0,0:0:0:0:
448,192,31594,1,0,0:0:0:0:
64,192,31753,128,0,31913:0:0:0:0:
448,192,31913,1,0,0:0:0:0:
192,192,31913,1,0,0:0:0:0:
320,192,32073,128,0,32232:0:0:0:0:
192,192,32232,1,0,0:0:0:0:
192,192,32392,1,0,0:0:0:0:
320,192,32551,1,0,0:0:0:0:
448,192,32551,1,0,0:0:0:0:
320,192,32711,1,0,0:0:0:0:
448,192,32711,1,0,0:0:0:0:
192,192,32870,1,0,0:0:0:0:
64,192,33030,128,0,33349:0:0:0:0:
448,192,33349,128,0,33509:0:0:0:0:
320,192,33509,128,0,33668:0:0:0:0:
64,192,33668,128,0,33828:0:0:0:0:
192,192,33828,128,0,33987:0:0:0:0:
320,192,33987,128,0,34147:0:0:0:0:
448,192,34147,1,0,0:0:0:0:
64,192,34147,1,0,0:0:0:0:
448,192,34307,128,0,34466:0:0:0:0:
320,192,34466,1,0,0:0:0:0:
64,192,34466,1,0,0:0:0:0:
192,192,34626,128,0,34785:0:0:0:0:
320,192,34785,1,0,0:0:0:0:
320,192,34945,1,0,0:0:0:0:
192,192,35104,1,0,0:0:0:0:
64,192,35104,1,0,0:0:0:0:
192,192,35264,1,0,0:0:0:0:
64,192,35264,1,0,0:0:0:0:
320,192,35424,1,0,0:0:0:0:
64,192,35583,128,0,35743:0:0:0:0:
320,192,35743,1,0,0:0:0:0:
192,192,35902,128,0,36062:0:0:0:0:
448,192,36062,1,0,0:0:0:0:
320,192,36221,128,0,36381:0:0:0:0:
448,192,36541,128,0,36700:0:0:0:0:
64,192,36700,1,0,0:0:0:0:
192,192,36700,1,0,0:0:0:0:
64,192,36860,128,0,37019:0:0:0:0:
192,192,37019,1,0,0:0:0:0:
448,192,37019,1,0,0:0:0:0:
320,192,37179,128,0,37338:0:0:0:0:
192,192,37338,1,0,0:0:0:0:
192,192,37498,1,0,0:0:0:0:
320,192,37658,1,0,0:0:0:0:
448,192,37658,1,0,0:0:0:0:
320,192,37817,1,0,0:0:0:0:
448,192,37817,1,0,0:0:0:0:
192,192,37977,1,0,0:0:0:0:
320,192,38136,128,0,38296:0:0:0:0:
192,192,38296,128,0,38456:0:0:0:0:
64,192,38456,128,0,38615:0:0:0:0:
448,192,38615,128,0,38775:0:0:0:0:
320,192,38775,128,0,38934:0:0:0:0:
64,192,38934,128,0,39094:0:0:0:0:
192,192,39094,128,0,39253:0:0:0:0:
448,192,39253,1,0,0:0:0:0:
64,192,39253,1,0,0:0:0:0:
448,192,39413,128,0,39573:0:0:0:0:
64,192,39573,1,0,0:0:0:0:
320,192,39573,1,0,0:0:0:0:
192,192,39732,128,0,39892:0:0:0:0:
320,192,39892,1,0,0:0:0:0:
448,192,40051,1,0,0:0:0:0:
64,192,40211,1,0,0:0:0:0:
192,192,40211,1,0,0:0:0:0:
320,192,40211,1,0,0:0:0:0:
64,192,40530,1,0,0:0:0:0:
448,192,40690,1,0,0:0:0:0:
192,192,40690,1,0,0:0:0:0:
320,192,40690,1,0,0:0:0:0:
64,192,41168,1,0,0:0:0:0:
448,192,41168,1,0,0:0:0:0:
192,192,41168,128,0,41807:0:0:0:0:
320,192,41487,128,0,41807:0:0:0:0:
64,192,41807,1,0,0:0:0:0:
448,192,41807,1,0,0:0:0:0:
192,192,41966,1,0,0:0:0:0:
320,192,42126,1,0,0:0:0:0:
64,192,42126,1,0,0:0:0:0:
192,192,42445,1,0,0:0:0:0:
64,192,42445,1,0,0:0:0:0:
448,192,42604,1,0,0:0:0:0:
320,192,42604,1,0,0:0:0:0:
192,192,42764,1,0,0:0:0:0:
320,192,42924,1,0,0:0:0:0:
64,192,42924,1,0,0:0:0:0:
448,192,43083,1,0,0:0:0:0:
192,192,43083,1,0,0:0:0:0:
320,192,43243,1,0,0:0:0:0:
64,192,43402,1,0,0:0:0:0:
192,192,43402,1,0,0:0:0:0:
448,192,43721,1,0,0:0:0:0:
64,192,43721,1,0,0:0:0:0:
320,192,43881,1,0,0:0:0:0:
192,192,43881,1,0,0:0:0:0:
448,192,44041,1,0,0:0:0:0:
192,192,44200,1,0,0:0:0:0:
64,192,44200,1,0,0:0:0:0:
320,192,44360,1,0,0:0:0:0:
448,192,44360,1,0,0:0:0:0:
192,192,44679,1,0,0:0:0:0:
320,192,44679,1,0,0:0:0:0:
64,192,44998,1,0,0:0:0:0:
192,192,44998,1,0,0:0:0:0:
448,192,45158,1,0,0:0:0:0:
320,192,45158,1,0,0:0:0:0:
64,192,45317,1,0,0:0:0:0:
448,192,45477,1,0,0:0:0:0:
192,192,45477,1,0,0:0:0:0:
320,192,45636,1,0,0:0:0:0:
64,192,45636,1,0,0:0:0:0:
192,192,45796,1,0,0:0:0:0:
448,192,45956,1,0,0:0:0:0:
320,192,45956,1,0,0:0:0:0:
192,192,46115,1,0,0:0:0:0:
64,192,46275,1,0,0:0:0:0:
448,192,46275,1,0,0:0:0:0:
192,192,46434,128,0,46913:0:0:0:0:
320,192,46434,1,0,0:0:0:0:
64,192,46913,1,0,0:0:0:0:
448,192,46913,1,0,0:0:0:0:
320,192,47073,1,0,0:0:0:0:
192,192,47232,1,0,0:0:0:0:
448,192,47232,1,0,0:0:0:0:
320,192,47551,1,0,0:0:0:0:
448,192,47551,1,0,0:0:0:0:
192,192,47711,1,0,0:0:0:0:
64,192,47711,1,0,0:0:0:0:
320,192,47870,1,0,0:0:0:0:
64,192,48030,1,0,0:0:0:0:
448,192,48030,1,0,0:0:0:0:
192,192,48190,1,0,0:0:0:0:
320,192,48190,1,0,0:0:0:0:
448,192,48509,1,0,0:0:0:0:
320,192,48509,1,0,0:0:0:0:
192,192,48668,1,0,0:0:0:0:
64,192,48828,1,0,0:0:0:0:
320,192,48828,1,0,0:0:0:0:
448,192,48987,1,0,0:0:0:0:
192,192,48987,1,0,0:0:0:0:
320,192,49147,1,0,0:0:0:0:
192,192,49307,1,0,0:0:0:0:
64,192,49307,1,0,0:0:0:0:
320,192,49466,1,0,0:0:0:0:
448,192,49466,1,0,0:0:0:0:
192,192,49785,1,0,0:0:0:0:
320,192,49785,1,0,0:0:0:0:
64,192,50104,1,0,0:0:0:0:
192,192,50104,1,0,0:0:0:0:
448,192,50264,1,0,0:0:0:0:
320,192,50264,1,0,0:0:0:0:
192,192,50424,1,0,0:0:0:0:
448,192,50583,1,0,0:0:0:0:
64,192,50583,1,0,0:0:0:0:
320,192,50583,1,0,0:0:0:0:
192,192,50902,1,0,0:0:0:0:
64,192,50902,1,0,0:0:0:0:
448,192,50902,1,0,0:0:0:0:
64,192,51541,1,0,0:0:0:0:
192,192,51620,1,0,0:0:0:0:
448,192,51700,1,0,0:0:0:0:
320,192,51780,1,0,0:0:0:0:
64,192,51860,1,0,0:0:0:0:
192,192,51940,1,0,0:0:0:0:
320,192,52019,1,0,0:0:0:0:
448,192,52019,1,0,0:0:0:0:
320,192,52179,128,0,52338:0:0:0:0:
64,192,52338,1,0,0:0:0:0:
448,192,52338,1,0,0:0:0:0:
192,192,52498,128,0,52658:0:0:0:0:
320,192,52658,1,0,0:0:0:0:
320,192,52817,1,0,0:0:0:0:
192,192,52977,1,0,0:0:0:0:
64,192,52977,1,0,0:0:0:0:
64,192,53136,1,0,0:0:0:0:
192,192,53136,1,0,0:0:0:0:
448,192,53296,1,0,0:0:0:0:
320,192,53456,128,0,53615:0:0:0:0:
448,192,53615,1,0,0:0:0:0:
192,192,53615,128,0,53775:0:0:0:0:
64,192,53775,128,0,53934:0:0:0:0:
192,192,53934,1,0,0:0:0:0:
448,192,53934,128,0,54094:0:0:0:0:
320,192,54094,128,0,54253:0:0:0:0:
64,192,54253,1,0,0:0:0:0:
192,192,54253,1,0,0:0:0:0:
320,192,54413,1,0,0:0:0:0:
448,192,54413,1,0,0:0:0:0:
64,192,54573,1,0,0:0:0:0:
448,192,54573,1,0,0:0:0:0:
192,192,54573,1,0,0:0:0:0:
448,192,54732,128,0,54892:0:0:0:0:
320,192,54892,1,0,0:0:0:0:
64,192,54892,1,0,0:0:0:0:
192,192,55051,128,0,55211:0:0:0:0:
320,192,55211,1,0,0:0:0:0:
64,192,55211,1,0,0:0:0:0:
64,192,55370,1,0,0:0:0:0:
320,192,55530,1,0,0:0:0:0:
192,192,55530,1,0,0:0:0:0:
320,192,55690,1,0,0:0:0:0:
192,192,55690,1,0,0:0:0:0:
448,192,55849,1,0,0:0:0:0:
192,192,56009,128,0,56168:0:0:0:0:
320,192,56168,1,0,0:0:0:0:
448,192,56168,1,0,0:0:0:0:
64,192,56328,128,0,56487:0:0:0:0:
320,192,56487,1,0,0:0:0:0:
448,192,56647,1,0,0:0:0:0:
320,192,56647,1,0,0:0:0:0:
64,192,56647,1,0,0:0:0:0:
320,192,56966,1,0,0:0:0:0:
192,192,56966,1,0,0:0:0:0:
64,192,57126,1,0,0:0:0:0:
448,192,57126,1,0,0:0:0:0:
320,192,57126,1,0,0:0:0:0:
192,192,57285,128,0,57445:0:0:0:0:
64,192,57445,1,0,0:0:0:0:
320,192,57445,1,0,0:0:0:0:
320,192,57604,128,0,57764:0:0:0:0:
192,192,57764,1,0,0:0:0:0:
448,192,57764,1,0,0:0:0:0:
192,192,57924,1,0,0:0:0:0:
320,192,58083,1,0,0:0:0:0:
448,192,58083,1,0,0:0:0:0:
448,192,58243,1,0,0:0:0:0:
320,192,58243,1,0,0:0:0:0:
64,192,58402,1,0,0:0:0:0:
192,192,58562,128,0,58721:0:0:0:0:
64,192,58721,1,0,0:0:0:0:
320,192,58721,128,0,58881:0:0:0:0:
448,192,58881,128,0,59041:0:0:0:0:
64,192,59041,128,0,59200:0:0:0:0:
320,192,59041,1,0,0:0:0:0:
192,192,59200,128,0,59360:0:0:0:0:
448,192,59360,1,0,0:0:0:0:
320,192,59360,1,0,0:0:0:0:
192,192,59519,1,0,0:0:0:0:
64,192,59519,1,0,0:0:0:0:
64,192,59679,1,0,0:0:0:0:
448,192,59679,1,0,0:0:0:0:
320,192,59679,1,0,0:0:0:0:
448,192,59838,128,0,59998:0:0:0:0:
64,192,59998,1,0,0:0:0:0:
192,192,59998,1,0,0:0:0:0:
320,192,60158,128,0,60317:0:0:0:0:
448,192,60317,1,0,0:0:0:0:
192,192,60317,1,0,0:0:0:0:
448,192,60477,1,0,0:0:0:0:
320,192,60477,1,0,0:0:0:0:
192,192,60636,128,0,60956:0:0:0:0:
64,192,60636,1,0,0:0:0:0:
320,192,60636,1,0,0:0:0:0:
320,192,61115,128,0,62232:0:0:0:0:
448,192,61115,1,0,0:0:0:0:
64,192,61115,1,0,0:0:0:0:
64,192,61753,128,0,62232:0:0:0:0:
448,192,62232,128,0,63190:0:0:0:0:
64,192,63190,1,0,0:0:0:0:
192,192,63349,128,0,64785:0:0:0:0:
320,192,63349,1,0,0:0:0:0:
64,192,64785,128,0,65902:0:0:0:0:
448,192,64785,1,0,0:0:0:0:
320,192,65902,1,0,0:0:0:0:
448,192,66221,1,0,0:0:0:0:
320,192,66301,1,0,0:0:0:0:
64,192,66381,1,0,0:0:0:0:
192,192,66461,1,0,0:0:0:0:
448,192,66541,1,0,0:0:0:0:
320,192,66620,1,0,0:0:0:0:
64,192,66700,1,0,0:0:0:0:
192,192,66780,1,0,0:0:0:0:
448,192,66860,1,0,0:0:0:0:
320,192,66940,1,0,0:0:0:0:
64,192,67019,1,0,0:0:0:0:
192,192,67099,1,0,0:0:0:0:
448,192,67179,1,0,0:0:0:0:
320,192,67259,1,0,0:0:0:0:
192,192,67338,1,0,0:0:0:0:
64,192,67338,128,0,68296:0:0:0:0:
448,192,68296,1,0,0:0:0:0:
192,192,68456,1,0,0:0:0:0:
320,192,68456,128,0,69892:0:0:0:0:
448,192,69892,1,0,0:0:0:0:
64,192,69892,1,0,0:0:0:0:
320,192,70530,1,0,0:0:0:0:
192,192,70530,1,0,0:0:0:0:
320,192,71328,1,0,0:0:0:0:
64,192,71328,1,0,0:0:0:0:
192,192,71647,1,0,0:0:0:0:
448,192,71647,1,0,0:0:0:0:
320,192,71966,128,0,72445:0:0:0:0:
64,192,71966,1,0,0:0:0:0:
448,192,72445,1,0,0:0:0:0:
192,192,72445,1,0,0:0:0:0:
64,192,72604,1,0,0:0:0:0:
320,192,72764,1,0,0:0:0:0:
448,192,72764,1,0,0:0:0:0:
192,192,72924,1,0,0:0:0:0:
320,192,73083,1,0,0:0:0:0:
64,192,73083,1,0,0:0:0:0:
448,192,73243,1,0,0:0:0:0:
320,192,73402,1,0,0:0:0:0:
192,192,73402,1,0,0:0:0:0:
64,192,73562,1,0,0:0:0:0:
192,192,73721,1,0,0:0:0:0:
448,192,73721,1,0,0:0:0:0:
320,192,73881,1,0,0:0:0:0:
64,192,74041,1,0,0:0:0:0:
192,192,74041,1,0,0:0:0:0:
320,192,74200,1,0,0:0:0:0:
448,192,74360,1,0,0:0:0:0:
64,192,74360,1,0,0:0:0:0:
320,192,74519,1,0,0:0:0:0:
192,192,74519,1,0,0:0:0:0:
192,192,74838,1,0,0:0:0:0:
320,192,74838,1,0,0:0:0:0:
64,192,74998,1,0,0:0:0:0:
448,192,74998,1,0,0:0:0:0:
320,192,75158,1,0,0:0:0:0:
64,192,75317,1,0,0:0:0:0:
192,192,75317,1,0,0:0:0:0:
320,192,75477,1,0,0:0:0:0:
448,192,75636,1,0,0:0:0:0:
192,192,75636,1,0,0:0:0:0:
64,192,75796,1,0,0:0:0:0:
192,192,75956,1,0,0:0:0:0:
320,192,75956,1,0,0:0:0:0:
448,192,76115,1,0,0:0:0:0:
64,192,76115,1,0,0:0:0:0:
192,192,76434,1,0,0:0:0:0:
448,192,76594,1,0,0:0:0:0:
320,192,76594,1,0,0:0:0:0:
192,192,76753,1,0,0:0:0:0:
64,192,76913,1,0,0:0:0:0:
448,192,76913,1,0,0:0:0:0:
320,192,77073,1,0,0:0:0:0:
192,192,77073,1,0,0:0:0:0:
320,192,77392,1,0,0:0:0:0:
192,192,77392,1,0,0:0:0:0:
448,192,77551,1,0,0:0:0:0:
64,192,77551,1,0,0:0:0:0:
192,192,77711,1,0,0:0:0:0:
320,192,77870,1,0,0:0:0:0:
448,192,77870,1,0,0:0:0:0:
192,192,78030,1,0,0:0:0:0:
448,192,78190,1,0,0:0:0:0:
64,192,78190,1,0,0:0:0:0:
320,192,78349,1,0,0:0:0:0:
64,192,78509,1,0,0:0:0:0:
192,192,78509,1,0,0:0:0:0:
320,192,78668,1,0,0:0:0:0:
64,192,78828,1,0,0:0:0:0:
448,192,78828,1,0,0:0:0:0:
192,192,78987,1,0,0:0:0:0:
448,192,79147,1,0,0:0:0:0:
320,192,79147,1,0,0:0:0:0:
64,192,79307,1,0,0:0:0:0:
320,192,79466,1,0,0:0:0:0:
192,192,79466,1,0,0:0:0:0:
448,192,79626,1,0,0:0:0:0:
64,192,79626,1,0,0:0:0:0:
192,192,79785,1,0,0:0:0:0:
320,192,79945,1,0,0:0:0:0:
448,192,80104,1,0,0:0:0:0:
192,192,80104,1,0,0:0:0:0:
64,192,80104,1,0,0:0:0:0:
320,192,80264,1,0,0:0:0:0:
192,192,80424,1,0,0:0:0:0:
320,192,80583,1,0,0:0:0:0:
448,192,80583,1,0,0:0:0:0:
64,192,80583,1,0,0:0:0:0:
192,192,80743,1,0,0:0:0:0:
320,192,80902,1,0,0:0:0:0:
192,192,81062,1,0,0:0:0:0:
320,192,81221,1,0,0:0:0:0:
448,192,81221,1,0,0:0:0:0:
64,192,81221,1,0,0:0:0:0:
448,192,81700,1,0,0:0:0:0:
320,192,81780,1,0,0:0:0:0:
64,192,81860,1,0,0:0:0:0:
192,192,81940,1,0,0:0:0:0:
448,192,82019,1,0,0:0:0:0:
320,192,82099,1,0,0:0:0:0:
64,192,82179,1,0,0:0:0:0:
192,192,82259,1,0,0:0:0:0:
448,192,82338,1,0,0:0:0:0:
320,192,82418,1,0,0:0:0:0:
64,192,82498,1,0,0:0:0:0:
192,192,82578,1,0,0:0:0:0:
448,192,82658,1,0,0:0:0:0:
320,192,82658,1,0,0:0:0:0:
64,192,82658,1,0,0:0:0:0:
192,192,82817,1,0,0:0:0:0:
64,192,82977,1,0,0:0:0:0:
320,192,82977,1,0,0:0:0:0:
448,192,83136,1,0,0:0:0:0:
192,192,83296,1,0,0:0:0:0:
320,192,83296,1,0,0:0:0:0:
64,192,83456,1,0,0:0:0:0:
320,192,83615,1,0,0:0:0:0:
448,192,83615,1,0,0:0:0:0:
64,192,83775,1,0,0:0:0:0:
192,192,83775,1,0,0:0:0:0:
320,192,83934,1,0,0:0:0:0:
448,192,83934,1,0,0:0:0:0:
64,192,84094,1,0,0:0:0:0:
448,192,84253,1,0,0:0:0:0:
192,192,84253,1,0,0:0:0:0:
320,192,84413,1,0,0:0:0:0:
448,192,84573,1,0,0:0:0:0:
64,192,84573,1,0,0:0:0:0:
320,192,84732,1,0,0:0:0:0:
192,192,84732,1,0,0:0:0:0:
192,192,85051,1,0,0:0:0:0:
320,192,85051,1,0,0:0:0:0:
448,192,85211,1,0,0:0:0:0:
64,192,85211,1,0,0:0:0:0:
192,192,85370,1,0,0:0:0:0:
64,192,85530,1,0,0:0:0:0:
320,192,85530,1,0,0:0:0:0:
192,192,85690,1,0,0:0:0:0:
448,192,85849,1,0,0:0:0:0:
320,192,85849,1,0,0:0:0:0:
64,192,86009,1,0,0:0:0:0:
448,192,86168,1,0,0:0:0:0:
320,192,86168,1,0,0:0:0:0:
192,192,86328,1,0,0:0:0:0:
64,192,86328,1,0,0:0:0:0:
192,192,86647,1,0,0:0:0:0:
64,192,86807,1,0,0:0:0:0:
320,192,86807,1,0,0:0:0:0:
448,192,86966,1,0,0:0:0:0:
192,192,87126,1,0,0:0:0:0:
320,192,87126,1,0,0:0:0:0:
448,192,87285,1,0,0:0:0:0:
64,192,87285,1,0,0:0:0:0:
64,192,87604,1,0,0:0:0:0:
448,192,87604,1,0,0:0:0:0:
320,192,87764,1,0,0:0:0:0:
192,192,87764,1,0,0:0:0:0:
64,192,87924,1,0,0:0:0:0:
192,192,88083,1,0,0:0:0:0:
448,192,88083,1,0,0:0:0:0:
320,192,88243,1,0,0:0:0:0:
64,192,88402,1,0,0:0:0:0:
448,192,88402,1,0,0:0:0:0:
320,192,88562,1,0,0:0:0:0:
64,192,88721,1,0,0:0:0:0:
192,192,88721,1,0,0:0:0:0:
320,192,88881,1,0,0:0:0:0:
448,192,88881,1,0,0:0:0:0:
64,192,89200,1,0,0:0:0:0:
320,192,89200,1,0,0:0:0:0:
192,192,89360,1,0,0:0:0:0:
448,192,89519,1,0,0:0:0:0:
320,192,89519,1,0,0:0:0:0:
192,192,89679,1,0,0:0:0:0:
64,192,89838,1,0,0:0:0:0:
320,192,89838,1,0,0:0:0:0:
192,192,89998,1,0,0:0:0:0:
448,192,90158,1,0,0:0:0:0:
192,192,90317,1,0,0:0:0:0:
64,192,90317,1,0,0:0:0:0:
448,192,90317,1,0,0:0:0:0:
320,192,90477,1,0,0:0:0:0:
192,192,90636,1,0,0:0:0:0:
64,192,90796,1,0,0:0:0:0:
448,192,90796,1,0,0:0:0:0:
320,192,90796,1,0,0:0:0:0:
192,192,90956,1,0,0:0:0:0:
320,192,91115,1,0,0:0:0:0:
192,192,91275,1,0,0:0:0:0:
448,192,91434,1,0,0:0:0:0:
320,192,91434,1,0,0:0:0:0:
64,192,91434,128,0,92870:0:0:0:0:
448,192,92232,1,0,0:0:0:0:
320,192,92392,1,0,0:0:0:0:
192,192,92551,1,0,0:0:0:0:
448,192,92711,1,0,0:0:0:0:
320,192,92870,128,0,93828:0:0:0:0:
192,192,93828,1,0,0:0:0:0:
64,192,93987,128,0,95424:0:0:0:0:
448,192,93987,1,0,0:0:0:0:
448,192,94466,1,0,0:0:0:0:
320,192,94626,1,0,0:0:0:0:
192,192,94785,1,0,0:0:0:0:
448,192,94945,1,0,0:0:0:0:
320,192,95104,1,0,0:0:0:0:
192,192,95264,1,0,0:0:0:0:
448,192,95424,128,0,97977:0:0:0:0:
64,192,95743,1,0,0:0:0:0:
192,192,95902,1,0,0:0:0:0:
320,192,96062,1,0,0:0:0:0:
64,192,96221,1,0,0:0:0:0:
192,192,96381,1,0,0:0:0:0:
320,192,96541,1,0,0:0:0:0:
64,192,96700,1,0,0:0:0:0:
192,192,96860,1,0,0:0:0:0:
320,192,97019,1,0,0:0:0:0:
64,192,97179,1,0,0:0:0:0:
192,192,97338,1,0,0:0:0:0:
320,192,97498,1,0,0:0:0:0:
64,192,97658,1,0,0:0:0:0:
192,192,97817,1,0,0:0:0:0:
320,192,97977,128,0,99253:0:0:0:0:
