osu file format v12

[General]
AudioFilename: Qrispy Joybox feat Sana - Twinkle Wonderland.mp3
AudioLeadIn: 2000
PreviewTime: 11168
Countdown: 0
SampleSet: Normal
StackLeniency: 0.7
Mode: 1
LetterboxInBreaks: 0

[Editor]
DistanceSpacing: 0.8
BeatDivisor: 4
GridSize: 8

[Metadata]
Title:Twinkle Wonderland
TitleUnicode:Twinkle Wonderland
Artist:Qrispy Joybox feat.sana
ArtistUnicode:Qrispy Joybox feat.sana
Creator:CoroQuetz
Version:Oni
Source:REFLEC BEAT limelight
Tags:pop'n music jubeat konami bemani taiko_maniac1811
BeatmapID:180786
BeatmapSetID:60479

[Difficulty]
HPDrainRate:5
CircleSize:5
OverallDifficulty:6
ApproachRate:5
SliderMultiplier:1.4
SliderTickRate:1

[Events]
//Background and Video events
0,0,"bg.jpg",0,0
//Break Periods
//Storyboard Layer 0 (Background)
//Storyboard Layer 1 (Fail)
//Storyboard Layer 2 (Pass)
//Storyboard Layer 3 (Foreground)
//Storyboard Sound Samples
//Background Colour Transformations
3,100,163,162,255

[TimingPoints]
956,319.148936170213,4,1,0,70,1,0
11168,-100,4,1,0,70,0,1
21381,-100,4,1,0,70,0,0
41807,-100,4,1,0,70,0,1
52019,-100,4,1,0,70,0,0
72445,-100,4,1,0,70,0,1
92869,-100,4,1,0,70,0,0

[Colours]
Combo1 : 255,128,128
Combo2 : 128,255,255

[HitObjects]
192,208,956,1,8,0:0:0:0:
192,208,1115,1,8,0:0:0:0:
192,208,1275,1,8,0:0:0:0:
192,208,1434,1,8,0:0:0:0:
192,208,1753,5,0,0:0:0:0:
192,208,1913,5,8,0:0:0:0:
192,208,2073,5,0,0:0:0:0:
224,72,2392,5,8,0:0:0:0:
152,96,2471,5,0,0:0:0:0:
224,72,2551,5,8,0:0:0:0:
152,96,2631,5,0,0:0:0:0:
224,72,2711,5,8,0:0:0:0:
152,96,2870,5,0,0:0:0:0:
152,96,3030,1,0,0:0:0:0:
152,96,3190,5,8,0:0:0:0:
152,96,3349,5,0,0:0:0:0:
24,144,3509,1,0,0:0:0:0:
24,144,3668,1,0,0:0:0:0:
24,144,3828,5,8,0:0:0:0:
24,144,3987,1,8,0:0:0:0:
24,144,4307,5,0,0:0:0:0:
64,168,4626,2,0,B|232:112|424:152|480:352,1,490
192,208,6062,5,8,0:0:0:0:
192,208,6221,1,8,0:0:0:0:
192,208,6381,1,8,0:0:0:0:
192,208,6541,1,8,0:0:0:0:
192,208,6860,5,0,0:0:0:0:
192,208,7019,5,8,0:0:0:0:
192,208,7179,5,0,0:0:0:0:
224,72,7498,5,8,0:0:0:0:
152,96,7578,1,8,0:0:0:0:
224,72,7658,5,0,0:0:0:0:
152,96,7737,5,8,0:0:0:0:
224,72,7817,1,0,0:0:0:0:
152,96,7977,5,8,0:0:0:0:
152,96,8136,5,0,0:0:0:0:
152,96,8296,1,0,0:0:0:0:
152,96,8455,5,8,0:0:0:0:
136,216,8615,1,4,0:0:0:0:
136,216,9253,1,4,0:0:0:0:
136,216,10051,1,4,0:0:0:0:
136,216,10370,1,4,0:0:0:0:
136,216,10690,1,4,0:0:0:0:
192,208,11168,1,0,0:0:0:0:
192,208,11328,1,0,0:0:0:0:
192,208,11487,5,8,0:0:0:0:
192,208,11647,5,0,0:0:0:0:
192,208,11807,1,0,0:0:0:0:
192,208,11966,1,0,0:0:0:0:
192,208,12126,5,8,0:0:0:0:
192,208,12285,5,0,0:0:0:0:
192,208,12604,1,0,0:0:0:0:
192,208,12764,5,8,0:0:0:0:
192,208,12924,5,0,0:0:0:0:
192,208,13243,1,0,0:0:0:0:
192,208,13402,5,8,0:0:0:0:
192,208,13562,5,0,0:0:0:0:
192,208,13721,1,0,0:0:0:0:
192,208,13881,1,0,0:0:0:0:
192,208,14041,5,8,0:0:0:0:
192,208,14200,5,0,0:0:0:0:
192,208,14360,1,0,0:0:0:0:
192,208,14519,1,0,0:0:0:0:
192,208,14679,5,8,0:0:0:0:
192,208,14838,5,0,0:0:0:0:
192,208,15158,1,0,0:0:0:0:
192,208,15317,5,8,0:0:0:0:
192,208,15477,5,0,0:0:0:0:
192,208,15796,1,0,0:0:0:0:
192,208,15955,5,8,0:0:0:0:
192,208,16115,5,0,0:0:0:0:
192,208,16195,1,0,0:0:0:0:
192,208,16275,1,0,0:0:0:0:
192,208,16434,1,0,0:0:0:0:
192,208,16594,5,8,0:0:0:0:
192,208,16753,5,0,0:0:0:0:
192,208,16913,1,0,0:0:0:0:
192,208,17073,1,0,0:0:0:0:
192,208,17232,5,8,0:0:0:0:
192,208,17392,5,0,0:0:0:0:
192,208,17711,1,0,0:0:0:0:
192,208,17870,5,8,0:0:0:0:
192,208,18030,5,0,0:0:0:0:
192,208,18349,1,0,0:0:0:0:
192,208,18509,5,8,0:0:0:0:
192,208,18668,5,0,0:0:0:0:
192,208,18828,1,0,0:0:0:0:
192,208,19147,5,8,0:0:0:0:
192,208,19307,5,0,0:0:0:0:
192,208,19785,5,8,0:0:0:0:
192,208,19945,5,0,0:0:0:0:
192,208,20902,1,0,0:0:0:0:
192,208,21062,5,8,0:0:0:0:
192,208,21221,5,0,0:0:0:0:
192,208,21381,1,0,0:0:0:0:
104,192,21541,1,0,0:0:0:0:
104,192,21700,5,8,0:0:0:0:
192,208,22019,5,0,0:0:0:0:
192,208,22179,1,0,0:0:0:0:
168,184,22338,5,8,0:0:0:0:
176,56,22498,5,0,0:0:0:0:
168,184,22817,1,0,0:0:0:0:
176,56,22977,5,8,0:0:0:0:
192,240,23136,5,0,0:0:0:0:
72,248,23216,1,0,0:0:0:0:
72,248,23296,1,0,0:0:0:0:
72,248,23455,1,0,0:0:0:0:
72,248,23615,5,8,0:0:0:0:
192,240,23775,5,0,0:0:0:0:
192,240,23934,1,0,0:0:0:0:
192,240,24253,5,8,0:0:0:0:
128,160,24573,5,0,0:0:0:0:
200,168,24652,1,0,0:0:0:0:
200,168,24732,1,0,0:0:0:0:
176,88,24892,5,8,0:0:0:0:
176,88,25051,5,0,0:0:0:0:
200,168,25370,1,0,0:0:0:0:
200,168,25530,5,8,0:0:0:0:
200,168,25690,5,0,0:0:0:0:
200,168,25849,1,0,0:0:0:0:
200,168,26009,5,12,0:0:0:0:
144,192,26328,5,0,0:0:0:0:
144,192,26408,1,0,0:0:0:0:
144,192,26487,1,0,0:0:0:0:
144,192,26647,1,0,0:0:0:0:
192,240,26807,5,8,0:0:0:0:
128,160,27126,5,0,0:0:0:0:
176,88,27445,5,8,0:0:0:0:
176,88,27604,5,0,0:0:0:0:
200,168,27924,1,0,0:0:0:0:
200,168,28083,5,8,0:0:0:0:
200,168,28243,5,0,0:0:0:0:
200,168,28402,1,0,0:0:0:0:
112,192,28721,5,8,0:0:0:0:
192,240,29041,5,0,0:0:0:0:
128,160,29360,5,8,0:0:0:0:
176,88,29679,5,0,0:0:0:0:
176,88,29838,5,8,0:0:0:0:
208,176,30158,5,4,0:0:0:0:
208,176,30477,1,4,0:0:0:0:
208,176,30796,1,4,0:0:0:0:
128,208,31594,1,0,0:0:0:0:
128,208,31753,1,0,0:0:0:0:
128,208,31913,5,8,0:0:0:0:
136,112,32232,5,0,0:0:0:0:
136,112,32392,1,0,0:0:0:0:
136,112,32551,5,8,0:0:0:0:
216,200,32711,5,0,0:0:0:0:
216,200,33030,1,0,0:0:0:0:
128,208,34147,1,0,0:0:0:0:
128,208,34307,1,0,0:0:0:0:
128,208,34466,5,8,0:0:0:0:
136,112,34785,5,0,0:0:0:0:
136,112,34945,1,0,0:0:0:0:
136,112,35104,5,8,0:0:0:0:
216,200,35264,5,0,0:0:0:0:
216,200,35583,1,0,0:0:0:0:
184,112,35743,5,8,0:0:0:0:
200,56,35902,5,0,0:0:0:0:
256,96,36221,5,8,0:0:0:0:
256,96,36381,5,0,0:0:0:0:
112,168,36541,5,8,0:0:0:0:
112,168,36620,1,8,0:0:0:0:
112,168,36700,5,0,0:0:0:0:
128,208,36860,1,0,0:0:0:0:
128,208,37019,5,8,0:0:0:0:
136,112,37338,5,0,0:0:0:0:
136,112,37498,1,0,0:0:0:0:
136,112,37658,5,8,0:0:0:0:
216,200,37817,5,0,0:0:0:0:
216,200,38136,1,0,0:0:0:0:
264,128,39253,1,0,0:0:0:0:
128,208,39413,1,0,0:0:0:0:
128,208,39573,5,8,0:0:0:0:
136,112,39892,5,0,0:0:0:0:
136,112,40051,1,0,0:0:0:0:
136,112,40211,5,8,0:0:0:0:
216,200,40370,5,0,0:0:0:0:
216,200,40690,1,4,0:0:0:0:
160,48,41168,1,4,0:0:0:0:
96,200,41807,1,0,0:0:0:0:
96,200,41966,1,0,0:0:0:0:
96,200,42126,5,8,0:0:0:0:
96,200,42205,1,8,0:0:0:0:
96,200,42285,5,0,0:0:0:0:
96,200,42365,1,0,0:0:0:0:
96,200,42445,1,0,0:0:0:0:
96,200,42604,1,0,0:0:0:0:
96,200,42764,5,8,0:0:0:0:
200,176,42924,5,0,0:0:0:0:
96,200,43243,1,0,0:0:0:0:
96,200,43402,5,8,0:0:0:0:
144,88,43562,5,0,0:0:0:0:
144,88,43721,1,0,0:0:0:0:
144,272,43881,5,8,0:0:0:0:
144,272,44041,1,8,0:0:0:0:
144,272,44120,1,8,0:0:0:0:
144,272,44200,1,8,0:0:0:0:
144,272,44280,1,8,0:0:0:0:
144,272,44360,5,0,0:0:0:0:
160,344,44519,1,0,0:0:0:0:
160,344,44679,5,8,0:0:0:0:
208,192,44998,5,0,0:0:0:0:
208,192,45158,1,0,0:0:0:0:
208,192,45317,5,8,0:0:0:0:
208,192,45477,5,0,0:0:0:0:
88,160,45636,1,0,0:0:0:0:
88,160,45796,1,0,0:0:0:0:
88,160,45955,5,8,0:0:0:0:
88,160,46035,1,8,0:0:0:0:
88,160,46115,5,0,0:0:0:0:
88,160,46195,1,0,0:0:0:0:
88,160,46275,5,8,0:0:0:0:
200,144,46434,5,0,0:0:0:0:
96,200,46913,1,4,0:0:0:0:
96,200,47073,1,0,0:0:0:0:
96,200,47232,5,8,0:0:0:0:
96,200,47312,5,0,0:0:0:0:
96,200,47392,1,0,0:0:0:0:
96,200,47471,1,0,0:0:0:0:
96,200,47551,5,8,0:0:0:0:
96,200,47711,5,0,0:0:0:0:
96,200,47870,5,8,0:0:0:0:
200,176,48030,5,0,0:0:0:0:
96,200,48349,1,0,0:0:0:0:
96,200,48509,5,8,0:0:0:0:
144,88,48668,5,0,0:0:0:0:
144,88,48828,1,0,0:0:0:0:
144,272,48987,1,0,0:0:0:0:
144,272,49147,5,8,0:0:0:0:
144,272,49227,1,8,0:0:0:0:
144,272,49307,5,0,0:0:0:0:
144,272,49386,1,0,0:0:0:0:
144,272,49466,1,0,0:0:0:0:
160,344,49626,1,0,0:0:0:0:
160,344,49785,5,8,0:0:0:0:
144,184,50104,5,0,0:0:0:0:
144,184,50264,1,0,0:0:0:0:
144,184,50424,5,8,0:0:0:0:
144,184,50583,5,0,0:0:0:0:
144,184,50902,1,0,0:0:0:0:
184,224,52019,1,0,0:0:0:0:
184,224,52099,1,0,0:0:0:0:
184,224,52179,1,0,0:0:0:0:
184,224,52338,5,8,0:0:0:0:
176,80,52498,5,0,0:0:0:0:
176,160,52658,1,0,0:0:0:0:
176,160,52737,1,0,0:0:0:0:
176,160,52817,1,0,0:0:0:0:
184,224,52977,5,8,0:0:0:0:
176,80,53136,5,0,0:0:0:0:
256,200,53296,1,0,0:0:0:0:
128,272,53455,1,0,0:0:0:0:
128,272,53615,5,8,0:0:0:0:
96,160,53775,5,0,0:0:0:0:
96,160,54094,1,0,0:0:0:0:
96,160,54253,5,8,0:0:0:0:
184,224,54413,5,0,0:0:0:0:
184,224,54573,1,0,0:0:0:0:
184,224,54652,1,0,0:0:0:0:
184,224,54732,1,0,0:0:0:0:
184,224,54892,5,8,0:0:0:0:
176,80,55051,5,0,0:0:0:0:
176,160,55211,1,0,0:0:0:0:
176,160,55291,1,0,0:0:0:0:
176,160,55370,1,0,0:0:0:0:
184,224,55530,5,8,0:0:0:0:
240,192,55690,5,0,0:0:0:0:
264,128,56009,1,0,0:0:0:0:
264,128,56168,5,8,0:0:0:0:
264,128,56328,5,0,0:0:0:0:
264,128,56487,1,0,0:0:0:0:
264,128,56647,1,0,0:0:0:0:
264,128,56807,5,8,0:0:0:0:
264,128,56886,5,0,0:0:0:0:
264,128,56966,5,8,0:0:0:0:
264,128,57046,1,8,0:0:0:0:
264,128,57126,5,0,0:0:0:0:
56,176,57285,1,0,0:0:0:0:
184,224,57445,5,8,0:0:0:0:
176,80,57604,5,0,0:0:0:0:
176,160,57764,5,8,0:0:0:0:
176,160,57844,1,8,0:0:0:0:
176,160,57924,5,0,0:0:0:0:
184,224,58083,5,8,0:0:0:0:
176,80,58243,5,0,0:0:0:0:
256,200,58402,1,0,0:0:0:0:
128,272,58562,1,0,0:0:0:0:
128,272,58721,5,8,0:0:0:0:
96,160,58881,5,0,0:0:0:0:
112,208,59200,5,8,0:0:0:0:
184,224,59679,5,4,0:0:0:0:
184,224,60158,1,4,0:0:0:0:
184,224,60636,1,4,0:0:0:0:
184,224,61115,1,4,0:0:0:0:
192,208,62232,1,0,0:0:0:0:
192,208,62392,1,0,0:0:0:0:
192,208,62551,5,8,0:0:0:0:
192,208,62711,5,0,0:0:0:0:
192,208,63030,1,0,0:0:0:0:
192,208,63190,5,8,0:0:0:0:
192,208,63349,5,0,0:0:0:0:
224,72,63668,1,0,0:0:0:0:
224,72,63828,5,8,0:0:0:0:
224,72,63987,5,0,0:0:0:0:
152,96,64147,1,0,0:0:0:0:
152,96,64307,1,0,0:0:0:0:
152,96,64466,5,8,0:0:0:0:
152,96,64626,1,8,0:0:0:0:
24,144,64785,5,0,0:0:0:0:
24,144,64945,1,0,0:0:0:0:
24,144,65104,5,8,0:0:0:0:
24,144,65264,5,0,0:0:0:0:
64,168,65902,2,0,B|232:112|424:152|480:352,1,490
192,208,67338,1,0,0:0:0:0:
192,208,67498,1,0,0:0:0:0:
192,208,67658,5,8,0:0:0:0:
192,208,67817,5,0,0:0:0:0:
192,208,68136,1,0,0:0:0:0:
192,208,68296,5,8,0:0:0:0:
192,208,68455,5,0,0:0:0:0:
224,72,68775,1,0,0:0:0:0:
224,72,68934,5,8,0:0:0:0:
224,72,69094,5,0,0:0:0:0:
152,96,69253,1,0,0:0:0:0:
152,96,69413,1,0,0:0:0:0:
152,96,69573,5,8,0:0:0:0:
152,96,69732,5,0,0:0:0:0:
136,216,69892,1,4,0:0:0:0:
136,216,70530,1,4,0:0:0:0:
136,216,71328,1,4,0:0:0:0:
136,216,71647,1,4,0:0:0:0:
136,216,71966,1,4,0:0:0:0:
152,176,72445,1,0,0:0:0:0:
152,176,72525,1,0,0:0:0:0:
152,176,72604,1,0,0:0:0:0:
184,224,72764,5,8,0:0:0:0:
176,80,72924,5,0,0:0:0:0:
176,160,73083,1,0,0:0:0:0:
176,160,73163,1,0,0:0:0:0:
176,160,73243,1,0,0:0:0:0:
184,224,73402,5,8,0:0:0:0:
176,80,73562,5,0,0:0:0:0:
256,200,73721,1,0,0:0:0:0:
128,272,73881,1,0,0:0:0:0:
128,272,74041,5,8,0:0:0:0:
80,256,74200,5,0,0:0:0:0:
96,160,74360,1,0,0:0:0:0:
232,296,74440,1,0,0:0:0:0:
232,296,74519,1,0,0:0:0:0:
232,296,74599,1,0,0:0:0:0:
232,296,74679,5,8,0:0:0:0:
232,296,74759,1,8,0:0:0:0:
232,296,74838,1,8,0:0:0:0:
232,296,74918,1,8,0:0:0:0:
232,296,74998,5,0,0:0:0:0:
152,176,75158,1,0,0:0:0:0:
184,224,75317,5,8,0:0:0:0:
176,80,75477,5,0,0:0:0:0:
176,160,75636,5,8,0:0:0:0:
176,160,75716,1,8,0:0:0:0:
176,160,75796,5,0,0:0:0:0:
184,224,75955,5,8,0:0:0:0:
176,80,76115,5,0,0:0:0:0:
256,200,76275,1,0,0:0:0:0:
128,272,76434,1,0,0:0:0:0:
128,272,76594,5,8,0:0:0:0:
80,256,76753,5,0,0:0:0:0:
56,176,77073,1,0,0:0:0:0:
56,176,77232,5,8,0:0:0:0:
56,176,77392,5,0,0:0:0:0:
56,176,77471,1,0,0:0:0:0:
56,176,77551,1,0,0:0:0:0:
56,176,77711,1,0,0:0:0:0:
56,176,77870,5,8,0:0:0:0:
56,176,78030,5,0,0:0:0:0:
104,184,78190,1,0,0:0:0:0:
104,184,78349,1,0,0:0:0:0:
104,184,78509,5,8,0:0:0:0:
144,128,78668,5,0,0:0:0:0:
176,160,78987,1,0,0:0:0:0:
176,160,79067,1,0,0:0:0:0:
176,160,79147,1,0,0:0:0:0:
184,224,79307,5,8,0:0:0:0:
176,80,79466,5,0,0:0:0:0:
256,200,79626,1,0,0:0:0:0:
128,272,79785,5,8,0:0:0:0:
56,208,80104,5,4,0:0:0:0:
56,208,80583,1,4,0:0:0:0:
48,96,81221,2,4,B|344:112|496:280,1,490
224,200,82658,1,4,0:0:0:0:
224,200,82817,1,0,0:0:0:0:
224,200,82977,5,8,0:0:0:0:
224,200,83136,5,0,0:0:0:0:
224,200,83216,1,0,0:0:0:0:
224,200,83296,1,0,0:0:0:0:
160,184,83455,1,0,0:0:0:0:
160,184,83615,5,8,0:0:0:0:
104,192,83775,5,0,0:0:0:0:
224,200,84094,1,0,0:0:0:0:
224,200,84253,5,8,0:0:0:0:
224,200,84413,5,0,0:0:0:0:
224,200,84493,1,0,0:0:0:0:
224,200,84573,1,0,0:0:0:0:
160,184,84732,1,0,0:0:0:0:
160,184,84892,5,8,0:0:0:0:
176,256,85211,5,0,0:0:0:0:
176,256,85370,1,0,0:0:0:0:
176,256,85530,5,8,0:0:0:0:
56,168,85690,1,8,0:0:0:0:
128,224,85769,1,8,0:0:0:0:
56,168,85849,5,0,0:0:0:0:
136,112,86009,1,0,0:0:0:0:
64,208,86168,5,8,0:0:0:0:
64,208,86328,5,0,0:0:0:0:
176,192,86647,1,0,0:0:0:0:
176,192,86807,5,8,0:0:0:0:
176,192,86966,5,0,0:0:0:0:
112,192,87285,1,0,0:0:0:0:
112,192,87365,1,0,0:0:0:0:
112,192,87445,5,8,0:0:0:0:
112,192,87525,1,8,0:0:0:0:
112,192,87604,5,0,0:0:0:0:
112,192,87684,1,0,0:0:0:0:
112,192,87764,5,8,0:0:0:0:
272,304,87924,5,0,0:0:0:0:
224,256,88083,5,8,0:0:0:0:
200,88,88243,5,0,0:0:0:0:
152,112,88323,1,0,0:0:0:0:
152,112,88402,5,8,0:0:0:0:
136,176,88562,5,0,0:0:0:0:
136,176,88721,5,8,0:0:0:0:
136,176,88881,5,0,0:0:0:0:
80,248,89200,1,0,0:0:0:0:
80,248,89360,5,8,0:0:0:0:
80,248,89519,5,0,0:0:0:0:
80,248,89679,5,8,0:0:0:0:
80,248,89759,5,0,0:0:0:0:
80,248,89838,1,0,0:0:0:0:
80,248,89918,1,0,0:0:0:0:
80,248,89998,5,8,0:0:0:0:
160,224,90317,1,8,0:0:0:0:
160,224,90796,1,8,0:0:0:0:
256,192,91434,12,0,92551,0:0:0:0:
240,224,92870,5,4,0:0:0:0:
208,176,93987,1,4,0:0:0:0:
208,176,95424,1,4,0:0:0:0:
