osu file format v12

[General]
AudioFilename: Qrispy Joybox feat Sana - Twinkle Wonderland.mp3
AudioLeadIn: 0
PreviewTime: 11168
Countdown: 0
SampleSet: Normal
StackLeniency: 0.7
Mode: 1
LetterboxInBreaks: 0

[Editor]
DistanceSpacing: 0.8
BeatDivisor: 4
GridSize: 8

[Metadata]
Title:Twinkle Wonderland
TitleUnicode:Twinkle Wonderland
Artist:Qrispy Joybox feat.sana
ArtistUnicode:Qrispy Joybox feat.sana
Creator:CoroQuetz
Version:Muzukashii
Source:REFLEC BEAT limelight
Tags:pop'n music jubeat konami bemani taiko_maniac1811
BeatmapID:180785
BeatmapSetID:60479

[Difficulty]
HPDrainRate:4
CircleSize:5
OverallDifficulty:5
ApproachRate:5
SliderMultiplier:1.4
SliderTickRate:1

[Events]
//Background and Video events
0,0,"bg.jpg",0,0
//Break Periods
//Storyboard Layer 0 (Background)
//Storyboard Layer 1 (Fail)
//Storyboard Layer 2 (Pass)
//Storyboard Layer 3 (Foreground)
//Storyboard Sound Samples
//Background Colour Transformations
3,100,163,162,255

[TimingPoints]
956,319.148936170213,4,1,0,70,1,0
11168,-100,4,1,0,70,0,1
21381,-100,4,1,0,70,0,0
41807,-100,4,1,0,70,0,1
52019,-100,4,1,0,70,0,0
72445,-100,4,1,0,70,0,1
92869,-100,4,1,0,70,0,0

[Colours]
Combo1 : 128,255,255
Combo2 : 255,0,0

[HitObjects]
136,216,8615,1,4,0:0:0:0:
136,216,9253,1,4,0:0:0:0:
136,216,10051,1,4,0:0:0:0:
136,216,10370,1,4,0:0:0:0:
136,216,10690,1,4,0:0:0:0:
136,216,11168,1,0,0:0:0:0:
136,216,11487,1,0,0:0:0:0:
136,216,11807,5,8,0:0:0:0:
136,216,12126,5,0,0:0:0:0:
136,216,12285,1,0,0:0:0:0:
136,216,12604,1,0,0:0:0:0:
136,216,12924,1,0,0:0:0:0:
136,216,13243,5,8,0:0:0:0:
136,216,13562,5,0,0:0:0:0:
136,216,13721,1,0,0:0:0:0:
136,216,14041,1,0,0:0:0:0:
136,216,14360,5,8,0:0:0:0:
136,216,14679,5,0,0:0:0:0:
136,216,14838,1,0,0:0:0:0:
136,216,15158,1,0,0:0:0:0:
136,216,15477,5,8,0:0:0:0:
136,216,15796,5,0,0:0:0:0:
136,216,16115,5,8,0:0:0:0:
136,216,16275,5,0,0:0:0:0:
136,216,16594,5,8,0:0:0:0:
136,216,16913,1,8,0:0:0:0:
136,216,17232,5,0,0:0:0:0:
136,216,17392,1,0,0:0:0:0:
136,216,17711,1,0,0:0:0:0:
136,216,18030,5,8,0:0:0:0:
136,216,18349,5,0,0:0:0:0:
136,216,18828,1,4,0:0:0:0:
136,216,19307,1,4,0:0:0:0:
136,216,19945,1,4,0:0:0:0:
136,216,21381,1,0,0:0:0:0:
136,216,21700,5,8,0:0:0:0:
136,216,22019,5,0,0:0:0:0:
136,216,22338,5,8,0:0:0:0:
136,216,22498,5,0,0:0:0:0:
136,216,22817,1,0,0:0:0:0:
136,216,22977,5,8,0:0:0:0:
136,216,23296,5,0,0:0:0:0:
136,216,23455,1,0,0:0:0:0:
136,216,23615,5,8,0:0:0:0:
136,216,23934,5,0,0:0:0:0:
136,216,24253,5,8,0:0:0:0:
136,216,24573,5,0,0:0:0:0:
136,216,24892,5,8,0:0:0:0:
136,216,25051,5,0,0:0:0:0:
136,216,25370,1,0,0:0:0:0:
136,216,25530,5,8,0:0:0:0:
136,216,25849,5,0,0:0:0:0:
136,216,26009,1,0,0:0:0:0:
136,216,26487,1,0,0:0:0:0:
136,216,26807,5,8,0:0:0:0:
136,216,27126,5,0,0:0:0:0:
136,216,27445,5,8,0:0:0:0:
136,216,27604,5,0,0:0:0:0:
136,216,27924,1,0,0:0:0:0:
136,216,28083,5,8,0:0:0:0:
136,216,28402,5,0,0:0:0:0:
136,216,28562,1,0,0:0:0:0:
136,216,28721,5,8,0:0:0:0:
136,216,29041,5,0,0:0:0:0:
136,216,29360,5,8,0:0:0:0:
136,216,29679,5,0,0:0:0:0:
136,216,29998,5,8,0:0:0:0:
136,216,30158,5,4,0:0:0:0:
136,216,30477,1,4,0:0:0:0:
136,216,30796,5,12,0:0:0:0:
136,216,31594,5,0,0:0:0:0:
136,216,31753,1,0,0:0:0:0:
136,216,31913,1,0,0:0:0:0:
136,216,32232,1,0,0:0:0:0:
136,216,32551,5,8,0:0:0:0:
136,216,32711,5,0,0:0:0:0:
136,216,33030,1,0,0:0:0:0:
136,216,34147,1,0,0:0:0:0:
136,216,34307,1,0,0:0:0:0:
136,216,34466,5,8,0:0:0:0:
136,216,34785,5,0,0:0:0:0:
136,216,35104,5,8,0:0:0:0:
136,216,35264,5,0,0:0:0:0:
136,216,35583,1,0,0:0:0:0:
136,216,35743,5,8,0:0:0:0:
136,216,35902,5,0,0:0:0:0:
136,216,36221,1,0,0:0:0:0:
136,216,36381,5,8,0:0:0:0:
136,216,36700,5,0,0:0:0:0:
136,216,36860,5,8,0:0:0:0:
136,216,37179,1,8,0:0:0:0:
136,216,37338,1,8,0:0:0:0:
136,216,37658,1,8,0:0:0:0:
136,216,37817,5,0,0:0:0:0:
136,216,38136,1,0,0:0:0:0:
136,216,38615,1,0,0:0:0:0:
136,216,38934,5,8,0:0:0:0:
136,216,39253,5,0,0:0:0:0:
136,216,39413,5,8,0:0:0:0:
136,216,39732,1,8,0:0:0:0:
136,216,39892,5,0,0:0:0:0:
136,216,40211,5,8,0:0:0:0:
136,216,40370,5,0,0:0:0:0:
136,216,40690,5,8,0:0:0:0:
136,216,40849,5,0,0:0:0:0:
136,216,41168,1,0,0:0:0:0:
136,216,41807,1,0,0:0:0:0:
136,216,42126,5,8,0:0:0:0:
136,216,42445,5,0,0:0:0:0:
136,216,42764,5,8,0:0:0:0:
136,216,42924,5,0,0:0:0:0:
136,216,43243,1,0,0:0:0:0:
136,216,43402,5,8,0:0:0:0:
136,216,43721,5,0,0:0:0:0:
136,216,43881,1,0,0:0:0:0:
136,216,44041,5,8,0:0:0:0:
136,216,44360,5,0,0:0:0:0:
136,216,44679,5,8,0:0:0:0:
136,216,44998,5,0,0:0:0:0:
136,216,45317,5,8,0:0:0:0:
136,216,45477,5,0,0:0:0:0:
136,216,45796,1,0,0:0:0:0:
136,216,45955,5,8,0:0:0:0:
136,216,46275,5,0,0:0:0:0:
136,216,46434,1,0,0:0:0:0:
136,216,46913,5,0,0:0:0:0:
136,216,47232,5,8,0:0:0:0:
136,216,47551,5,0,0:0:0:0:
136,216,47870,5,8,0:0:0:0:
136,216,48030,5,0,0:0:0:0:
136,216,48349,1,0,0:0:0:0:
136,216,48509,5,8,0:0:0:0:
136,216,48828,5,0,0:0:0:0:
136,216,48987,1,0,0:0:0:0:
136,216,49147,5,8,0:0:0:0:
136,216,49466,5,0,0:0:0:0:
136,216,49785,5,8,0:0:0:0:
224,256,49945,5,0,0:0:0:0:
136,216,50104,1,0,0:0:0:0:
136,216,50583,1,4,0:0:0:0:
136,216,50902,1,4,0:0:0:0:
136,216,52019,1,0,0:0:0:0:
136,216,52338,5,8,0:0:0:0:
136,216,52658,5,0,0:0:0:0:
136,216,52977,5,8,0:0:0:0:
136,216,53136,5,0,0:0:0:0:
136,216,53455,1,0,0:0:0:0:
136,216,53615,5,8,0:0:0:0:
136,216,53934,1,0,0:0:0:0:
136,216,54094,5,0,0:0:0:0:
16,144,54253,5,8,0:0:0:0:
16,144,54413,5,0,0:0:0:0:
136,216,54573,1,0,0:0:0:0:
136,216,54892,5,8,0:0:0:0:
136,216,55211,5,0,0:0:0:0:
136,216,55530,5,8,0:0:0:0:
136,216,55690,5,0,0:0:0:0:
136,216,56009,1,0,0:0:0:0:
136,216,56168,5,8,0:0:0:0:
136,216,56487,5,0,0:0:0:0:
136,216,56647,1,0,0:0:0:0:
136,216,56807,5,8,0:0:0:0:
136,216,57126,5,0,0:0:0:0:
136,216,57445,5,8,0:0:0:0:
136,216,57764,5,0,0:0:0:0:
136,216,58083,5,8,0:0:0:0:
136,216,58243,5,0,0:0:0:0:
136,216,58562,1,0,0:0:0:0:
136,216,58721,5,8,0:0:0:0:
144,96,59041,1,8,0:0:0:0:
40,240,59360,5,0,0:0:0:0:
136,216,59679,1,4,0:0:0:0:
136,216,60158,1,4,0:0:0:0:
136,216,60636,5,12,0:0:0:0:
136,216,61115,1,12,0:0:0:0:
136,216,62232,5,0,0:0:0:0:
136,216,63349,1,0,0:0:0:0:
136,216,64785,1,0,0:0:0:0:
96,184,65902,2,0,B|240:96|400:280|472:320|208:352,1,490
136,216,67338,1,0,0:0:0:0:
136,216,68455,1,0,0:0:0:0:
136,216,69892,1,4,0:0:0:0:
136,216,70530,1,4,0:0:0:0:
136,216,71328,1,4,0:0:0:0:
136,216,71647,1,4,0:0:0:0:
136,216,71966,1,4,0:0:0:0:
136,216,72445,1,0,0:0:0:0:
136,216,72764,5,8,0:0:0:0:
136,216,73083,5,0,0:0:0:0:
136,216,73402,5,8,0:0:0:0:
136,216,73562,5,0,0:0:0:0:
136,216,73881,5,8,0:0:0:0:
136,216,74041,1,8,0:0:0:0:
136,216,74360,5,0,0:0:0:0:
136,216,74519,1,0,0:0:0:0:
136,216,74679,5,8,0:0:0:0:
136,216,74998,5,0,0:0:0:0:
136,216,75317,5,8,0:0:0:0:
136,216,75636,5,0,0:0:0:0:
136,216,75955,5,8,0:0:0:0:
136,216,76115,5,0,0:0:0:0:
136,216,76434,1,0,0:0:0:0:
136,216,76594,5,8,0:0:0:0:
136,216,76913,5,0,0:0:0:0:
136,216,77073,1,0,0:0:0:0:
136,216,77232,5,8,0:0:0:0:
136,216,77392,5,0,0:0:0:0:
136,216,77551,1,0,0:0:0:0:
136,216,77870,5,8,0:0:0:0:
136,216,78190,5,0,0:0:0:0:
136,216,78509,5,8,0:0:0:0:
136,216,78668,5,0,0:0:0:0:
136,216,78987,1,0,0:0:0:0:
136,216,79147,5,8,0:0:0:0:
136,216,79307,5,0,0:0:0:0:
136,216,79626,1,0,0:0:0:0:
136,216,79785,5,8,0:0:0:0:
136,216,80104,5,4,0:0:0:0:
136,216,80583,1,4,0:0:0:0:
56,176,81221,2,4,B|344:96|448:272|184:320,1,490
136,216,82658,1,0,0:0:0:0:
136,216,82977,5,8,0:0:0:0:
136,216,83296,5,0,0:0:0:0:
136,216,83615,5,8,0:0:0:0:
136,216,83775,5,0,0:0:0:0:
136,216,84094,1,0,0:0:0:0:
136,216,84253,5,8,0:0:0:0:
136,216,84573,5,0,0:0:0:0:
136,216,84732,1,0,0:0:0:0:
136,216,84892,5,8,0:0:0:0:
104,216,85051,5,0,0:0:0:0:
136,216,85211,1,0,0:0:0:0:
136,216,85530,5,8,0:0:0:0:
136,216,85849,5,0,0:0:0:0:
136,216,86168,5,8,0:0:0:0:
136,216,86328,5,0,0:0:0:0:
136,216,86647,1,0,0:0:0:0:
136,216,86807,5,8,0:0:0:0:
136,216,87126,5,0,0:0:0:0:
136,216,87285,5,8,0:0:0:0:
136,216,87445,1,8,0:0:0:0:
136,216,87764,5,0,0:0:0:0:
136,216,88083,5,8,0:0:0:0:
136,216,88402,5,0,0:0:0:0:
136,216,88721,5,8,0:0:0:0:
136,216,88881,5,0,0:0:0:0:
136,216,89200,1,0,0:0:0:0:
136,216,89360,5,8,0:0:0:0:
136,216,89679,5,0,0:0:0:0:
136,216,89838,1,0,0:0:0:0:
136,216,89998,5,8,0:0:0:0:
136,216,90317,5,0,0:0:0:0:
136,216,90636,1,0,0:0:0:0:
136,216,90796,5,8,0:0:0:0:
136,216,91115,5,0,0:0:0:0:
136,216,91434,5,0,0:0:0:0:
136,216,92870,5,4,0:0:0:0:
200,176,93987,1,4,0:0:0:0:
200,176,95424,1,4,0:0:0:0:
