osu file format v12

[General]
AudioFilename: 1-09 feat.mao.mp3
AudioLeadIn: 2000
PreviewTime: 54004
Countdown: 0
SampleSet: Soft
StackLeniency: 0.7
Mode: 0
LetterboxInBreaks: 0

[Editor]
DistanceSpacing: 1.2
BeatDivisor: 4
GridSize: 4

[Metadata]
Title:Colorful Minutes
TitleUnicode:カラフルミニッツ
Artist:Qrispy Joybox feat.mao
ArtistUnicode:Qrispy Joybox feat.mao
Creator:Wreath
Version:Hard
Source:REFLEC BEAT
Tags:Konami BEMANI jubeat plus limelight colette Duca Hinacle
BeatmapID:185494
BeatmapSetID:62537

[Difficulty]
HPDrainRate:6
CircleSize:4
OverallDifficulty:6
ApproachRate:7
SliderMultiplier:1.6
SliderTickRate:2

[Events]
//Background and Video events
0,0,"BG.jpg",0,0
//Break Periods
2,25812,27871
//Storyboard Layer 0 (Background)
//Storyboard Layer 1 (Fail)
//Storyboard Layer 2 (Pass)
//Storyboard Layer 3 (Foreground)
//Storyboard Sound Samples
//Background Colour Transformations
3,100,163,162,255

[TimingPoints]
350,394.736842105263,4,2,1,60,1,0
6073,-100,4,1,1,60,0,0
6172,-100,4,2,1,60,0,0
6468,-100,4,2,2,60,0,0
6665,-100,4,2,1,60,0,0
7455,-100,4,2,2,60,0,0
7652,-100,4,1,1,60,0,0
7751,-100,4,2,1,60,0,0
8442,-100,4,2,2,60,0,0
8639,-100,4,2,1,60,0,0
9034,-100,4,2,2,60,0,0
9428,-100,4,2,1,60,0,0
9823,-100,4,2,2,60,0,0
10021,-100,4,2,1,60,0,0
10613,-100,4,2,2,60,0,0
10810,-100,4,2,1,60,0,0
11599,-100,4,2,2,60,0,0
11698,-100,4,2,1,60,0,0
12981,-100,4,2,1,60,0,1
25613,-100,4,2,1,60,0,0
28771,-100,4,2,1,60,0,1
28869,-100,4,2,1,60,0,0
35086,-100,4,2,1,50,0,0
35284,-100,4,2,1,60,0,0
38639,-100,4,1,2,40,0,0
38738,-100,4,2,1,60,0,0
41402,-133.333333333333,4,2,1,50,0,0
46928,-133.333333333333,4,2,1,55,0,0
47323,-133.333333333333,4,2,1,58,0,0
47718,-100,4,2,1,60,0,0
53442,-100,4,2,1,40,0,0
53639,-100,4,2,1,50,0,0
53836,-100,4,2,1,60,0,0
54034,-100,4,2,1,60,0,1
69823,-100,4,2,1,50,0,1
70021,-100,4,2,1,60,0,1
75744,-100,4,1,2,40,0,1
75843,-100,4,2,1,60,0,1
79198,-100,4,2,1,60,0,0
79297,-100,4,2,1,60,0,1
79396,-100,4,2,1,60,0,0
88771,-100,4,2,1,50,0,0
88968,-100,4,2,1,60,0,0
90251,-100,4,2,1,5,0,0

[Colours]
Combo1 : 255,255,30
Combo2 : 255,128,64
Combo3 : 255,128,192

[HitObjects]
8,120,350,2,0,B|44:140|84:144|84:144|124:140|160:120,1,160,2|0,0:0|0:0,0:0:0:0:
148,208,942,2,0,B|120:283,1,80,2|0,0:0|0:0,0:0:0:0:
176,352,1336,1,0,0:0:0:0:
248,300,1534,2,0,B|284:280|324:276|324:276|364:280|400:300,1,160,2|0,0:0|0:0,0:0:0:0:
489,340,2126,2,0,B|475:261,1,80,2|0,0:0|0:0,0:0:0:0:
455,174,2521,1,0,0:0:0:0:
412,96,2718,2,0,B|336:52|260:96,1,160,2|0,0:0|0:0,0:0:0:0:
144,64,3310,1,0,0:0:0:0:
144,64,3508,6,0,B|183:76|208:123|183:172|144:184,1,160,2|0,0:0|0:0,0:0:0:0:
36,196,4099,2,0,B|31:173|43:156|54:140|77:136,1,80,2|0,0:0|0:0,0:0:0:0:
143,184,4494,1,0,0:0:0:0:
112,260,4692,2,0,B|126:298|154:327|154:327|188:349|228:357,1,160,2|0,0:0|0:0,0:0:0:0:
356,344,5284,2,0,B|362:327|366:307|366:307|362:287|354:267,1,80,2|0,0:0|0:0,0:0:0:0:
268,278,5678,1,0,0:0:0:0:
228,357,5876,2,0,B|151:401|75:357,1,160,2|2,0:0|0:0,0:0:0:0:
23,277,6468,1,2,0:0:0:0:
108,232,6665,6,0,B|117:232|143:210|157:179|152:147|138:121|104:102,1,160,4|2,0:0|0:0,0:0:0:0:
64,168,7257,1,0,0:0:0:0:
64,168,7455,2,0,B|224:168,1,160,2|0,0:0|0:0,0:0:0:0:
320,168,8047,2,0,B|298:196|298:227|298:260|322:292|322:292|346:304,1,160,2|2,0:0|0:0,0:0:0:0:
392,228,8639,2,0,B|414:200|414:168|414:136|390:104|390:104|366:92,1,160,2|2,0:0|0:0,0:0:0:0:
228,364,9428,6,0,B|210:360|189:354|189:354|174:341|161:323,1,80,2|0,0:0|0:0,0:0:0:0:
160,244,9823,2,0,B|177:247|198:253|198:253|213:266|226:284,1,80,2|0,0:0|0:0,0:0:0:0:
104,284,10218,2,0,B|92:276|80:240|84:216|100:188|128:168|156:172|168:176,1,160,2|2,0:0|0:0,0:0:0:0:
256,204,10810,1,0,0:0:0:0:
344,244,11007,1,2,0:0:0:0:
440,252,11205,2,0,B|480:239|505:190|480:143|441:131,2,160,0|2|0,0:0|0:0|0:0,0:0:0:0:
344,244,12192,5,8,0:0:0:0:
344,244,12389,1,0,0:0:0:0:
256,204,12586,1,8,0:0:0:0:
256,204,12784,1,8,0:0:0:0:
172,144,12981,6,0,B|144:116|96:120|96:120|56:144|12:124,1,160,4|8,0:0|0:0,0:0:0:0:
52,56,13573,1,0,0:0:0:0:
208,80,13771,2,0,B|240:98|254:124|259:156|245:187|219:209|210:209,1,160,2|8,0:0|0:0,0:0:0:0:
85,178,14363,2,0,B|52:196|38:222|33:254|47:285|73:307|82:307,1,160,2|0,0:0|0:0,0:0:0:0:
212,368,14955,1,8,0:0:0:0:
212,368,15152,2,0,B|221:368|247:346|261:315|256:283|242:257|209:239,1,160,2|0,0:0|0:0,0:0:0:0:
162,307,15744,2,0,L|82:307,1,80,8|0,0:0|0:0,0:0:0:0:
212,368,16139,6,0,L|292:368,1,80,4|0,0:0|0:0,0:0:0:0:
411,281,16534,2,0,L|331:281,1,80,4|0,0:0|0:0,0:0:0:0:
492,340,16928,1,0,0:0:0:0:
492,340,17126,2,0,B|514:312|514:280|514:248|490:216|490:216|466:204,1,160,8|8,0:0|0:0,0:0:0:0:
337,249,17718,2,0,L|411:281,1,80,0|8,0:0|0:0,0:0:0:0:
369,167,18113,2,0,L|295:135,1,80,8|0,0:0|0:0,0:0:0:0:
208,96,18507,5,8,0:0:0:0:
96,84,18705,1,0,0:0:0:0:
0,168,18902,1,8,0:0:0:0:
0,168,19297,6,0,B|20:204|24:244|24:244|20:284|0:320,1,160,4|8,0:0|0:0,0:0:0:0:
88,360,19889,1,0,0:0:0:0:
156,288,20086,2,0,B|168:264|168:264|200:240|232:240|264:240|292:262,1,160,2|8,0:0|0:0,0:0:0:0:
240,320,20678,2,0,B|196:244|240:168,1,160,2|0,0:0|0:0,0:0:0:0:
228,72,21271,1,8,0:0:0:0:
308,100,21468,2,0,B|342:116|382:92|382:92|430:88|458:116,1,160,2|0,0:0|0:0,0:0:0:0:
400,248,22060,2,0,B|394:231|390:211|390:211|394:191|402:171,1,80,8|0,0:0|0:0,0:0:0:0:
308,100,22455,6,0,B|232:56|156:100,1,160,4|8,0:0|0:0,0:0:0:0:
76,168,23047,2,0,B|152:212|228:168,1,160,4|0,0:0|0:0,0:0:0:0:
156,99,23639,1,8,0:0:0:0:
156,100,23836,2,0,B|156:260,1,160,4|0,0:0|0:0,0:0:0:0:
268,320,24428,6,0,L|254:241,1,80,8|0,0:0|0:0,0:0:0:0:
376,244,24823,2,0,L|348:168,1,80,8|0,0:0|0:0,0:0:0:0:
468,148,25218,2,0,L|428:78,2,80,8|0|4,0:0|0:0|0:0,0:0:0:0:
164,304,28771,6,0,B|120:288|76:304,1,80,4|0,0:0|0:0,0:0:0:0:
164,305,29165,2,0,B|240:349|316:305,1,160,8|0,0:0|0:0,0:0:0:0:
384,248,29757,2,0,B|428:244|460:268,1,80,0|8,0:0|0:0,0:0:0:0:
512,188,30152,2,0,B|468:192|436:168,1,80,0|0,0:0|0:0,0:0:0:0:
328,96,30546,1,0,0:0:0:0:
448,96,30744,1,8,0:0:0:0:
308,168,30942,2,0,B|232:212|156:168,1,160,0|0,0:0|0:0,0:0:0:0:
92,96,31534,2,0,L|92:16,2,80,8|0|0,0:0|0:0|0:0,0:0:0:0:
8,232,32126,6,0,B|9:211|16:191|16:191|29:176|43:163,1,80,0|8,0:0|0:0,0:0:0:0:
128,208,32521,1,0,0:0:0:0:
212,260,32718,1,0,0:0:0:0:
176,352,32915,1,0,0:0:0:0:
92,304,33113,1,8,0:0:0:0:
212,260,33310,2,0,B|288:216|364:260,1,160,0|0,0:0|0:0,0:0:0:0:
380,356,33902,1,8,0:0:0:0:
460,304,34099,2,0,B|466:286|470:266|470:266|466:246|457:227,1,80,0|0,0:0|0:0,0:0:0:0:
424,128,34494,5,2,0:0:0:0:
320,116,34692,2,0,B|314:134|310:154|310:154|314:174|323:193,1,80,0|2,0:0|0:0,0:0:0:0:
424,128,35086,1,4,0:0:0:0:
364,24,35284,6,0,B|348:16|328:12|328:12|308:16|288:24,1,80,0|8,0:0|0:0,0:0:0:0:
200,64,35678,1,0,0:0:0:0:
136,136,35876,2,0,B|127:155|123:175|123:175|127:195|133:213,1,80,0|0,0:0|0:0,0:0:0:0:
232,176,36271,1,8,0:0:0:0:
136,136,36468,2,0,B|117:127|97:123|97:123|77:127|59:133,1,80,0|0,0:0|0:0,0:0:0:0:
32,216,36863,1,0,0:0:0:0:
60,300,37060,2,0,B|66:318|70:338|70:338|66:358|57:377,2,80,8|0|0,0:0|0:0|0:0,0:0:0:0:
32,216,37652,5,2,0:0:0:0:
136,136,37849,1,0,0:0:0:0:
104,228,38047,1,2,0:0:0:0:
0,140,38244,1,0,0:0:0:0:
32,56,38442,6,0,B|108:12|184:56,1,160,0|0,0:0|0:0,0:0:0:0:
292,124,39034,2,0,B|212:124,1,80,0|0,0:0|0:0,0:0:0:0:
328,188,39428,1,8,0:0:0:0:
328,188,39626,2,0,B|337:188|363:166|377:135|372:103|358:77|324:58,1,160,0|0,0:0|0:0,0:0:0:0:
212,188,40218,2,0,B|212:268,1,80,8|0,0:0|0:0,0:0:0:0:
288,340,40613,5,8,0:0:0:0:
394,304,40810,1,0,0:0:0:0:
460,204,41007,1,8,0:0:0:0:
460,204,41402,6,0,P|448:264|460:324,2,120.000004577637,4|0|2,0:0|0:0|0:0,0:0:0:0:
492,140,42389,1,0,0:0:0:0:
444,88,42586,1,2,0:0:0:0:
380,120,42784,2,0,P|322:130|262:118,1,120.000004577637,2|0,0:0|0:0,0:0:0:0:
192,132,43376,2,0,B|169:143|157:183|169:223|193:235,1,120.000004577637,2|2,0:0|0:0,0:0:0:0:
265,246,43968,5,0,0:0:0:0:
325,286,44165,1,0,0:0:0:0:
308,356,44363,1,0,0:0:0:0:
240,376,44560,2,0,P|180:364|120:376,1,120.000004577637,4|0,0:0|0:0,0:0:0:0:
60,288,45152,2,0,P|120:300|180:288,1,120.000004577637,4|0,0:0|0:0,0:0:0:0:
12,340,45744,2,0,B|-12:328|-24:288|-12:248|12:236,1,120.000004577637,4|2,0:0|0:0,0:0:0:0:
68,193,46336,2,0,L|120:156,2,60.0000022888184
60,288,46928,5,8,0:0:0:0:
60,288,47126,1,0,0:0:0:0:
119,361,47323,1,8,0:0:0:0:
119,361,47521,1,0,0:0:0:0:
216,348,47718,6,0,B|237:333|237:333|256:297|251:265|245:234|218:210,1,160,4|8,0:0|0:0,0:0:0:0:
148,144,48310,2,0,B|127:159|127:159|108:195|113:227|119:258|146:282,1,160,2|0,0:0|0:0,0:0:0:0:
216,348,48902,1,8,0:0:0:0:
306,381,49099,1,0,0:0:0:0:
415,286,49297,2,0,B|399:247|351:231|303:247|287:287,1,160,2|8,0:0|0:0,0:0:0:0:
352,320,49889,2,0,B|367:358|415:374|463:358|479:318,1,160,2|0,0:0|0:0,0:0:0:0:
504,224,50481,1,8,0:0:0:0:
440,152,50678,1,0,0:0:0:0:
352,192,50876,6,0,B|331:177|331:177|312:141|317:109|323:78|350:54,1,160,4|8,0:0|0:0,0:0:0:0:
400,108,51468,2,0,B|324:152|248:108,1,160,4|0,0:0|0:0,0:0:0:0:
172,48,52060,1,8,0:0:0:0:
84,92,52257,2,0,B|40:168|84:244,1,160,4|0,0:0|0:0,0:0:0:0:
160,304,52849,1,8,0:0:0:0:
252,336,53047,1,0,0:0:0:0:
344,304,53244,1,8,0:0:0:0:
412,233,53442,6,0,L|426:195,1,40,2|0,0:0|0:0,0:0:0:0:
377,195,53639,2,0,L|364:158,1,40,2|0,0:0|0:0,0:0:0:0:
324,186,53836,2,0,L|298:154,1,40,2|0,0:0|0:0,0:0:0:0:
278,200,54034,6,0,B|254:212|254:212|230:244|230:276|230:308|252:336,1,160,4|8,0:0|0:0,0:0:0:0:
340,380,54626,1,0,0:0:0:0:
312,288,54823,2,0,B|236:244|160:288,1,160,2|8,0:0|0:0,0:0:0:0:
40,352,55415,2,0,B|64:340|64:340|88:308|88:276|88:244|66:216,1,160,2|0,0:0|0:0,0:0:0:0:
36,124,56007,1,8,0:0:0:0:
36,124,56205,2,0,B|72:104|112:100|112:100|152:104|188:124,1,160,2|0,0:0|0:0,0:0:0:0:
108,263,56797,2,0,B|102:245|98:225|98:225|102:205|111:186,1,80,8|0,0:0|0:0,0:0:0:0:
188,124,57192,6,0,L|268:124,1,80,4|0,0:0|0:0,0:0:0:0:
372,200,57587,2,0,L|292:200,1,80,4|0,0:0|0:0,0:0:0:0:
452,140,57981,1,0,0:0:0:0:
452,140,58179,2,0,B|474:168|474:200|474:232|450:264|450:264|426:276,1,160,8|8,0:0|0:0,0:0:0:0:
292,200,58771,2,0,L|372:200,1,80,0|8,0:0|0:0,0:0:0:0:
268,280,59166,2,0,L|188:280,1,80,8|0,0:0|0:0,0:0:0:0:
96,252,59560,5,8,0:0:0:0:
6,185,59758,1,0,0:0:0:0:
96,94,59955,1,8,0:0:0:0:
96,94,60349,6,0,B|132:114|172:118|172:118|212:114|248:94,1,160,4|8,0:0|0:0,0:0:0:0:
340,68,60942,1,0,0:0:0:0:
428,32,61139,2,0,B|448:68|452:108|452:108|448:148|428:184,1,160,2|8,0:0|0:0,0:0:0:0:
332,184,61731,2,0,B|312:220|308:260|308:260|312:300|332:336,1,160,2|0,0:0|0:0,0:0:0:0:
404,260,62323,1,8,0:0:0:0:
332,184,62521,2,0,B|256:140|180:184,1,160,2|0,0:0|0:0,0:0:0:0:
100,264,63113,2,0,B|180:264,1,80,8|0,0:0|0:0,0:0:0:0:
64,328,63507,6,0,B|55:328|29:306|15:275|20:243|34:217|68:198,1,160,4|8,0:0|0:0,0:0:0:0:
180,184,64099,2,0,B|189:184|215:162|229:131|224:99|210:73|176:54,1,160,4|0,0:0|0:0,0:0:0:0:
136,120,64692,1,8,0:0:0:0:
136,120,64889,2,0,B|296:120,1,160,4|0,0:0|0:0,0:0:0:0:
416,120,65481,6,0,B|408:139|404:159|404:159|408:180|414:197,1,80,8|0,0:0|0:0,0:0:0:0:
428,284,65876,1,8,0:0:0:0:
344,260,66073,1,0,0:0:0:0:
300,336,66271,1,8,0:0:0:0:
220,300,66468,1,0,0:0:0:0:
152,368,66665,6,0,B|138:356|124:340|124:340|117:320|115:300,1,80,4|0,0:0|0:0,0:0:0:0:
60,232,67060,2,0,B|57:211|50:192|50:192|36:176|23:164,1,80,8|0,0:0|0:0,0:0:0:0:
84,60,67455,1,2,0:0:0:0:
180,156,67652,1,0,0:0:0:0:
104,136,67849,1,8,0:0:0:0:
200,68,68047,6,0,B|236:48|276:44|276:44|316:48|352:68,1,160,2|0,0:0|0:0,0:0:0:0:
436,112,68639,1,8,0:0:0:0:
352,160,68836,2,0,B|332:196|328:236|328:236|332:276|352:312,1,160,2|0,0:0|0:0,0:0:0:0:
436,356,69428,2,0,B|444:337|448:317|448:317|444:296|438:279,2,80,8|0|4,0:0|0:0|0:0,0:0:0:0:
352,312,70021,6,0,B|333:304|313:300|313:300|292:304|275:310,1,80,2|8,0:0|0:0,0:0:0:0:
180,324,70415,1,0,0:0:0:0:
88,356,70613,1,0,0:0:0:0:
180,324,70810,2,0,B|186:307|190:285|190:285|186:266|178:247,1,80,2|8,0:0|0:0,0:0:0:0:
148,144,71205,2,0,B|140:132|116:116|92:112|60:116|28:140|24:176,1,160,2|0,0:0|0:0,0:0:0:0:
96,272,71797,2,0,B|102:255|106:233|106:233|102:214|94:195,1,80,8|0,0:0|0:0,0:0:0:0:
148,144,72192,5,8,0:0:0:0:
224,84,72389,1,0,0:0:0:0:
336,68,72586,1,8,0:0:0:0:
336,68,72981,6,0,B|330:85|326:107|326:107|330:126|338:145,1,80,4|0,0:0|0:0,0:0:0:0:
432,192,73376,1,8,0:0:0:0:
352,248,73573,2,0,B|276:204|200:248,1,160,2|0,0:0|0:0,0:0:0:0:
276,328,74165,1,8,0:0:0:0:
276,328,74363,2,0,B|352:372|428:328,1,160,2|0,0:0|0:0,0:0:0:0:
352,248,74955,1,8,0:0:0:0:
432,192,75152,2,0,B|424:173|420:154|420:154|424:132|430:115,1,80,2|0,0:0|0:0,0:0:0:0:
360,36,75547,2,0,B|324:16|284:12|284:12|244:16|208:36,1,160,2|0,0:0|0:0,0:0:0:0:
84,124,76139,6,0,B|112:96|160:100|160:100|200:124|244:104,1,160,4|8,0:0|0:0,0:0:0:0:
48,60,76731,2,0,B|16:78|2:104|-3:136|11:167|37:189|46:189,1,160,2|0,0:0|0:0,0:0:0:0:
143,308,77323,1,8,0:0:0:0:
143,308,77521,2,0,B|175:290|189:264|194:232|180:201|154:179|145:179,1,160,2|0,0:0|0:0,0:0:0:0:
47,189,78113,2,0,B|41:206|37:228|37:228|41:247|49:266,1,80,2|0,0:0|0:0,0:0:0:0:
144,179,78507,2,0,B|180:159|220:155|220:155|260:159|296:179,1,160,2|0,0:0|0:0,0:0:0:0:
384,216,79099,1,0,0:0:0:0:
459,277,79297,6,0,B|453:294|449:316|449:316|453:335|461:354,2,80,4|2|8,0:0|0:0|0:0,0:0:0:0:
474,182,79889,2,0,B|480:165|484:143|484:143|480:124|472:105,2,80,0|2|0,0:0|0:0|0:0,0:0:0:0:
384,216,80481,2,0,L|304:216,2,80,8|2|0,0:0|0:0|0:0,0:0:0:0:
268,280,81073,1,0,0:0:0:0:
268,280,81271,2,0,B|259:280|233:258|219:227|224:195|238:169|270:151,1,160,8|0,0:0|0:0,0:0:0:0:
352,96,81863,2,0,B|344:79|332:63|332:63|314:53|293:47,1,80,0|8,0:0|0:0,0:0:0:0:
200,64,82257,1,0,0:0:0:0:
136,136,82455,6,0,B|127:155|123:175|123:175|127:195|133:213,1,80,4|2,0:0|0:0,0:0:0:0:
232,176,82850,1,8,0:0:0:0:
136,136,83047,2,0,B|117:127|97:123|97:123|77:127|59:133,1,80,0|2,0:0|0:0,0:0:0:0:
32,216,83442,1,0,0:0:0:0:
60,300,83639,1,8,0:0:0:0:
60,300,83836,2,0,B|96:320|136:324|136:324|176:320|212:300,1,160,2|0,0:0|0:0,0:0:0:0:
304,272,84428,2,0,B|298:254|294:234|294:234|298:214|306:195,1,80,8|0,0:0|0:0,0:0:0:0:
368,120,84823,5,8,0:0:0:0:
460,184,85021,1,0,0:0:0:0:
416,304,85218,1,8,0:0:0:0:
416,304,85613,6,0,B|433:310|455:314|455:314|474:310|493:302,2,80,4|2|8,0:0|0:0|0:0,0:0:0:0:
324,276,86205,2,0,B|307:270|285:266|285:266|266:270|247:278,2,80,0|2|0,0:0|0:0|0:0,0:0:0:0:
400,216,86797,1,8,0:0:0:0:
476,156,86994,2,0,B|482:139|486:117|486:117|482:98|474:79,1,80,2|0,0:0|0:0,0:0:0:0:
400,16,87389,1,0,0:0:0:0:
332,84,87586,2,0,B|296:104|256:108|256:108|216:104|180:84,1,160,8|0,0:0|0:0,0:0:0:0:
96,132,88178,1,0,0:0:0:0:
32,204,88376,2,0,B|26:221|22:243|22:243|26:262|34:281,2,80,8|0|4,0:0|0:0|0:0,0:0:0:0:
120,244,88968,5,0,0:0:0:0:
120,244,89165,2,0,B|156:264|196:268|196:268|236:264|272:244,1,160,8|0,0:0|0:0,0:0:0:0:
360,208,89757,1,0,0:0:0:0:
436,148,89955,1,8,0:0:0:0:
468,56,90152,1,4,0:0:0:0:
256,192,90251,12,0,91928,0:0:0:0:
