osu file format v12

[General]
AudioFilename: 1-09 feat.mao.mp3
AudioLeadIn: 2000
PreviewTime: 54004
Countdown: 0
SampleSet: Soft
StackLeniency: 0.7
Mode: 0
LetterboxInBreaks: 0

[Editor]
DistanceSpacing: 0.8
BeatDivisor: 4
GridSize: 4

[Metadata]
Title:Colorful Minutes
TitleUnicode:カラフルミニッツ
Artist:Qrispy Joybox feat.mao
ArtistUnicode:Qrispy Joybox feat.mao
Creator:Wreath
Version:Basic
Source:REFLEC BEAT
Tags:Konami BEMANI jubeat plus limelight colette Duca Hinacle
BeatmapID:185493
BeatmapSetID:62537

[Difficulty]
HPDrainRate:2
CircleSize:3
OverallDifficulty:2
ApproachRate:3
SliderMultiplier:0.999999999999999
SliderTickRate:2

[Events]
//Background and Video events
0,0,"BG.jpg",0,0
//Break Periods
2,25812,27331
//Storyboard Layer 0 (Background)
//Storyboard Layer 1 (Fail)
//Storyboard Layer 2 (Pass)
//Storyboard Layer 3 (Foreground)
//Storyboard Sound Samples
//Background Colour Transformations
3,100,163,162,255

[TimingPoints]
350,394.736842105263,4,2,1,60,1,0
11402,-100,4,2,1,40,0,0
11599,-100,4,2,1,45,0,0
11797,-100,4,2,1,50,0,0
11994,-100,4,2,1,55,0,0
12192,-100,4,2,1,60,0,0
12981,-100,4,2,1,60,0,1
13376,-100,4,1,2,60,0,1
13573,-100,4,2,1,60,0,1
14955,-100,4,1,2,60,0,1
15152,-100,4,2,1,60,0,1
18113,-100,4,1,2,60,0,1
18310,-100,4,2,1,60,0,1
19692,-100,4,1,2,60,0,1
19889,-100,4,2,1,60,0,1
21271,-100,4,1,2,60,0,1
21468,-100,4,2,1,60,0,1
25613,-100,4,2,1,60,0,0
28771,-100,4,2,1,60,0,1
28869,-100,4,2,1,60,0,0
29165,-100,4,1,2,60,0,0
29363,-100,4,2,1,60,0,0
30744,-100,4,1,2,60,0,0
30942,-100,4,2,1,60,0,0
32323,-100,4,1,2,60,0,0
32521,-100,4,2,1,60,0,0
33902,-100,4,1,2,60,0,0
34099,-100,4,2,1,60,0,0
41402,-100,4,2,1,50,0,0
47323,-100,4,2,1,55,0,0
47718,-100,4,2,1,60,0,0
48113,-100,4,1,2,60,0,0
48310,-100,4,2,1,60,0,0
49692,-100,4,1,2,60,0,0
49889,-100,4,2,1,60,0,0
51271,-100,4,1,2,60,0,0
51468,-100,4,2,1,60,0,0
54034,-100,4,2,1,60,0,1
54428,-100,4,1,2,60,0,1
54626,-100,4,2,1,60,0,1
56007,-100,4,1,2,60,0,1
56205,-100,4,2,1,60,0,1
59165,-100,4,1,2,60,0,1
59363,-100,4,2,1,60,0,1
60744,-100,4,1,2,60,0,1
60942,-100,4,2,1,60,0,1
62323,-100,4,1,2,60,0,1
62521,-100,4,2,1,60,0,1
63902,-100,4,1,2,60,0,1
64099,-100,4,2,1,60,0,1
67060,-100,4,1,2,60,0,1
67257,-100,4,2,1,60,0,1
68639,-100,4,1,2,60,0,1
68836,-100,4,2,1,60,0,1
73376,-100,4,1,2,60,0,1
73573,-100,4,2,1,60,0,1
74955,-100,4,1,2,60,0,1
75152,-100,4,2,1,60,0,1
79198,-100,4,2,1,60,0,0
79297,-100,4,2,1,60,0,1
79396,-100,4,2,1,60,0,0
79692,-100,4,1,2,60,0,0
79889,-100,4,2,1,60,0,0
81271,-100,4,1,2,60,0,0
81468,-100,4,2,1,60,0,0
82849,-100,4,1,2,60,0,0
83047,-100,4,2,1,60,0,0
86007,-100,4,1,2,60,0,0
86205,-100,4,2,1,60,0,0
87586,-100,4,1,2,60,0,0
87784,-100,4,2,1,60,0,0
90251,-100,4,2,1,5,0,0

[Colours]
Combo1 : 255,255,30
Combo2 : 255,128,64
Combo3 : 255,128,192

[HitObjects]
129,97,350,2,0,B|101:113|101:113|77:145|77:193|101:225,1,150,2|0,0:0|0:0,0:0:0:0:
180,312,1534,2,0,B|208:296|208:296|232:264|232:216|208:184,1,150,2|0,0:0|0:0,0:0:0:0:
291,97,2718,2,0,B|391:97,1,99.9999999999999,2|0,0:0|0:0,0:0:0:0:
460,57,3507,6,0,B|472:85|472:109|460:137|460:137|460:209,1,150,2|0,0:0|0:0,0:0:0:0:
460,324,4692,2,0,B|437:362|397:358|357:362|333:322,1,150,2|0,0:0|0:0,0:0:0:0:
239,249,5876,2,0,B|287:217|333:248,1,99.9999999999999,2|2,0:0|0:0,0:0:0:0:
413,249,6665,6,0,B|435:213|443:157|435:101|407:57,1,200,4|2,0:0|0:0,0:0:0:0:
327,58,7849,1,0,0:0:0:0:
247,58,8244,2,0,B|219:102|211:157|219:214|241:249,1,200,2|2,0:0|0:0,0:0:0:0:
321,257,9428,1,0,0:0:0:0:
356,329,9823,6,0,B|328:341|304:341|276:328|276:328|156:328,1,200,2|2,0:0|0:0,0:0:0:0:
79,329,11007,1,0,0:0:0:0:
28,268,11402,2,0,B|56:224|64:168|56:112|33:76,1,200,2|8,0:0|0:0,0:0:0:0:
108,44,12586,1,8,0:0:0:0:
182,77,12981,6,0,B|154:121|146:176|154:233|176:268,1,200,4|2,0:0|0:0,0:0:0:0:
226,331,14165,1,8,0:0:0:0:
306,331,14560,2,0,B|423:331|423:331|451:344|475:344|503:332,1,200,2|2,0:0|0:0,0:0:0:0:
467,260,15744,1,8,0:0:0:0:
467,180,16139,6,0,B|467:80,1,99.9999999999999,4|4,0:0|0:0,0:0:0:0:
408,24,16928,2,0,B|360:-8|314:22,1,99.9999999999999,2|8,0:0|0:0,0:0:0:0:
257,80,17718,2,0,B|222:102|165:110|110:102|66:74,1,200,2|8,0:0|0:0,0:0:0:0:
19,140,18902,1,8,0:0:0:0:
66,206,19297,6,0,B|110:178|165:170|222:178|257:200,1,200,4|2,0:0|0:0,0:0:0:0:
329,235,20481,1,8,0:0:0:0:
401,272,20876,2,0,B|413:244|413:220|400:192|400:192|400:74,1,200,2|2,0:0|0:0,0:0:0:0:
320,75,22060,1,8,0:0:0:0:
240,75,22455,6,0,P|168:51|96:75,2,150,4|4|8,0:0|0:0|0:0,0:0:0:0:
239,155,24034,1,0,0:0:0:0:
239,236,24428,2,0,B|285:267|333:235,1,99.9999999999999,8|8,0:0|0:0,0:0:0:0:
411,218,25218,2,0,B|459:187|505:218,1,99.9999999999999,8|4,0:0|0:0,0:0:0:0:
16,132,28771,6,0,B|52:160|108:168|108:168|164:160|200:132,1,200,4|2,0:0|0:0,0:0:0:0:
200,52,29955,1,8,0:0:0:0:
280,52,30349,2,0,B|308:88|316:144|316:144|308:200|280:236,1,200,2|2,0:0|0:0,0:0:0:0:
356,268,31534,1,8,0:0:0:0:
394,340,31928,6,0,B|366:352|342:352|314:339|314:339|194:339,1,200,2|2,0:0|0:0,0:0:0:0:
116,336,33113,1,8,0:0:0:0:
43,373,33507,2,0,B|31:345|31:321|44:293|44:293|44:173,1,200,2|2,0:0|0:0,0:0:0:0:
43,94,34692,2,0,B|89:63|137:94,1,99.9999999999999,8|4,0:0|0:0,0:0:0:0:
137,174,35481,6,0,B|172:196|229:204|284:196|328:168,1,200,8|8,0:0|0:0,0:0:0:0:
403,136,36665,1,2,0:0:0:0:
480,112,37060,2,0,B|508:156|516:208|508:268|481:301,1,200,8|8,0:0|0:0,0:0:0:0:
410,340,38244,1,2,0:0:0:0:
338,302,38639,6,0,B|302:278|246:270|190:278|147:304,1,200,8|8,0:0|0:0,0:0:0:0:
76,344,39823,1,2,0:0:0:0:
76,264,40218,1,8,0:0:0:0:
76,184,40613,2,0,L|76:132,2,50,8|0|8,0:0|0:0|0:0,0:0:0:0:
148,219,41402,6,0,B|188:199|188:199|224:119|191:48,1,200,4|0,0:0|0:0,0:0:0:0:
273,40,42586,1,2,0:0:0:0:
356,48,42981,2,0,B|323:118|359:198|359:198|399:218,1,200,0|2,0:0|0:0,0:0:0:0:
475,251,44165,1,0,0:0:0:0:
512,324,44560,6,0,B|484:336|460:336|432:323|432:323|312:323,1,200,4|0,0:0|0:0,0:0:0:0:
233,324,45744,1,2,0:0:0:0:
151,324,46139,2,0,B|124:291|116:231|124:179|152:135,1,200,0|8,0:0|0:0,0:0:0:0:
232,135,47323,1,8,0:0:0:0:
232,216,47718,6,0,B|268:244|324:252|324:252|380:244|416:216,1,200,4|2,0:0|0:0,0:0:0:0:
416,136,48902,1,8,0:0:0:0:
416,56,49297,2,0,B|380:28|324:20|324:20|268:28|232:56,1,200,2|2,0:0|0:0,0:0:0:0:
232,136,50481,1,8,0:0:0:0:
312,136,50876,6,0,B|340:172|348:228|348:228|340:284|312:320,1,200,4|2,0:0|0:0,0:0:0:0:
232,320,52060,1,8,0:0:0:0:
152,320,52455,2,0,B|52:320,2,99.9999999999999,4|8|8,0:0|0:0|0:0,0:0:0:0:
312,320,54034,6,0,B|339:276|347:221|339:164|317:129,1,200,4|2,0:0|0:0,0:0:0:0:
268,64,55218,1,8,0:0:0:0:
218,129,55613,2,0,B|183:151|126:159|71:151|27:123,1,200,2|2,0:0|0:0,0:0:0:0:
9,202,56797,1,8,0:0:0:0:
27,281,57192,6,0,B|75:253|121:280,1,99.9999999999999,4|4,0:0|0:0,0:0:0:0:
121,361,57981,2,0,B|166:388|215:361,1,99.9999999999999,2|8,0:0|0:0,0:0:0:0:
215,281,58771,2,0,B|250:259|307:251|362:259|406:286,1,200,2|8,0:0|0:0,0:0:0:0:
478,322,59955,1,8,0:0:0:0:
474,242,60350,6,0,B|446:198|438:143|446:86|468:51,1,200,4|2,0:0|0:0,0:0:0:0:
388,31,61534,1,8,0:0:0:0:
309,51,61928,2,0,B|337:95|345:150|337:207|315:242,1,200,2|2,0:0|0:0,0:0:0:0:
267,307,63113,1,8,0:0:0:0:
221,242,63508,6,0,P|150:218|77:242,2,150,4|4|8,0:0|0:0|0:0,0:0:0:0:
267,307,65086,1,2,0:0:0:0:
323,364,65481,2,0,B|369:391|417:363,1,99.9999999999999,8|8,0:0|0:0,0:0:0:0:
417,282,66271,1,8,0:0:0:0:
417,202,66665,6,0,B|381:174|325:166|325:166|269:174|233:202,1,200,4|2,0:0|0:0,0:0:0:0:
168,249,67849,1,8,0:0:0:0:
106,299,68244,2,0,B|78:263|70:207|70:207|78:151|106:115,1,200,2|2,0:0|0:0,0:0:0:0:
154,49,69428,1,8,0:0:0:0:
235,49,69823,1,4,0:0:0:0:
235,130,70218,6,0,B|281:157|329:129,1,99.9999999999999,8|2,0:0|0:0,0:0:0:0:
329,49,71007,2,0,B|377:21|423:48,1,99.9999999999999,8|2,0:0|0:0,0:0:0:0:
423,130,71797,1,8,0:0:0:0:
423,211,72192,2,0,L|423:263,2,50,8|0|8,0:0|0:0|0:0,0:0:0:0:
350,176,72981,6,0,B|310:196|310:196|274:276|307:347,1,200,4|2,0:0|0:0,0:0:0:0:
224,357,74165,1,8,0:0:0:0:
142,347,74560,2,0,B|175:277|139:197|139:197|99:177,1,200,2|2,0:0|0:0,0:0:0:0:
21,153,75744,1,8,0:0:0:0:
21,70,76139,6,0,B|67:97|115:69,1,99.9999999999999,4|8,0:0|0:0,0:0:0:0:
197,72,76928,2,0,B|225:120|197:166,1,99.9999999999999,2|8,0:0|0:0,0:0:0:0:
116,166,77718,2,0,B|89:212|116:260,1,99.9999999999999,2|2,0:0|0:0,0:0:0:0:
150,334,78507,1,0,0:0:0:0:
230,334,78902,1,0,0:0:0:0:
310,334,79297,6,0,B|332:299|340:242|332:187|304:143,1,200,4|2,0:0|0:0,0:0:0:0:
225,143,80481,1,8,0:0:0:0:
225,223,80876,2,0,B|181:251|126:259|69:251|34:229,1,200,2|2,0:0|0:0,0:0:0:0:
33,148,82060,1,8,0:0:0:0:
33,67,82455,6,0,B|77:39|132:31|189:39|224:61,1,200,4|2,0:0|0:0,0:0:0:0:
224,142,83639,1,8,0:0:0:0:
143,142,84034,2,0,B|116:188|143:236,1,99.9999999999999,2|8,0:0|0:0,0:0:0:0:
225,236,84823,2,0,L|277:236,2,50,8|0|8,0:0|0:0|0:0,0:0:0:0:
143,236,85613,6,0,B|115:200|107:144|107:144|115:88|143:52,1,200,4|2,0:0|0:0,0:0:0:0:
224,51,86797,1,8,0:0:0:0:
224,132,87192,2,0,B|260:160|316:168|316:168|372:160|408:132,1,200,2|2,0:0|0:0,0:0:0:0:
489,126,88376,1,8,0:0:0:0:
454,199,88771,6,0,B|427:245|454:293,1,99.9999999999999,4|8,0:0|0:0,0:0:0:0:
392,344,89560,2,0,P|324:372|256:344,1,150,2|4,0:0|0:0,0:0:0:0:
256,192,90251,12,0,91928,0:0:0:0:
