osu file format v12

[General]
AudioFilename: Colorful Minutes.mp3
AudioLeadIn: 2000
PreviewTime: 54034
Countdown: 0
SampleSet: Soft
StackLeniency: 0.7
Mode: 0
LetterboxInBreaks: 0
WidescreenStoryboard: 0

[Editor]
DistanceSpacing: 1
BeatDivisor: 4
GridSize: 4

[Metadata]
Title:Colorful Minutes
TitleUnicode:カラフルミニッツ
Artist:Qrispy Joybox feat.mao
ArtistUnicode:Qrispy Joybox feat.mao
Creator:Pandiar
Version:Basic
Source:REFLEC BEAT
Tags:KONAMI jubeat plus duca delis colette bemani
BeatmapID:286728
BeatmapSetID:107420

[Difficulty]
HPDrainRate:3
CircleSize:3
OverallDifficulty:3
ApproachRate:4
SliderMultiplier:1
SliderTickRate:1

[Events]
//Background and Video events
0,0,"BG4.jpg",0,0
//Break Periods
//Storyboard Layer 0 (Background)
//Storyboard Layer 1 (Fail)
//Storyboard Layer 2 (Pass)
//Storyboard Layer 3 (Foreground)
//Storyboard Sound Samples
//Background Colour Transformations
3,100,163,162,255

[TimingPoints]
350,394.736842105263,4,2,2,50,1,0
6271,-100,4,2,2,25,0,0
6665,-100,4,2,2,55,0,0
12192,-100,4,2,2,65,0,0
12981,-100,4,2,2,80,0,1
25613,-100,4,2,2,55,0,0
53244,-100,4,2,2,70,0,0
54034,-100,4,2,2,80,0,1
66665,-100,4,2,2,70,0,1
79297,-100,4,2,2,70,0,0
91928,-100,4,2,2,15,0,0

[Colours]
Combo1 : 191,88,241
Combo2 : 196,15,79
Combo3 : 45,137,251
Combo4 : 232,79,174
Combo5 : 206,75,43
Combo6 : 51,162,142

[HitObjects]
96,52,350,2,0,P|64:120|92:188,1,150,2|2,0:0|0:0,0:0:0:0:
236,148,1534,2,0,P|268:216|240:284,1,150,2|2,0:0|0:0,0:0:0:0:
132,248,3507,6,0,P|100:180|128:100,1,150,2|2,0:0|0:0,0:0:0:0:
252,44,4692,1,2,0:0:0:0:
64,340,6073,2,0,P|136:360|212:340,1,150,2|4,0:0|0:0,0:0:0:0:
268,264,7060,5,0,0:0:0:0:
368,260,7455,1,2,0:0:0:0:
300,128,8047,2,0,B|244:100|208:148|156:84,1,150,2|0,0:0|0:0,0:0:0:0:
80,24,9034,1,2,0:0:0:0:
64,124,9428,6,0,L|68:236,1,100,0|2,0:0|0:0,0:0:0:0:
144,292,10218,2,0,L|188:196,1,100,0|2,0:0|0:0,0:0:0:0:
284,224,11007,2,0,P|332:232|396:216,2,100,0|8|0,0:0|0:0|0:0,0:0:0:0:
232,140,12192,1,8,0:0:0:0:
308,76,12586,2,0,L|368:76,1,50,8|8,0:0|0:0,0:0:0:0:
396,108,12981,6,0,L|360:216,1,100,4|8,0:0|0:0,0:0:0:0:
268,236,13771,2,0,P|256:280|276:344,1,100,2|8,0:0|0:0,0:0:0:0:
368,332,14560,2,0,P|420:336|472:328,1,100,2|8,0:0|0:0,0:0:0:0:
476,228,15349,2,0,P|428:224|364:240,1,100,2|8,0:0|0:0,0:0:0:0:
292,288,16139,6,0,L|292:176,1,100,6|8,0:0|0:0,0:0:0:0:
204,136,16928,2,0,L|204:236,1,100,2|8,0:0|0:0,0:0:0:0:
116,188,17718,2,0,L|116:68,1,100,2|8,0:0|0:0,0:0:0:0:
212,68,18507,1,2,0:0:0:0:
212,68,18902,6,0,L|288:144,1,100,8|4,0:0|0:0,0:0:0:0:
344,216,19692,1,8,0:0:0:0:
244,236,20086,2,0,P|216:284|216:344,1,100,2|8,0:0|0:0,0:0:0:0:
312,308,20876,2,0,P|340:260|340:200,1,100,2|8,0:0|0:0,0:0:0:0:
344,116,21665,2,0,L|228:116,1,100,2|8,0:0|0:0,0:0:0:0:
264,216,22455,6,0,L|376:216,2,100,4|8|0,0:0|0:0|0:0,0:0:0:0:
180,268,23639,2,0,L|180:332,1,50,10|4,0:0|0:0,0:0:0:0:
328,320,24428,2,0,P|380:328|436:320,2,100,8|10|8,0:0|0:0|0:0,0:0:0:0:
256,192,25613,12,0,27981,0:0:0:0:
152,232,28771,6,0,P|208:224|260:236,1,100,4|8,0:0|0:0,0:0:0:0:
344,272,29560,2,0,L|344:160,1,100,2|8,0:0|0:0,0:0:0:0:
332,72,30349,2,0,P|380:64|440:72,2,100,2|8|2,0:0|0:0|0:0,0:0:0:0:
252,128,31534,1,8,0:0:0:0:
164,168,31928,6,0,L|164:276,1,100,2|8,0:0|0:0,0:0:0:0:
160,368,32718,1,2,0:0:0:0:
84,304,33113,1,8,0:0:0:0:
96,204,33507,2,0,P|164:176|232:204,1,150,2|2,0:0|0:0,0:0:0:0:
288,288,34494,2,0,L|228:292,2,50,2|8|2,0:0|0:0|0:0,0:0:0:0:
340,292,35086,6,0,L|340:184,1,100,4|8,0:0|0:0,0:0:0:0:
428,148,35876,2,0,P|340:104|252:144,1,200,2|2,0:0|0:0,0:0:0:0:
253,242,37060,2,0,L|253:358,2,100,8|2|8,0:0|0:0|0:0,0:0:0:0:
112,296,38442,6,0,B|84:284|40:224|68:144,1,150,2|2,0:0|0:0,0:0:0:0:
104,72,39428,1,8,0:0:0:0:
200,52,39823,2,0,P|248:44|304:56,1,100,2|8,0:0|0:0,0:0:0:0:
344,144,40613,2,0,L|344:252,1,100,2|10,0:0|0:0,0:0:0:0:
252,276,41402,6,0,B|232:324|164:304|164:304|112:256|144:200|144:200,1,200,4|2,0:0|0:0,0:0:0:0:
144,116,42586,1,8,0:0:0:0:
244,116,42981,2,0,L|360:116,2,100,2|8|0,0:0|0:0|0:0,0:0:0:0:
44,124,44560,6,0,P|48:228|136:260,1,200,4|0,0:0|0:0,0:0:0:0:
172,172,45744,2,0,L|284:172,1,100,8|0,0:0|0:0,0:0:0:0:
292,268,46534,2,0,L|408:268,1,100,0|8,0:0|0:0,0:0:0:0:
324,104,47718,6,0,P|276:96|212:112,1,100,4|8,0:0|0:0,0:0:0:0:
156,176,48507,1,2,0:0:0:0:
232,240,48902,2,0,P|244:288|232:348,2,100,8|2|8,0:0|0:0|0:0,0:0:0:0:
156,176,50086,2,0,P|104:188|48:176,1,100,2|8,0:0|0:0,0:0:0:0:
100,88,50876,6,0,P|192:56|288:92,1,200,4|0,0:0|0:0,0:0:0:0:
240,232,52257,2,0,P|308:260|380:228,1,150,4|8,0:0|0:0,0:0:0:0:
404,136,53244,1,8,0:0:0:0:
232,32,54034,6,0,P|168:108|236:188,1,200,4|2,0:0|0:0,0:0:0:0:
316,180,55218,1,8,0:0:0:0:
404,136,55613,2,0,P|412:188|404:240,1,100,2|8,0:0|0:0,0:0:0:0:
356,320,56402,2,0,P|304:332|256:320,1,100,2|8,0:0|0:0,0:0:0:0:
200,240,57192,6,0,P|248:228|304:240,1,100,2|8,0:0|0:0,0:0:0:0:
336,144,57981,2,0,P|284:152|236:144,1,100,2|8,0:0|0:0,0:0:0:0:
188,56,58771,2,0,P|232:44|288:56,1,100,2|8,0:0|0:0,0:0:0:0:
384,92,59560,1,2,0:0:0:0:
428,184,59955,1,8,0:0:0:0:
352,252,60349,6,0,P|262:291|171:258,1,200,4|2,0:0|0:0,0:0:0:0:
116,176,61534,1,8,0:0:0:0:
56,256,61928,2,0,P|24:212|16:152,2,100,2|8|2,0:0|0:0|0:0,0:0:0:0:
152,292,63113,1,8,0:0:0:0:
244,328,63507,6,0,P|336:312|368:216,1,200,6|0,0:0|0:0,0:0:0:0:
268,236,64692,2,0,L|268:180,1,50,8|4,0:0|0:0,0:0:0:0:
124,232,65481,1,8,0:0:0:0:
176,144,65876,2,0,L|284:144,1,100,8|8,0:0|0:0,0:0:0:0:
376,144,66665,6,0,P|452:212|392:272,1,200,4|0,0:0|0:0,0:0:0:0:
264,332,68047,2,0,B|216:276|256:204|256:204|192:204,1,200,2|2,0:0|0:0,0:0:0:0:
44,180,69428,1,8,0:0:0:0:
56,80,69823,6,0,P|144:44|244:92,1,200,4|0,0:0|0:0,0:0:0:0:
356,176,71205,2,0,P|348:252|272:288,1,150,2|8,0:0|0:0,0:0:0:0:
224,216,72192,2,0,L|224:112,1,100,2|8,0:0|0:0,0:0:0:0:
168,32,72981,6,0,P|100:96|128:192,1,200,6|0,0:0|0:0,0:0:0:0:
224,216,74165,1,8,0:0:0:0:
312,260,74560,2,0,P|356:260|424:256,2,100,2|8|2,0:0|0:0|0:0,0:0:0:0:
224,216,75744,1,8,0:0:0:0:
160,136,76139,6,0,P|80:124|0:144,2,150,6|2|8,0:0|0:0|0:0,0:0:0:0:
224,216,77718,2,0,P|216:264|224:320,1,100,2|8,0:0|0:0,0:0:0:0:
312,272,78507,2,0,P|364:268|424:276,2,100,2|8|4,0:0|0:0|0:0,0:0:0:0:
256,192,79494,12,2,81665,0:0:0:0:
112,152,82455,6,0,P|188:100|264:164,1,200,4|2,0:0|0:0,0:0:0:0:
272,260,83639,1,8,0:0:0:0:
368,284,84034,2,0,P|424:192|376:112,1,200,2|0,0:0|0:0,0:0:0:0:
296,76,85218,1,8,0:0:0:0:
196,64,85613,6,0,P|116:116|132:212,1,200,4|2,0:0|0:0,0:0:0:0:
212,264,86797,1,8,0:0:0:0:
260,176,87192,2,0,P|352:136|440:196,1,200,2|2,0:0|0:0,0:0:0:0:
432,284,88376,1,8,0:0:0:0:
332,300,88771,2,0,P|276:308|220:300,1,100,4|8,0:0|0:0,0:0:0:0:
276,212,89560,6,0,P|216:168|136:184,1,150,2|4,0:0|0:0,0:0:0:0:
256,192,90349,12,0,91928,0:0:0:0:
