osu file format v12

[General]
AudioFilename: Colorful Minutes.mp3
AudioLeadIn: 2000
PreviewTime: 54034
Countdown: 0
SampleSet: Soft
StackLeniency: 0.7
Mode: 0
LetterboxInBreaks: 0
WidescreenStoryboard: 0

[Editor]
Bookmarks: 27586
DistanceSpacing: 1.3
BeatDivisor: 4
GridSize: 4

[Metadata]
Title:Colorful Minutes
TitleUnicode:カラフルミニッツ
Artist:Qrispy Joybox feat.mao
ArtistUnicode:Qrispy Joybox feat.mao
Creator:Pandiar
Version:Advanced
Source:REFLEC BEAT
Tags:KONAMI jubeat plus duca delis colette bemani
BeatmapID:285079
BeatmapSetID:107420

[Difficulty]
HPDrainRate:5
CircleSize:4
OverallDifficulty:6
ApproachRate:7
SliderMultiplier:1.4
SliderTickRate:1

[Events]
//Background and Video events
0,0,"BG4.jpg",0,0
//Break Periods
//Storyboard Layer 0 (Background)
//Storyboard Layer 1 (Fail)
//Storyboard Layer 2 (Pass)
//Storyboard Layer 3 (Foreground)
//Storyboard Sound Samples
//Background Colour Transformations
3,100,163,162,255

[TimingPoints]
350,394.736842105263,4,2,2,50,1,0
5284,-100,4,2,2,40,0,0
6271,-100,4,2,2,50,0,0
12192,-100,4,2,2,60,0,0
12981,-100,4,2,2,80,0,1
25613,-100,4,2,2,60,0,0
27192,-100,4,2,2,45,0,0
28376,-100,4,2,2,60,0,0
53244,-100,4,2,2,70,0,0
53442,-100,4,2,2,55,0,0
54034,-100,4,2,2,80,0,1
66665,-100,4,2,2,70,0,1
79297,-100,4,2,2,70,0,0
91928,-100,4,2,2,15,0,0

[Colours]
Combo1 : 191,88,241
Combo2 : 196,15,79
Combo3 : 45,137,251
Combo4 : 232,79,174
Combo5 : 206,75,43
Combo6 : 51,162,142

[HitObjects]
200,44,350,2,0,P|224:100|196:176,1,140,2|0,0:0|0:0,0:0:0:0:
128,116,942,2,0,P|104:172|132:248,1,140,2|0,0:0|0:0,0:0:0:0:
196,304,1534,2,0,P|268:316|344:300,1,140,2|0,0:0|0:0,0:0:0:0:
396,240,2126,2,0,P|324:228|252:240,1,140,2|0,0:0|0:0,0:0:0:0:
168,264,2718,1,0,0:0:0:0:
84,304,2915,2,0,P|48:320|-8:328,2,70,0|0|0,0:0|0:0|0:0,0:0:0:0:
168,264,3507,6,0,P|196:204|180:132,1,140,2|0,0:0|0:0,0:0:0:0:
128,60,4099,2,0,P|100:120|114:189,1,140,2|0,0:0|0:0,0:0:0:0:
204,208,4692,2,0,B|224:260|208:320|208:320|244:316,1,140,2|2,0:0|0:0,0:0:0:0:
324,296,5284,1,0,0:0:0:0:
304,204,5481,1,0,0:0:0:0:
232,136,5678,2,0,L|148:136,2,70,0|0|0,0:0|0:0|0:0,0:0:0:0:
332,104,6271,2,0,L|376:96,3,35,2|2|2|2,0:0|0:0|0:0|0:0,0:0:0:0:
416,116,6665,6,0,P|452:176|440:248,1,140,4|0,0:0|0:0,0:0:0:0:
296,352,7455,2,0,L|208:364,2,70,2|0|0,0:0|0:0|0:0,0:0:0:0:
380,316,8047,2,0,L|380:232,1,70,2|0,0:0|0:0,0:0:0:0:
364,156,8442,2,0,P|328:156|288:160,1,70,0|0,0:0|0:0,0:0:0:0:
216,228,8836,1,0,0:0:0:0:
216,228,9034,2,0,P|192:160|220:92,1,140,2|0,0:0|0:0,0:0:0:0:
300,64,9626,2,0,L|386:65,2,70,0|2|0,0:0|0:0|0:0,0:0:0:0:
132,68,10218,6,0,L|132:220,1,140,0|0,0:0|0:0,0:0:0:0:
160,300,10810,2,0,P|116:300|76:288,2,70,0|2|0,0:0|0:0|0:0,0:0:0:0:
256,324,11402,2,0,L|348:324,1,70,0|0,0:0|0:0,0:0:0:0:
448,272,11797,2,0,L|352:272,1,70,0|0,0:0|0:0,0:0:0:0:
300,224,12192,2,0,P|272:152|292:96,1,140,8|8,0:0|0:0,0:0:0:0:
384,100,12784,1,8,0:0:0:0:
384,100,12981,6,0,L|480:100,2,70,4|0|8,0:0|0:0|0:0,0:0:0:0:
200,112,13771,2,0,B|148:136|148:200|148:200|120:216,1,140,2|8,0:0|0:0,0:0:0:0:
44,264,14363,2,0,L|4:264,2,35,2|0|0,0:0|0:0|0:0,0:0:0:0:
120,216,14757,2,0,L|120:132,1,70,2|8,0:0|0:0,0:0:0:0:
120,312,15152,2,0,P|180:344|252:296,1,140,0|2,0:0|0:0,0:0:0:0:
292,248,15744,1,8,0:0:0:0:
312,160,15942,1,2,0:0:0:0:
392,120,16139,6,0,P|420:96|480:76,1,70,4|0,0:0|0:0,0:0:0:0:
420,212,16534,2,0,P|468:220|520:216,1,70,8|0,0:0|0:0,0:0:0:0:
376,292,16928,2,0,P|344:300|300:320,1,70,2|0,0:0|0:0,0:0:0:0:
232,344,17323,1,8,0:0:0:0:
112,316,17521,2,0,P|140:248|208:228,1,140,2|0,0:0|0:0,0:0:0:0:
292,248,18113,1,8,0:0:0:0:
384,260,18310,2,0,P|440:224|444:128,1,140,2|0,0:0|0:0,0:0:0:0:
412,76,18902,1,8,0:0:0:0:
328,44,19099,1,0,0:0:0:0:
328,44,19297,6,0,P|256:60|208:140,1,140,4|8,0:0|0:0,0:0:0:0:
188,288,20086,2,0,P|228:292|264:292,1,70,2|0,0:0|0:0,0:0:0:0:
340,260,20481,2,0,P|336:216|332:176,1,70,8|2,0:0|0:0,0:0:0:0:
320,100,20876,1,0,0:0:0:0:
232,80,21073,2,0,P|196:80|148:92,1,70,2|8,0:0|0:0,0:0:0:0:
28,184,21468,2,0,P|64:184|112:172,1,70,0|2,0:0|0:0,0:0:0:0:
152,240,21863,2,0,P|156:288|168:336,2,70,0|8|2,0:0|0:0|0:0,0:0:0:0:
148,136,22455,6,0,P|200:104|284:136,1,140,4|8,0:0|0:0,0:0:0:0:
300,212,23047,2,0,P|368:236|432:212,1,140,4|0,0:0|0:0,0:0:0:0:
488,144,23639,1,8,0:0:0:0:
364,88,23836,2,0,P|340:152|368:216,1,140,6|0,0:0|0:0,0:0:0:0:
416,312,24428,2,0,L|316:316,1,70,8|0,0:0|0:0,0:0:0:0:
212,328,24823,2,0,P|237:302|268:276,1,70,8|0,0:0|0:0,0:0:0:0:
328,216,25218,2,0,P|336:180|340:136,1,70,8|0,0:0|0:0,0:0:0:0:
328,56,25613,5,4,0:0:0:0:
328,56,25810,2,0,L|228:56,1,70,2|8,0:0|0:0,0:0:0:0:
148,120,26205,1,2,0:0:0:0:
148,120,26402,2,0,L|224:120,1,70,2|0,0:0|0:0,0:0:0:0:
336,188,26797,1,8,0:0:0:0:
336,188,26994,2,0,P|268:208|192:184,1,140,6|0,0:0|0:0,0:0:0:0:
148,120,27586,2,0,P|216:100|292:124,1,140,0|0,0:0|0:0,0:0:0:0:
216,276,28376,2,0,L|164:288,3,35,2|2|2|2,0:0|0:0|0:0|0:0,0:0:0:0:
148,272,28771,6,0,P|124:196|152:136,1,140,4|8,0:0|0:0,0:0:0:0:
215,60,29363,2,0,P|176:60|144:62,1,70,0|0,0:0|0:0,0:0:0:0:
32,80,29757,1,2,0:0:0:0:
104,172,29955,1,8,0:0:0:0:
144,62,30152,6,0,P|208:50|248:126,1,140,2|0,0:0|0:0,0:0:0:0:
232,196,30744,1,8,0:0:0:0:
168,272,30942,2,0,P|208:324|280:312,1,140,0|0,0:0|0:0,0:0:0:0:
336,260,31534,2,0,L|408:260,1,70,8|0,0:0|0:0,0:0:0:0:
504,256,31928,5,2,0:0:0:0:
468,160,32126,2,0,L|468:88,2,70,0|8|2,0:0|0:0|0:0,0:0:0:0:
428,244,32718,2,0,P|368:276|292:256,1,140,0|8,0:0|0:0,0:0:0:0:
248,188,33310,2,0,P|184:172|112:196,1,140,2|0,0:0|0:0,0:0:0:0:
44,252,33902,1,8,0:0:0:0:
60,340,34099,1,0,0:0:0:0:
148,316,34297,1,0,0:0:0:0:
200,240,34494,2,0,L|200:148,2,70,0|8|0,0:0|0:0|0:0,0:0:0:0:
248,320,35086,6,0,P|316:356|368:324,1,140,4|8,0:0|0:0,0:0:0:0:
444,280,35678,1,0,0:0:0:0:
444,280,35876,2,0,L|456:196,1,70,2|0,0:0|0:0,0:0:0:0:
392,132,36271,2,8,P|344:116|312:112,1,70,8|0,0:0|0:0,0:0:0:0:
216,144,36665,2,0,P|216:180|220:232,1,70,2|0,0:0|0:0,0:0:0:0:
320,336,37060,2,0,P|320:300|316:248,1,70,8|2,0:0|0:0,0:0:0:0:
312,152,37455,5,0,0:0:0:0:
440,152,37652,1,2,0:0:0:0:
376,240,37849,1,10,0:0:0:0:
312,152,38047,1,0,0:0:0:0:
312,152,38442,6,0,P|248:136|164:160,1,140,2|0,0:0|0:0,0:0:0:0:
76,232,39034,2,0,P|144:248|212:232,1,140,2|8,0:0|0:0,0:0:0:0:
288,184,39626,1,0,0:0:0:0:
376,168,39823,2,0,P|424:132|436:112,1,70,0|0,0:0|0:0,0:0:0:0:
348,48,40218,2,0,P|304:68|288:88,1,70,8|0,0:0|0:0,0:0:0:0:
288,184,40613,2,0,L|212:188,1,70,8|0,0:0|0:0,0:0:0:0:
132,212,41007,1,8,0:0:0:0:
132,212,41205,1,8,0:0:0:0:
108,124,41402,6,0,P|52:160|48:240,1,140,4|8,0:0|0:0,0:0:0:0:
224,196,42192,2,0,P|264:224|272:268,1,70,2|0,0:0|0:0,0:0:0:0:
152,308,42586,1,8,0:0:0:0:
224,196,42784,2,0,L|368:188,1,140,2|0,0:0|0:0,0:0:0:0:
444,144,43376,1,8,0:0:0:0:
296,312,43771,2,0,P|300:276|296:232,1,70,0|0,0:0|0:0,0:0:0:0:
224,196,44165,2,0,P|220:168|220:120,1,70,8|0,0:0|0:0,0:0:0:0:
288,64,44560,6,0,P|220:40|140:76,1,140,4|8,0:0|0:0,0:0:0:0:
88,152,45152,2,0,P|156:176|228:152,1,140,4|0,0:0|0:0,0:0:0:0:
308,176,45744,2,0,L|320:244,1,70,8|0,0:0|0:0,0:0:0:0:
400,292,46139,2,0,L|416:368,1,70,0|0,0:0|0:0,0:0:0:0:
480,256,46534,1,0,0:0:0:0:
408,208,46731,1,2,0:0:0:0:
408,208,46830,1,2,0:0:0:0:
408,208,46928,2,0,P|344:220|268:208,1,140,8|8,0:0|0:0,0:0:0:0:
200,152,47521,1,0,0:0:0:0:
200,152,47718,6,0,B|148:184|156:256|156:256|128:252,1,140,4|8,0:0|0:0,0:0:0:0:
48,224,48310,2,0,P|28:188|20:152,1,70,0|0,0:0|0:0,0:0:0:0:
80,72,48705,2,0,P|100:108|108:144,1,70,0|8,0:0|0:0,0:0:0:0:
120,216,49099,1,0,0:0:0:0:
152,288,49297,2,0,P|216:312|280:284,1,140,2|8,0:0|0:0,0:0:0:0:
368,200,49889,2,0,L|368:284,1,70
408,352,50284,2,0,P|440:328|464:300,1,70,2|8,0:0|0:0,0:0:0:0:
480,224,50678,1,0,0:0:0:0:
464,140,50876,6,0,P|400:116|308:148,1,140,4|8,0:0|0:0,0:0:0:0:
268,192,51468,1,0,0:0:0:0:
224,272,51665,2,0,P|196:284|144:292,2,70,0|0|8,0:0|0:0|0:0,0:0:0:0:
216,180,52257,2,0,P|280:192|320:256,1,140,4|0,0:0|0:0,0:0:0:0:
408,232,52849,2,8,L|404:150,1,70,8|0,0:0|0:0,0:0:0:0:
384,68,53244,1,8,0:0:0:0:
284,60,53442,2,0,L|236:60,5,35,2|2|0|2|2|2,0:0|0:0|0:0|0:0|0:0|0:0,0:0:0:0:
208,60,54034,6,0,P|168:112|192:188,1,140,4|8,0:0|0:0,0:0:0:0:
248,264,54626,2,0,P|272:236|300:200,1,70,0|2,0:0|0:0,0:0:0:0:
344,112,55021,1,0,0:0:0:0:
380,204,55218,1,8,0:0:0:0:
344,112,55415,2,0,P|280:96|204:112,1,140,2|0,0:0|0:0,0:0:0:0:
120,128,56007,2,0,P|104:164|88:192,1,70,8|0,0:0|0:0,0:0:0:0:
96,288,56402,1,0,0:0:0:0:
180,336,56599,2,0,P|220:344|272:336,2,70,2|8|2,0:0|0:0|0:0,0:0:0:0:
152,240,57192,6,0,L|152:152,1,70,4|0,0:0|0:0,0:0:0:0:
244,204,57586,2,0,L|244:124,1,70,8|0,0:0|0:0,0:0:0:0:
288,48,57981,1,2,0:0:0:0:
384,92,58178,2,0,L|444:92,2,35,0|0|8,0:0|0:0|0:0,0:0:0:0:
288,132,58573,2,0,P|264:192|288:268,1,140,2|0,0:0|0:0,0:0:0:0:
352,320,59165,1,8,0:0:0:0:
444,320,59363,2,0,P|468:260|444:184,1,140,2|0,0:0|0:0,0:0:0:0:
392,120,59955,1,8,0:0:0:0:
300,68,60152,2,0,L|292:28,2,35,2|0|4,0:0|0:0|0:0,0:0:0:0:
244,156,60547,5,0,0:0:0:0:
172,232,60744,1,8,0:0:0:0:
172,232,61139,2,0,P|200:244|228:276,1,70,2|0,0:0|0:0,0:0:0:0:
140,324,61534,1,8,0:0:0:0:
96,236,61731,2,0,P|76:164|112:108,1,140,2|0,0:0|0:0,0:0:0:0:
192,104,62323,2,0,L|284:104,1,70,8|0,0:0|0:0,0:0:0:0:
340,136,62718,2,0,P|344:92|352:40,2,70,0|0|8,0:0|0:0|0:0,0:0:0:0:
308,220,63310,1,0,0:0:0:0:
308,220,63507,6,0,L|144:220,1,140,4|8,0:0|0:0,0:0:0:0:
84,144,64099,2,0,L|248:144,1,140,2|0,0:0|0:0,0:0:0:0:
320,144,64692,1,8,0:0:0:0:
200,228,64889,1,4,0:0:0:0:
116,112,65481,6,0,P|152:104|196:116,1,70,8|0,0:0|0:0,0:0:0:0:
264,160,65876,2,0,P|304:164|332:156,1,70,8|0,0:0|0:0,0:0:0:0:
424,108,66271,1,8,0:0:0:0:
424,108,66665,6,0,P|416:200|384:232,1,140,4|8,0:0|0:0,0:0:0:0:
312,296,67257,1,0,0:0:0:0:
216,280,67455,2,0,P|180:276|136:288,1,70,2|0,0:0|0:0,0:0:0:0:
56,292,67849,1,8,0:0:0:0:
56,292,68047,2,0,P|68:216|132:200,1,140,2|0,0:0|0:0,0:0:0:0:
216,228,68639,1,8,0:0:0:0:
312,216,68836,2,0,P|372:172|348:92,1,140,2|0,0:0|0:0,0:0:0:0:
276,32,69428,2,0,L|276:112,1,70,8|0,0:0|0:0,0:0:0:0:
232,176,69823,5,4,0:0:0:0:
148,176,70021,1,0,0:0:0:0:
104,248,70218,1,8,0:0:0:0:
156,316,70415,1,0,0:0:0:0:
240,324,70613,6,0,P|284:328|332:320,2,70,2|0|8,0:0|0:0|0:0,0:0:0:0:
156,316,71205,2,0,P|88:272|80:204,1,140,2|0,0:0|0:0,0:0:0:0:
76,136,71797,1,8,0:0:0:0:
76,136,71994,2,0,P|116:120|152:80,1,70,0|2,0:0|0:0,0:0:0:0:
216,20,72389,1,0,0:0:0:0:
264,132,72586,2,0,L|264:176,3,35,2|2|2|2,0:0|0:0|0:0|0:0,0:0:0:0:
220,188,72981,6,0,P|164:216|180:300,1,140,4|8,0:0|0:0,0:0:0:0:
232,344,73573,2,0,P|264:340|324:344,1,70,0|2,0:0|0:0,0:0:0:0:
392,340,73968,2,0,P|408:304|416:256,1,70,0|8,0:0|0:0,0:0:0:0:
488,208,74363,2,0,P|428:176|360:196,1,140,2|0,0:0|0:0,0:0:0:0:
304,276,74955,1,8,0:0:0:0:
216,232,75152,2,0,P|212:188|216:148,1,70
284,96,75547,2,0,P|232:56|160:64,1,140,2|0,0:0|0:0,0:0:0:0:
68,96,76139,6,0,L|76:172,1,70,4|0,0:0|0:0,0:0:0:0:
88,264,76534,1,8,0:0:0:0:
156,336,76731,2,0,P|220:360|288:320,1,140,2|0,0:0|0:0,0:0:0:0:
280,232,77323,1,8,0:0:0:0:
396,252,77521,2,0,P|432:256|488:252,2,70,4|0|0,0:0|0:0|0:0,0:0:0:0:
280,232,78113,2,0,P|256:196|252:164,1,70,8|0,0:0|0:0,0:0:0:0:
344,144,78507,2,0,L|428:144,1,70,0|0,0:0|0:0,0:0:0:0:
356,56,78902,2,0,L|260:56,1,70,8|0,0:0|0:0,0:0:0:0:
168,56,79297,6,0,L|88:60,2,70,4|0|8,0:0|0:0|0:0,0:0:0:0:
248,100,79889,2,0,L|240:172,1,70,2|0,0:0|0:0,0:0:0:0:
300,240,80284,1,0,0:0:0:0:
372,296,80481,2,0,L|441:286,2,70,8|2|0,0:0|0:0|0:0,0:0:0:0:
196,336,81073,1,0,0:0:0:0:
196,336,81271,2,0,L|168:244,1,70,8|0,0:0|0:0,0:0:0:0:
120,188,81665,2,0,L|152:120,1,70,2|0,0:0|0:0,0:0:0:0:
204,44,82060,2,0,P|216:68|240:108,1,70,8|2,0:0|0:0,0:0:0:0:
280,196,82455,6,0,L|380:188,2,70,4|0|8,0:0|0:0|0:0,0:0:0:0:
108,256,83047,2,0,L|120:180,1,70,2|0,0:0|0:0,0:0:0:0:
184,112,83442,1,0,0:0:0:0:
220,256,83639,1,8,0:0:0:0:
220,256,83836,2,0,P|292:276|356:248,1,140,2|0,0:0|0:0,0:0:0:0:
288,128,84428,2,0,L|280:208,1,70,8|0,0:0|0:0,0:0:0:0:
236,332,84823,2,0,L|148:332,1,70,2|0,0:0|0:0,0:0:0:0:
116,188,85218,2,0,L|204:188,1,70,8|2,0:0|0:0,0:0:0:0:
356,268,85613,6,0,L|356:96,1,140,4|8,0:0|0:0,0:0:0:0:
280,60,86205,1,2,0:0:0:0:
184,88,86402,2,0,P|144:100|104:116,2,70,0|0|8,0:0|0:0|0:0,0:0:0:0:
280,60,86994,2,0,P|308:124|284:192,1,140,2|0,0:0|0:0,0:0:0:0:
228,272,87586,1,8,0:0:0:0:
140,300,87784,1,0,0:0:0:0:
56,264,87981,2,0,L|44:188,1,70,2|0,0:0|0:0,0:0:0:0:
48,104,88376,1,8,0:0:0:0:
132,156,88573,1,0,0:0:0:0:
132,156,88771,6,0,P|196:180|260:152,1,140,4|8,0:0|0:0,0:0:0:0:
308,76,89363,1,0,0:0:0:0:
372,140,89560,2,0,L|456:140,2,70,2|0|8,0:0|0:0|0:0,0:0:0:0:
288,172,90152,1,4,0:0:0:0:
256,192,90349,12,0,91928,0:0:0:0:
