osu file format v12

[General]
AudioFilename: Qrispy Joybox feat Sana - Twinkle Wonderland.mp3
AudioLeadIn: 2000
PreviewTime: 72445
Countdown: 0
SampleSet: None
StackLeniency: 0.7
Mode: 1
LetterboxInBreaks: 0
WidescreenStoryboard: 1

[Editor]
Bookmarks: 62232
DistanceSpacing: 1.5
BeatDivisor: 4
GridSize: 32

[Metadata]
Title:Twinkle Wonderland
TitleUnicode:Twinkle Wonderland
Artist:Qrispy Joybox feat.Sana
ArtistUnicode:Qrispy Joybox feat.Sana
Creator:KinomiCandy
Version:Oni
Source:REFLEC BEAT limelight
Tags:pop'n music konami bemani Nyquill alacat
BeatmapID:332032
BeatmapSetID:131910

[Difficulty]
HPDrainRate:5
CircleSize:4
OverallDifficulty:5
ApproachRate:5
SliderMultiplier:1.4
SliderTickRate:1

[Events]
//Background and Video events
0,0,"bg.jpg",0,0
//Break Periods
//Storyboard Layer 0 (Background)
//Storyboard Layer 1 (Fail)
//Storyboard Layer 2 (Pass)
//Storyboard Layer 3 (Foreground)
//Storyboard Sound Samples
//Background Colour Transformations
3,100,163,162,255

[TimingPoints]
956,319.148936170213,4,1,0,70,1,0
72445,-100,4,1,0,70,0,1
91594,-100,4,1,0,70,0,0

[Colours]
Combo1 : 185,185,185
Combo2 : 1,148,197
Combo3 : 138,68,168
Combo4 : 114,125,235
Combo5 : 213,0,213

[HitObjects]
256,192,956,1,0,0:0:0:0:
256,192,1115,1,8,0:0:0:0:
256,192,1275,1,8,0:0:0:0:
256,192,1434,1,8,0:0:0:0:
256,192,1753,1,8,0:0:0:0:
256,192,1913,1,0,0:0:0:0:
256,192,2073,1,0,0:0:0:0:
256,192,2392,1,8,0:0:0:0:
256,192,2471,1,8,0:0:0:0:
256,192,2551,1,8,0:0:0:0:
256,192,2631,1,8,0:0:0:0:
256,192,2711,1,8,0:0:0:0:
256,192,2791,1,8,0:0:0:0:
256,192,2870,1,0,0:0:0:0:
256,192,3030,1,0,0:0:0:0:
256,192,3190,1,8,0:0:0:0:
256,192,3349,1,8,0:0:0:0:
256,192,3509,1,0,0:0:0:0:
256,192,3668,1,8,0:0:0:0:
256,192,3828,1,8,0:0:0:0:
256,192,3987,1,8,0:0:0:0:
256,192,4307,1,8,0:0:0:0:
256,192,4626,1,4,0:0:0:0:
256,192,4945,1,8,0:0:0:0:
256,192,5025,1,8,0:0:0:0:
256,192,5104,1,8,0:0:0:0:
256,192,5184,1,8,0:0:0:0:
256,192,5264,1,8,0:0:0:0:
256,192,5344,1,8,0:0:0:0:
256,192,5424,1,8,0:0:0:0:
256,192,5503,1,8,0:0:0:0:
256,192,5583,1,8,0:0:0:0:
256,192,5663,1,8,0:0:0:0:
256,192,5743,1,8,0:0:0:0:
256,192,5823,1,8,0:0:0:0:
256,192,5902,1,8,0:0:0:0:
256,192,5982,1,8,0:0:0:0:
256,192,6062,1,0,0:0:0:0:
256,192,6221,1,8,0:0:0:0:
256,192,6381,1,8,0:0:0:0:
256,192,6540,1,8,0:0:0:0:
256,192,6859,1,8,0:0:0:0:
256,192,7019,1,0,0:0:0:0:
256,192,7179,1,0,0:0:0:0:
256,192,7498,1,8,0:0:0:0:
256,192,7577,1,8,0:0:0:0:
256,192,7657,1,8,0:0:0:0:
256,192,7737,1,8,0:0:0:0:
256,192,7817,1,8,0:0:0:0:
256,192,7897,1,8,0:0:0:0:
256,192,7976,1,0,0:0:0:0:
256,192,8136,1,0,0:0:0:0:
256,192,8296,1,8,0:0:0:0:
256,192,8455,1,8,0:0:0:0:
256,192,8615,1,0,0:0:0:0:
256,192,9253,1,8,0:0:0:0:
256,192,10051,1,0,0:0:0:0:
256,192,10370,1,8,0:0:0:0:
256,192,10690,1,12,0:0:0:0:
256,192,11168,1,4,0:0:0:0:
256,192,11328,1,0,0:0:0:0:
256,192,11487,1,8,0:0:0:0:
256,192,11647,1,0,0:0:0:0:
256,192,11727,1,0,0:0:0:0:
256,192,11807,1,0,0:0:0:0:
256,192,11966,1,0,0:0:0:0:
256,192,12126,1,8,0:0:0:0:
256,192,12285,1,0,0:0:0:0:
256,192,12445,1,0,0:0:0:0:
256,192,12525,1,0,0:0:0:0:
256,192,12604,1,0,0:0:0:0:
256,192,12684,1,0,0:0:0:0:
256,192,12764,1,8,0:0:0:0:
256,192,12924,1,0,0:0:0:0:
256,192,13083,1,0,0:0:0:0:
256,192,13163,1,0,0:0:0:0:
256,192,13243,1,8,0:0:0:0:
256,192,13562,1,0,0:0:0:0:
256,192,13721,1,8,0:0:0:0:
256,192,13881,1,0,0:0:0:0:
256,192,14041,1,0,0:0:0:0:
256,192,14200,1,0,0:0:0:0:
256,192,14280,1,0,0:0:0:0:
256,192,14360,1,8,0:0:0:0:
256,192,14519,1,0,0:0:0:0:
256,192,14679,1,0,0:0:0:0:
256,192,14838,1,0,0:0:0:0:
256,192,15158,1,8,0:0:0:0:
256,192,15317,1,8,0:0:0:0:
256,192,15397,1,8,0:0:0:0:
256,192,15477,1,8,0:0:0:0:
256,192,15557,1,8,0:0:0:0:
256,192,15636,1,0,0:0:0:0:
256,192,15716,1,0,0:0:0:0:
256,192,15796,1,8,0:0:0:0:
256,192,15956,1,0,0:0:0:0:
256,192,16035,1,8,0:0:0:0:
256,192,16115,1,0,0:0:0:0:
256,192,16275,1,8,0:0:0:0:
256,192,16434,1,0,0:0:0:0:
256,192,16594,1,0,0:0:0:0:
256,192,16913,1,8,0:0:0:0:
256,192,17073,1,0,0:0:0:0:
256,192,17152,1,0,0:0:0:0:
256,192,17232,1,0,0:0:0:0:
256,192,17392,1,8,0:0:0:0:
256,192,17551,1,0,0:0:0:0:
256,192,17631,1,0,0:0:0:0:
256,192,17711,1,0,0:0:0:0:
256,192,17791,1,0,0:0:0:0:
256,192,17870,1,0,0:0:0:0:
256,192,18030,1,8,0:0:0:0:
256,192,18349,1,8,0:0:0:0:
256,192,18429,1,8,0:0:0:0:
256,192,18509,1,0,0:0:0:0:
256,192,18668,1,8,0:0:0:0:
256,192,18828,1,4,0:0:0:0:
256,192,18987,1,8,0:0:0:0:
256,192,19147,1,8,0:0:0:0:
256,192,19307,1,4,0:0:0:0:
256,192,19466,1,8,0:0:0:0:
256,192,19626,1,8,0:0:0:0:
256,192,19785,1,8,0:0:0:0:
256,192,19945,1,4,0:0:0:0:
256,192,20104,12,0,21221,0:0:0:0:
256,192,21381,5,0,0:0:0:0:
256,192,21541,1,0,0:0:0:0:
256,192,21700,1,8,0:0:0:0:
256,192,21860,1,0,0:0:0:0:
256,192,22019,1,8,0:0:0:0:
256,192,22179,1,0,0:0:0:0:
256,192,22338,1,8,0:0:0:0:
256,192,22498,1,0,0:0:0:0:
256,192,22817,1,0,0:0:0:0:
256,192,22977,1,8,0:0:0:0:
256,192,23136,1,0,0:0:0:0:
256,192,23296,1,0,0:0:0:0:
256,192,23376,1,0,0:0:0:0:
256,192,23456,1,8,0:0:0:0:
256,192,23615,1,8,0:0:0:0:
256,192,23775,1,0,0:0:0:0:
256,192,23934,5,0,0:0:0:0:
256,192,24094,1,0,0:0:0:0:
256,192,24253,1,8,0:0:0:0:
256,192,24413,1,8,0:0:0:0:
256,192,24572,1,0,0:0:0:0:
256,192,24732,1,0,0:0:0:0:
256,192,24891,1,8,0:0:0:0:
256,192,25051,1,0,0:0:0:0:
256,192,25370,1,0,0:0:0:0:
256,192,25530,1,8,0:0:0:0:
256,192,25690,1,0,0:0:0:0:
256,192,25769,1,0,0:0:0:0:
256,192,25849,1,0,0:0:0:0:
256,192,26009,1,8,0:0:0:0:
256,192,26328,1,0,0:0:0:0:
256,192,26487,1,0,0:0:0:0:
256,192,26647,1,0,0:0:0:0:
256,192,26806,1,8,0:0:0:0:
256,192,26966,1,0,0:0:0:0:
256,192,27125,1,8,0:0:0:0:
256,192,27285,1,0,0:0:0:0:
256,192,27444,1,8,0:0:0:0:
256,192,27604,1,0,0:0:0:0:
256,192,27923,1,0,0:0:0:0:
256,192,28083,1,8,0:0:0:0:
256,192,28242,1,0,0:0:0:0:
256,192,28402,1,0,0:0:0:0:
256,192,28482,1,0,0:0:0:0:
256,192,28562,1,8,0:0:0:0:
256,192,28721,1,8,0:0:0:0:
256,192,28881,1,0,0:0:0:0:
256,192,29040,5,0,0:0:0:0:
256,192,29200,1,0,0:0:0:0:
256,192,29359,1,8,0:0:0:0:
256,192,29519,1,8,0:0:0:0:
256,192,29678,1,0,0:0:0:0:
256,192,29838,1,0,0:0:0:0:
256,192,29997,1,8,0:0:0:0:
256,192,30157,1,0,0:0:0:0:
256,192,30477,1,0,0:0:0:0:
256,192,30796,1,0,0:0:0:0:
256,192,31115,1,8,0:0:0:0:
256,192,31434,1,8,0:0:0:0:
256,192,31594,1,4,0:0:0:0:
256,192,31913,1,8,0:0:0:0:
256,192,32232,1,0,0:0:0:0:
256,192,32392,1,0,0:0:0:0:
256,192,32551,1,8,0:0:0:0:
256,192,32711,1,0,0:0:0:0:
256,192,33030,1,0,0:0:0:0:
256,192,33190,1,8,0:0:0:0:
256,192,33349,1,8,0:0:0:0:
256,192,33429,1,8,0:0:0:0:
256,192,33509,1,8,0:0:0:0:
256,192,33668,1,8,0:0:0:0:
256,192,33828,1,8,0:0:0:0:
256,192,33908,1,8,0:0:0:0:
256,192,33987,1,8,0:0:0:0:
256,192,34067,1,8,0:0:0:0:
256,192,34147,1,0,0:0:0:0:
256,192,34307,1,0,0:0:0:0:
256,192,34466,1,8,0:0:0:0:
256,192,34626,1,0,0:0:0:0:
256,192,34785,1,0,0:0:0:0:
256,192,35104,1,8,0:0:0:0:
256,192,35264,1,0,0:0:0:0:
256,192,35583,1,0,0:0:0:0:
256,192,35743,1,8,0:0:0:0:
256,192,35902,1,8,0:0:0:0:
256,192,36221,1,8,0:0:0:0:
256,192,36541,1,8,0:0:0:0:
256,192,36700,1,4,0:0:0:0:
256,192,36860,1,0,0:0:0:0:
256,192,37019,1,8,0:0:0:0:
256,192,37179,1,0,0:0:0:0:
256,192,37338,1,0,0:0:0:0:
256,192,37658,1,8,0:0:0:0:
256,192,37817,1,0,0:0:0:0:
256,192,38136,1,0,0:0:0:0:
256,192,38296,1,8,0:0:0:0:
256,192,38456,1,0,0:0:0:0:
256,192,38615,1,8,0:0:0:0:
256,192,38695,1,8,0:0:0:0:
256,192,38775,1,8,0:0:0:0:
256,192,38854,1,8,0:0:0:0:
256,192,38934,1,0,0:0:0:0:
256,192,39014,1,0,0:0:0:0:
256,192,39094,1,0,0:0:0:0:
256,192,39174,1,0,0:0:0:0:
256,192,39253,1,8,0:0:0:0:
256,192,39413,1,0,0:0:0:0:
256,192,39732,1,0,0:0:0:0:
256,192,39892,1,8,0:0:0:0:
256,192,40211,1,4,0:0:0:0:
256,192,40690,1,4,0:0:0:0:
256,192,41168,1,12,0:0:0:0:
256,192,41807,1,4,0:0:0:0:
256,192,42126,1,8,0:0:0:0:
256,192,42445,1,0,0:0:0:0:
256,192,42604,1,0,0:0:0:0:
256,192,42764,1,8,0:0:0:0:
256,192,42924,1,0,0:0:0:0:
256,192,43243,1,0,0:0:0:0:
256,192,43402,1,8,0:0:0:0:
256,192,43721,1,0,0:0:0:0:
256,192,43881,1,8,0:0:0:0:
256,192,43961,1,8,0:0:0:0:
256,192,44041,1,0,0:0:0:0:
256,192,44200,1,8,0:0:0:0:
256,192,44360,1,0,0:0:0:0:
256,192,44679,1,8,0:0:0:0:
256,192,44998,1,0,0:0:0:0:
256,192,45158,1,0,0:0:0:0:
256,192,45317,1,8,0:0:0:0:
256,192,45477,1,8,0:0:0:0:
256,192,45636,1,0,0:0:0:0:
256,192,45796,1,8,0:0:0:0:
256,192,45876,1,8,0:0:0:0:
256,192,45956,1,8,0:0:0:0:
256,192,46115,1,0,0:0:0:0:
256,192,46275,1,0,0:0:0:0:
256,192,46434,1,8,0:0:0:0:
256,192,46913,1,12,0:0:0:0:
256,192,47232,1,8,0:0:0:0:
256,192,47551,1,0,0:0:0:0:
256,192,47711,1,0,0:0:0:0:
256,192,47870,1,8,0:0:0:0:
256,192,48030,1,0,0:0:0:0:
256,192,48349,1,0,0:0:0:0:
256,192,48509,1,8,0:0:0:0:
256,192,48828,1,0,0:0:0:0:
256,192,48987,1,0,0:0:0:0:
256,192,49147,1,8,0:0:0:0:
256,192,49307,1,8,0:0:0:0:
256,192,49466,1,0,0:0:0:0:
256,192,49785,1,8,0:0:0:0:
256,192,50104,1,0,0:0:0:0:
256,192,50264,1,8,0:0:0:0:
256,192,50344,1,8,0:0:0:0:
256,192,50424,1,0,0:0:0:0:
256,192,50583,1,4,0:0:0:0:
256,192,50902,1,4,0:0:0:0:
256,192,51541,1,8,0:0:0:0:
256,192,51620,1,8,0:0:0:0:
256,192,51700,1,8,0:0:0:0:
256,192,51780,1,8,0:0:0:0:
256,192,51860,1,8,0:0:0:0:
256,192,51940,1,8,0:0:0:0:
256,192,52019,1,0,0:0:0:0:
256,192,52179,1,0,0:0:0:0:
256,192,52338,1,8,0:0:0:0:
256,192,52498,1,0,0:0:0:0:
256,192,52658,1,0,0:0:0:0:
256,192,52977,1,8,0:0:0:0:
256,192,53136,1,0,0:0:0:0:
256,192,53456,1,0,0:0:0:0:
256,192,53615,1,8,0:0:0:0:
256,192,53934,1,8,0:0:0:0:
256,192,54094,1,0,0:0:0:0:
256,192,54174,1,0,0:0:0:0:
256,192,54253,1,8,0:0:0:0:
256,192,54413,1,0,0:0:0:0:
256,192,54573,1,12,0:0:0:0:
256,192,54732,1,0,0:0:0:0:
256,192,54892,1,8,0:0:0:0:
256,192,55051,1,8,0:0:0:0:
256,192,55211,1,0,0:0:0:0:
256,192,55530,1,8,0:0:0:0:
256,192,55690,1,0,0:0:0:0:
256,192,55849,1,0,0:0:0:0:
256,192,56009,1,8,0:0:0:0:
256,192,56168,1,8,0:0:0:0:
256,192,56328,1,0,0:0:0:0:
256,192,56487,1,0,0:0:0:0:
256,192,56567,1,0,0:0:0:0:
256,192,56647,1,8,0:0:0:0:
256,192,56966,1,8,0:0:0:0:
256,192,57126,1,4,0:0:0:0:
256,192,57285,1,0,0:0:0:0:
256,192,57604,1,8,0:0:0:0:
256,192,57764,1,0,0:0:0:0:
256,192,58083,1,0,0:0:0:0:
256,192,58243,1,8,0:0:0:0:
256,192,58562,1,0,0:0:0:0:
256,192,58721,1,8,0:0:0:0:
256,192,58881,1,0,0:0:0:0:
256,192,59041,1,8,0:0:0:0:
256,192,59120,1,8,0:0:0:0:
256,192,59200,1,0,0:0:0:0:
256,192,59280,1,0,0:0:0:0:
256,192,59360,1,0,0:0:0:0:
256,192,59519,1,0,0:0:0:0:
256,192,59679,1,8,0:0:0:0:
256,192,59838,1,0,0:0:0:0:
256,192,60158,1,8,0:0:0:0:
256,192,60317,1,0,0:0:0:0:
256,192,60636,1,4,0:0:0:0:
256,192,60956,1,8,0:0:0:0:
256,192,61115,1,4,0:0:0:0:
256,192,61275,12,0,62073,0:0:0:0:
256,192,62232,5,8,0:0:0:0:
256,192,63190,1,8,0:0:0:0:
256,192,63349,1,12,0:0:0:0:
256,192,64147,1,8,0:0:0:0:
256,192,64785,1,8,0:0:0:0:
256,192,65104,1,8,0:0:0:0:
256,192,65424,1,8,0:0:0:0:
256,192,65743,1,8,0:0:0:0:
256,192,65902,1,8,0:0:0:0:
256,192,66062,1,8,0:0:0:0:
256,192,66142,1,8,0:0:0:0:
256,192,66221,1,8,0:0:0:0:
256,192,66301,1,8,0:0:0:0:
256,192,66381,1,8,0:0:0:0:
256,192,66461,1,8,0:0:0:0:
256,192,66541,1,8,0:0:0:0:
256,192,66620,1,8,0:0:0:0:
256,192,66700,1,8,0:0:0:0:
256,192,66780,1,8,0:0:0:0:
256,192,66860,1,8,0:0:0:0:
256,192,66940,1,8,0:0:0:0:
256,192,67019,1,8,0:0:0:0:
256,192,67099,1,8,0:0:0:0:
256,192,67179,1,8,0:0:0:0:
256,192,67259,1,8,0:0:0:0:
256,192,67338,1,8,0:0:0:0:
256,192,68296,1,8,0:0:0:0:
256,192,68456,1,8,0:0:0:0:
256,192,68934,1,8,0:0:0:0:
256,192,69253,1,8,0:0:0:0:
256,192,69573,1,8,0:0:0:0:
256,192,69892,1,0,0:0:0:0:
256,192,70530,1,8,0:0:0:0:
256,192,71328,1,0,0:0:0:0:
256,192,71647,1,8,0:0:0:0:
256,192,71967,1,12,0:0:0:0:
256,192,72445,1,4,0:0:0:0:
256,192,72605,1,0,0:0:0:0:
256,192,72764,1,8,0:0:0:0:
256,192,72924,1,0,0:0:0:0:
256,192,73004,1,0,0:0:0:0:
256,192,73084,1,0,0:0:0:0:
256,192,73243,1,0,0:0:0:0:
256,192,73403,1,8,0:0:0:0:
256,192,73562,1,0,0:0:0:0:
256,192,73722,1,0,0:0:0:0:
256,192,73802,1,0,0:0:0:0:
256,192,73881,1,0,0:0:0:0:
256,192,73961,1,0,0:0:0:0:
256,192,74041,1,8,0:0:0:0:
256,192,74201,1,0,0:0:0:0:
256,192,74360,1,0,0:0:0:0:
256,192,74440,1,0,0:0:0:0:
256,192,74520,1,8,0:0:0:0:
256,192,74839,1,0,0:0:0:0:
256,192,74998,1,8,0:0:0:0:
256,192,75158,1,0,0:0:0:0:
256,192,75318,1,0,0:0:0:0:
256,192,75477,1,0,0:0:0:0:
256,192,75557,1,0,0:0:0:0:
256,192,75637,1,8,0:0:0:0:
256,192,75796,1,0,0:0:0:0:
256,192,75956,1,0,0:0:0:0:
256,192,76115,1,0,0:0:0:0:
256,192,76435,1,8,0:0:0:0:
256,192,76594,1,8,0:0:0:0:
256,192,76674,1,8,0:0:0:0:
256,192,76754,1,8,0:0:0:0:
256,192,76834,1,8,0:0:0:0:
256,192,76913,1,0,0:0:0:0:
256,192,76993,1,0,0:0:0:0:
256,192,77073,1,8,0:0:0:0:
256,192,77233,1,0,0:0:0:0:
256,192,77312,1,8,0:0:0:0:
256,192,77392,1,0,0:0:0:0:
256,192,77552,1,8,0:0:0:0:
256,192,77711,1,0,0:0:0:0:
256,192,77871,1,0,0:0:0:0:
256,192,78190,1,8,0:0:0:0:
256,192,78350,1,0,0:0:0:0:
256,192,78429,1,0,0:0:0:0:
256,192,78509,1,0,0:0:0:0:
256,192,78669,1,8,0:0:0:0:
256,192,78828,1,0,0:0:0:0:
256,192,78908,1,0,0:0:0:0:
256,192,78988,1,0,0:0:0:0:
256,192,79068,1,0,0:0:0:0:
256,192,79147,1,0,0:0:0:0:
256,192,79307,1,8,0:0:0:0:
256,192,79626,1,8,0:0:0:0:
256,192,79706,1,8,0:0:0:0:
256,192,79786,1,0,0:0:0:0:
256,192,79945,1,8,0:0:0:0:
256,192,80105,1,4,0:0:0:0:
256,192,80264,1,8,0:0:0:0:
256,192,80424,1,8,0:0:0:0:
256,192,80584,1,4,0:0:0:0:
256,192,80743,1,8,0:0:0:0:
256,192,80903,1,8,0:0:0:0:
256,192,81062,1,8,0:0:0:0:
256,192,81222,1,4,0:0:0:0:
256,192,81541,1,8,0:0:0:0:
256,192,81700,1,8,0:0:0:0:
256,192,81780,1,8,0:0:0:0:
256,192,81860,1,8,0:0:0:0:
256,192,81940,1,8,0:0:0:0:
256,192,82019,1,0,0:0:0:0:
256,192,82099,1,0,0:0:0:0:
256,192,82179,1,0,0:0:0:0:
256,192,82259,1,0,0:0:0:0:
256,192,82338,1,8,0:0:0:0:
256,192,82418,1,8,0:0:0:0:
256,192,82498,1,8,0:0:0:0:
256,192,82578,1,8,0:0:0:0:
256,192,82658,1,0,0:0:0:0:
256,192,82817,1,0,0:0:0:0:
256,192,82977,1,8,0:0:0:0:
256,192,83136,1,0,0:0:0:0:
256,192,83216,1,8,0:0:0:0:
256,192,83296,1,0,0:0:0:0:
256,192,83456,1,0,0:0:0:0:
256,192,83615,1,8,0:0:0:0:
256,192,83775,1,0,0:0:0:0:
256,192,84094,1,0,0:0:0:0:
256,192,84253,1,8,0:0:0:0:
256,192,84413,1,0,0:0:0:0:
256,192,84573,1,0,0:0:0:0:
256,192,84652,1,0,0:0:0:0:
256,192,84732,1,0,0:0:0:0:
256,192,84812,1,0,0:0:0:0:
256,192,84892,1,8,0:0:0:0:
256,192,85051,1,8,0:0:0:0:
256,192,85211,1,0,0:0:0:0:
256,192,85370,1,8,0:0:0:0:
256,192,85450,1,8,0:0:0:0:
256,192,85530,1,0,0:0:0:0:
256,192,85690,1,8,0:0:0:0:
256,192,85849,1,0,0:0:0:0:
256,192,85929,1,0,0:0:0:0:
256,192,86088,1,8,0:0:0:0:
256,192,86168,1,0,0:0:0:0:
256,192,86328,1,8,0:0:0:0:
256,192,86487,1,0,0:0:0:0:
256,192,86647,1,8,0:0:0:0:
256,192,86727,1,8,0:0:0:0:
256,192,86807,1,0,0:0:0:0:
256,192,86886,1,0,0:0:0:0:
256,192,86966,1,8,0:0:0:0:
256,192,87126,1,0,0:0:0:0:
256,192,87285,1,8,0:0:0:0:
256,192,87604,1,8,0:0:0:0:
256,192,87764,1,4,0:0:0:0:
256,192,88083,1,8,0:0:0:0:
256,192,88402,1,0,0:0:0:0:
256,192,88562,1,8,0:0:0:0:
256,192,88642,1,8,0:0:0:0:
256,192,88721,1,0,0:0:0:0:
256,192,88881,1,8,0:0:0:0:
256,192,89200,1,0,0:0:0:0:
256,192,89360,1,8,0:0:0:0:
256,192,89519,1,0,0:0:0:0:
256,192,89679,1,0,0:0:0:0:
256,192,89759,1,0,0:0:0:0:
256,192,89838,1,8,0:0:0:0:
256,192,89918,1,8,0:0:0:0:
256,192,89998,1,0,0:0:0:0:
256,192,90158,1,8,0:0:0:0:
256,192,90317,1,0,0:0:0:0:
256,192,90636,1,8,0:0:0:0:
256,192,90796,1,0,0:0:0:0:
256,192,91434,1,4,0:0:0:0:
256,192,91913,1,8,0:0:0:0:
256,192,91993,1,8,0:0:0:0:
256,192,92073,1,8,0:0:0:0:
256,192,92152,1,8,0:0:0:0:
256,192,92232,1,8,0:0:0:0:
256,192,92312,1,8,0:0:0:0:
256,192,92392,1,8,0:0:0:0:
256,192,92471,1,8,0:0:0:0:
256,192,92551,1,8,0:0:0:0:
256,192,92631,1,8,0:0:0:0:
256,192,92711,1,8,0:0:0:0:
256,192,92791,1,8,0:0:0:0:
256,192,92870,1,0,0:0:0:0:
256,192,93030,12,0,99253,0:0:0:0:
