osu file format v14

[General]
AudioFilename: zzz.mp3
AudioLeadIn: 0
PreviewTime: 72402
Countdown: 0
SampleSet: Soft
StackLeniency: 0.7
Mode: 3
LetterboxInBreaks: 0
SpecialStyle: 0
WidescreenStoryboard: 0

[Editor]
DistanceSpacing: 1.8
BeatDivisor: 4
GridSize: 4
TimelineZoom: 1.9

[Metadata]
Title:Twinkle Wonderland
TitleUnicode:Twinkle Wonderland
Artist:Qrispy Joybox feat.Sana
ArtistUnicode:Qrispy Joybox feat.Sana
Creator:AchsanLovers
Version:Wonderful
Source:REFLEC BEAT limelight
Tags:jubeat saucer pop'n music 20 fantasia KONAMI MUSIC PACK 09 TWINKLE POP トゥインクルポップ The 4th KAC DJ TOTTO's SELECTION BeatStream アニムトライヴ jubeat plus Android saucer pack 05 jukebeat 29 16 ノスタルジア ポップンリズミン パック2
BeatmapID:1244809
BeatmapSetID:587904

[Difficulty]
HPDrainRate:8
CircleSize:4
OverallDifficulty:8
ApproachRate:5
SliderMultiplier:1.4
SliderTickRate:1

[Events]
//Background and Video events
0,0,"cropped-1366-768-647733.jpg",0,0
//Break Periods
//Storyboard Layer 0 (Background)
//Storyboard Layer 1 (Fail)
//Storyboard Layer 2 (Pass)
//Storyboard Layer 3 (Foreground)
//Storyboard Sound Samples

[TimingPoints]
953,319.148936170213,4,2,1,40,1,0
11165,-100,4,2,1,40,0,1
21378,-100,4,2,1,40,0,0
72442,-100,4,2,1,40,0,1
82176,-100,4,2,1,40,0,0
82655,-100,4,2,1,40,0,1
92867,-100,4,2,1,40,0,0

[HitObjects]
192,192,953,5,0,0:0:0:0:
64,192,953,1,0,0:0:0:0:
448,192,1112,1,0,0:0:0:0:
320,192,1272,1,0,0:0:0:0:
192,192,1431,1,0,0:0:0:0:
320,192,1750,1,0,0:0:0:0:
192,192,1910,1,0,0:0:0:0:
64,192,2070,1,0,0:0:0:0:
448,192,2070,1,0,0:0:0:0:
320,192,2389,1,0,0:0:0:0:
192,192,2468,1,0,0:0:0:0:
320,192,2548,1,0,0:0:0:0:
192,192,2628,1,0,0:0:0:0:
320,192,2708,1,0,0:0:0:0:
448,192,2867,1,0,0:0:0:0:
320,192,3027,1,0,0:0:0:0:
192,192,3187,1,0,0:0:0:0:
64,192,3346,1,0,0:0:0:0:
320,192,3506,1,0,0:0:0:0:
448,192,3506,1,0,0:0:0:0:
64,192,3665,1,0,0:0:0:0:
192,192,3825,1,0,0:0:0:0:
320,192,3984,1,0,0:0:0:0:
192,192,4304,1,0,0:0:0:0:
64,192,4623,1,0,0:0:0:0:
448,192,4623,1,0,0:0:0:0:
192,192,4942,1,0,0:0:0:0:
320,192,5022,1,0,0:0:0:0:
64,192,5101,1,0,0:0:0:0:
448,192,5181,1,0,0:0:0:0:
192,192,5261,1,0,0:0:0:0:
320,192,5341,1,0,0:0:0:0:
64,192,5421,1,0,0:0:0:0:
448,192,5500,1,0,0:0:0:0:
192,192,5580,1,0,0:0:0:0:
320,192,5660,1,0,0:0:0:0:
64,192,5740,1,0,0:0:0:0:
448,192,5820,1,0,0:0:0:0:
192,192,5899,1,0,0:0:0:0:
320,192,5979,1,0,0:0:0:0:
64,192,6059,1,0,0:0:0:0:
448,192,6059,1,0,0:0:0:0:
320,192,6218,1,0,0:0:0:0:
192,192,6378,1,0,0:0:0:0:
64,192,6538,1,0,0:0:0:0:
192,192,6857,1,0,0:0:0:0:
320,192,7016,1,0,0:0:0:0:
448,192,7016,1,0,0:0:0:0:
64,192,7176,1,0,0:0:0:0:
192,192,7176,1,0,0:0:0:0:
320,192,7495,1,0,0:0:0:0:
192,192,7575,1,0,0:0:0:0:
320,192,7655,1,0,0:0:0:0:
192,192,7734,1,0,0:0:0:0:
320,192,7814,1,0,0:0:0:0:
448,192,7974,1,0,0:0:0:0:
320,192,8133,1,0,0:0:0:0:
192,192,8293,1,0,0:0:0:0:
320,192,8453,1,0,0:0:0:0:
192,192,8612,5,2,0:0:0:40:
448,192,8612,1,4,0:0:0:40:
64,192,8612,1,0,0:0:0:0:
192,192,9250,1,2,0:0:0:40:
448,192,9250,1,0,0:0:0:0:
64,192,10048,1,8,0:0:0:40:
192,192,10048,1,0,0:0:0:0:
320,192,10048,1,0,0:0:0:0:
192,192,10367,1,8,0:0:0:40:
320,192,10367,1,0,0:0:0:0:
448,192,10367,1,0,0:0:0:0:
192,192,10687,1,8,0:0:0:40:
64,192,10687,128,0,11006:0:0:0:0:
448,192,10687,1,0,0:0:0:0:
320,192,10846,128,0,11006:0:0:0:0:
448,192,11006,128,0,11165:0:0:0:0:
192,192,11165,1,4,0:0:0:40:
64,192,11165,1,2,0:0:0:40:
320,192,11165,1,0,0:0:0:0:
320,192,11325,1,0,0:0:0:0:
192,192,11484,1,8,0:0:0:40:
448,192,11484,1,0,0:0:0:0:
64,192,11484,1,0,0:0:0:0:
192,192,11644,1,0,0:0:0:0:
448,192,11804,1,2,0:0:0:40:
64,192,11804,1,0,0:0:0:0:
320,192,11963,1,0,0:0:0:0:
64,192,12123,1,8,0:0:0:40:
192,192,12123,1,0,0:0:0:0:
448,192,12123,1,0,0:0:0:0:
320,192,12282,1,0,0:0:0:0:
64,192,12442,1,2,0:0:0:40:
448,192,12442,1,0,0:0:0:0:
448,192,12601,1,0,0:0:0:0:
64,192,12761,1,8,0:0:0:40:
192,192,12761,1,0,0:0:0:0:
320,192,12761,1,0,0:0:0:0:
192,192,12921,1,0,0:0:0:0:
320,192,13000,1,0,0:0:0:0:
448,192,13080,1,2,0:0:0:40:
64,192,13080,1,0,0:0:0:0:
192,192,13240,1,8,0:0:0:40:
320,192,13240,1,0,0:0:0:0:
448,192,13240,1,0,0:0:0:0:
64,192,13399,1,0,0:0:0:0:
192,192,13559,1,2,0:0:0:40:
320,192,13559,1,0,0:0:0:0:
64,192,13718,1,2,0:0:0:40:
320,192,13718,1,4,0:0:0:40:
448,192,13718,1,0,0:0:0:0:
448,192,13878,1,0,0:0:0:0:
320,192,14038,1,8,0:0:0:40:
64,192,14038,1,0,0:0:0:0:
192,192,14038,1,0,0:0:0:0:
320,192,14197,1,0,0:0:0:0:
64,192,14357,1,2,0:0:0:40:
448,192,14357,1,0,0:0:0:0:
192,192,14516,1,0,0:0:0:0:
448,192,14676,1,0,0:0:0:40:
64,192,14676,1,0,0:0:0:0:
320,192,14676,1,8,0:0:0:0:
192,192,14835,1,4,0:0:0:40:
64,192,14835,1,0,0:0:0:0:
448,192,14835,1,0,0:0:0:0:
320,192,14995,1,0,0:0:0:0:
64,192,15155,1,0,0:0:0:0:
192,192,15234,1,0,0:0:0:0:
320,192,15314,1,2,0:0:0:40:
448,192,15314,1,0,0:0:0:0:
64,192,15394,1,0,0:0:0:0:
192,192,15474,1,0,0:0:0:0:
320,192,15554,1,0,0:0:0:0:
64,192,15633,1,2,0:0:0:40:
448,192,15633,1,0,0:0:0:0:
192,192,15713,1,0,0:0:0:0:
320,192,15793,1,8,0:0:0:40:
448,192,15793,1,0,0:0:0:0:
64,192,15793,1,0,0:0:0:0:
192,192,15873,1,0,0:0:0:0:
320,192,15953,1,0,0:0:0:0:
192,192,16032,1,0,0:0:0:0:
448,192,16112,1,2,0:0:0:40:
64,192,16112,1,0,0:0:0:0:
64,192,16272,1,2,0:0:0:40:
192,192,16272,1,4,0:0:0:40:
448,192,16272,1,0,0:0:0:0:
320,192,16431,1,0,0:0:0:0:
64,192,16591,1,8,0:0:0:40:
448,192,16591,1,0,0:0:0:0:
192,192,16591,1,0,0:0:0:0:
192,192,16750,1,0,0:0:0:0:
64,192,16910,1,2,0:0:0:40:
320,192,16910,1,0,0:0:0:0:
448,192,17070,1,0,0:0:0:0:
64,192,17229,1,8,0:0:0:40:
192,192,17229,1,0,0:0:0:0:
320,192,17229,1,0,0:0:0:0:
64,192,17389,1,4,0:0:0:40:
320,192,17389,1,0,0:0:0:0:
448,192,17389,1,0,0:0:0:0:
448,192,17548,1,2,0:0:0:40:
192,192,17548,1,0,0:0:0:0:
320,192,17708,1,0,0:0:0:0:
64,192,17867,1,8,0:0:0:40:
192,192,17867,1,0,0:0:0:0:
448,192,17867,1,0,0:0:0:0:
320,192,18027,1,0,0:0:0:0:
448,192,18107,1,0,0:0:0:0:
192,192,18187,1,2,0:0:0:40:
64,192,18187,1,0,0:0:0:0:
320,192,18346,1,0,0:0:0:0:
448,192,18346,1,0,0:0:0:0:
64,192,18506,1,8,0:0:0:40:
192,192,18506,1,0,0:0:0:0:
448,192,18506,1,0,0:0:0:0:
320,192,18665,1,0,0:0:0:0:
192,192,18825,128,4,19144:0:0:0:40:
64,192,18825,1,0,0:0:0:0:
448,192,18825,1,2,0:0:0:0:
320,192,18984,1,0,0:0:0:0:
320,192,19144,1,2,0:0:0:0:
64,192,19144,1,0,0:0:0:0:
192,192,19304,1,4,0:0:0:40:
64,192,19304,128,0,19782:0:0:0:0:
448,192,19304,1,0,0:0:0:0:
448,192,19463,1,0,0:0:0:0:
320,192,19463,1,2,0:0:0:0:
192,192,19623,1,0,0:0:0:0:
320,192,19782,1,2,0:0:0:0:
448,192,19782,1,0,0:0:0:0:
448,192,19942,128,4,21378:0:0:0:40:
64,192,19942,1,2,0:0:0:0:
320,192,19942,128,0,21059:0:0:0:0:
64,192,21059,128,0,21378:0:0:0:0:
192,192,21378,1,2,0:0:0:40:
320,192,21378,128,4,21697:0:0:0:40:
448,192,21538,128,0,21697:0:0:0:0:
192,192,21697,1,8,0:0:0:40:
64,192,21697,128,0,22016:0:0:0:0:
320,192,21857,1,2,0:0:0:0:
448,192,21857,1,0,0:0:0:0:
448,192,22016,128,2,22335:0:0:0:40:
192,192,22016,1,0,0:0:0:0:
320,192,22176,128,0,22335:0:0:0:0:
64,192,22176,1,2,0:0:0:40:
192,192,22335,1,8,0:0:0:0:
64,192,22335,1,0,0:0:0:0:
448,192,22495,128,0,22655:0:0:0:0:
64,192,22655,1,2,0:0:0:40:
320,192,22655,1,0,0:0:0:0:
192,192,22814,128,0,22974:0:0:0:0:
64,192,22974,1,8,0:0:0:40:
320,192,22974,1,0,0:0:0:0:
448,192,22974,1,0,0:0:0:0:
192,192,23133,1,0,0:0:0:0:
320,192,23213,1,0,0:0:0:0:
448,192,23293,1,2,0:0:0:40:
64,192,23293,1,0,0:0:0:0:
192,192,23453,128,0,23772:0:0:0:0:
320,192,23453,1,2,0:0:0:0:
64,192,23612,1,8,0:0:0:40:
448,192,23612,1,0,0:0:0:0:
448,192,23772,1,0,0:0:0:0:
320,192,23772,1,2,0:0:0:0:
192,192,23931,128,2,24250:0:0:0:40:
64,192,23931,1,0,0:0:0:0:
320,192,24091,128,0,24250:0:0:0:0:
448,192,24250,128,8,24570:0:0:0:40:
64,192,24250,1,0,0:0:0:0:
192,192,24410,1,2,0:0:0:0:
320,192,24410,1,0,0:0:0:0:
64,192,24570,128,2,24889:0:0:0:40:
320,192,24570,1,0,0:0:0:0:
192,192,24729,128,2,24889:0:0:0:0:
448,192,24729,1,0,0:0:0:0:
448,192,24889,1,8,0:0:0:40:
320,192,24889,1,0,0:0:0:0:
192,192,25048,128,0,25208:0:0:0:0:
64,192,25208,1,2,0:0:0:40:
448,192,25208,1,0,0:0:0:0:
320,192,25367,128,0,25527:0:0:0:0:
192,192,25527,1,8,0:0:0:40:
448,192,25527,1,0,0:0:0:0:
64,192,25527,1,0,0:0:0:0:
320,192,25687,1,0,0:0:0:0:
64,192,25846,1,2,0:0:0:40:
192,192,25926,1,0,0:0:0:0:
64,192,26006,1,4,0:0:0:40:
448,192,26006,1,0,0:0:0:0:
320,192,26006,1,2,0:0:0:0:
320,192,26325,128,0,26484:0:0:0:0:
448,192,26484,1,2,0:0:0:40:
64,192,26484,128,4,26804:0:0:0:40:
192,192,26484,1,0,0:0:0:0:
448,192,26644,128,0,26804:0:0:0:0:
320,192,26804,128,8,27123:0:0:0:40:
192,192,26804,1,0,0:0:0:0:
64,192,26963,1,0,0:0:0:0:
192,192,26963,1,2,0:0:0:0:
64,192,27123,1,2,0:0:0:0:
448,192,27123,128,0,27442:0:0:0:40:
320,192,27282,128,2,27442:0:0:0:0:
192,192,27282,1,0,0:0:0:0:
192,192,27442,1,8,0:0:0:40:
64,192,27442,1,0,0:0:0:0:
320,192,27601,128,0,27761:0:0:0:0:
64,192,27761,1,2,0:0:0:40:
448,192,27761,1,0,0:0:0:0:
192,192,27921,128,0,28080:0:0:0:0:
64,192,28080,1,8,0:0:0:40:
320,192,28080,1,0,0:0:0:0:
448,192,28080,1,0,0:0:0:0:
192,192,28240,1,0,0:0:0:0:
64,192,28240,1,2,0:0:0:0:
320,192,28320,1,0,0:0:0:0:
192,192,28399,1,2,0:0:0:0:
448,192,28399,1,0,0:0:0:0:
64,192,28559,1,0,0:0:0:0:
320,192,28559,128,0,28878:0:0:0:0:
64,192,28718,1,8,0:0:0:40:
448,192,28718,1,0,0:0:0:0:
192,192,28878,1,0,0:0:0:0:
64,192,29038,128,2,29357:0:0:0:40:
320,192,29038,1,0,0:0:0:0:
448,192,29197,128,0,29357:0:0:0:0:
192,192,29357,128,8,29516:0:0:0:40:
320,192,29357,1,0,0:0:0:0:
448,192,29516,1,2,0:0:0:0:
64,192,29516,1,0,0:0:0:0:
448,192,29676,128,2,29995:0:0:0:40:
320,192,29676,1,0,0:0:0:0:
192,192,29835,128,0,29995:0:0:0:0:
64,192,29835,1,2,0:0:0:0:
64,192,29995,1,8,0:0:0:40:
320,192,29995,1,0,0:0:0:0:
448,192,30155,1,4,0:0:0:40:
320,192,30155,1,0,0:0:0:0:
192,192,30155,1,2,0:0:0:0:
320,192,30474,1,4,0:0:0:40:
192,192,30474,1,0,0:0:0:0:
64,192,30474,1,2,0:0:0:0:
320,192,30793,1,4,0:0:0:40:
64,192,30793,1,2,0:0:0:0:
448,192,30793,1,0,0:0:0:0:
192,192,31112,1,0,0:0:0:0:
320,192,31272,128,0,31591:0:0:0:0:
64,192,31431,1,0,0:0:0:0:
192,192,31591,1,2,0:0:0:40:
448,192,31591,1,4,0:0:0:40:
64,192,31591,128,0,31750:0:0:0:0:
320,192,31750,128,0,31910:0:0:0:0:
64,192,31910,1,8,0:0:0:40:
448,192,31910,1,0,0:0:0:0:
192,192,31910,1,0,0:0:0:0:
320,192,32070,128,2,32229:0:0:0:0:
448,192,32229,1,2,0:0:0:40:
64,192,32229,1,0,0:0:0:0:
192,192,32389,1,2,0:0:0:0:
320,192,32389,1,0,0:0:0:0:
448,192,32548,128,8,32708:0:0:0:40:
320,192,32548,1,0,0:0:0:0:
64,192,32548,1,0,0:0:0:0:
192,192,32708,128,0,32867:0:0:0:0:
64,192,32867,1,2,0:0:0:40:
320,192,32867,1,0,0:0:0:0:
192,192,33027,128,0,33187:0:0:0:0:
448,192,33187,1,0,0:0:0:0:
320,192,33346,128,0,33665:0:0:0:0:
192,192,33506,128,0,33825:0:0:0:0:
64,192,33665,128,0,33984:0:0:0:0:
448,192,33825,128,0,34144:0:0:0:0:
320,192,33984,128,0,34144:0:0:0:0:
64,192,34144,128,2,34304:0:0:0:40:
192,192,34144,1,4,0:0:0:40:
192,192,34304,128,0,34463:0:0:0:0:
448,192,34463,1,8,0:0:0:40:
320,192,34463,1,0,0:0:0:0:
64,192,34463,1,0,0:0:0:0:
320,192,34623,128,2,34782:0:0:0:0:
448,192,34782,128,2,34942:0:0:0:40:
64,192,34782,1,0,0:0:0:0:
192,192,34942,1,2,0:0:0:0:
64,192,34942,1,0,0:0:0:0:
192,192,35101,128,8,35261:0:0:0:40:
448,192,35101,1,0,0:0:0:0:
320,192,35101,1,0,0:0:0:0:
64,192,35261,128,0,35421:0:0:0:0:
320,192,35421,1,2,0:0:0:40:
448,192,35421,1,0,0:0:0:0:
64,192,35580,128,0,35740:0:0:0:0:
320,192,35740,1,0,0:0:0:0:
64,192,35899,1,0,0:0:0:0:
192,192,36218,1,0,0:0:0:0:
320,192,36538,1,0,0:0:0:0:
192,192,36697,1,4,0:0:0:40:
64,192,36697,128,2,36857:0:0:0:40:
448,192,36697,1,0,0:0:0:0:
320,192,36857,128,0,37016:0:0:0:0:
192,192,37016,1,8,0:0:0:40:
448,192,37016,1,0,0:0:0:0:
64,192,37016,1,0,0:0:0:0:
320,192,37176,128,2,37335:0:0:0:0:
448,192,37335,1,2,0:0:0:40:
192,192,37335,1,0,0:0:0:0:
64,192,37495,1,0,0:0:0:0:
192,192,37495,1,2,0:0:0:0:
64,192,37655,1,8,0:0:0:40:
320,192,37655,1,0,0:0:0:0:
448,192,37655,128,0,37814:0:0:0:0:
192,192,37814,128,2,37974:0:0:0:0:
64,192,37974,1,2,0:0:0:40:
320,192,37974,1,0,0:0:0:0:
192,192,38133,128,0,38293:0:0:0:0:
64,192,38293,128,0,38453:0:0:0:0:
448,192,38453,128,0,38612:0:0:0:0:
64,192,38612,128,0,39091:0:0:0:0:
192,192,38772,128,0,39091:0:0:0:0:
448,192,38931,128,0,39250:0:0:0:0:
320,192,39091,128,0,39250:0:0:0:0:
192,192,39250,1,2,0:0:0:40:
64,192,39250,128,4,39410:0:0:0:40:
448,192,39410,128,0,39570:0:0:0:0:
64,192,39570,1,8,0:0:0:40:
320,192,39570,1,0,0:0:0:0:
192,192,39570,1,0,0:0:0:0:
64,192,39729,128,2,39889:0:0:0:0:
320,192,39889,1,2,0:0:0:40:
448,192,39889,128,0,40048:0:0:0:0:
64,192,40048,1,0,0:0:0:0:
192,192,40048,1,2,0:0:0:0:
64,192,40208,1,4,0:0:0:40:
320,192,40208,1,2,0:0:0:0:
448,192,40208,1,0,0:0:0:0:
64,192,40687,1,4,0:0:0:40:
448,192,40687,1,0,0:0:0:0:
192,192,40687,1,2,0:0:0:0:
64,192,41165,1,4,0:0:0:40:
320,192,41165,1,2,0:0:0:0:
448,192,41165,1,0,0:0:0:0:
192,192,41804,1,4,0:0:0:40:
64,192,41804,1,2,0:0:0:40:
448,192,41804,128,0,41963:0:0:0:0:
192,192,41963,1,0,0:0:0:0:
320,192,42123,1,8,0:0:0:40:
448,192,42123,1,0,0:0:0:0:
64,192,42123,128,0,42282:0:0:0:0:
192,192,42282,1,2,0:0:0:0:
448,192,42282,1,0,0:0:0:0:
64,192,42442,1,2,0:0:0:40:
320,192,42442,128,0,42601:0:0:0:0:
192,192,42601,128,0,42761:0:0:0:0:
448,192,42601,1,2,0:0:0:0:
320,192,42761,1,8,0:0:0:40:
448,192,42761,1,0,0:0:0:0:
64,192,42761,1,0,0:0:0:0:
320,192,42921,128,0,43080:0:0:0:0:
64,192,43080,1,2,0:0:0:40:
448,192,43080,128,0,43240:0:0:0:0:
192,192,43240,1,0,0:0:0:0:
320,192,43399,1,8,0:0:0:40:
448,192,43399,1,0,0:0:0:0:
64,192,43399,128,0,43559:0:0:0:0:
192,192,43559,1,2,0:0:0:0:
448,192,43559,1,0,0:0:0:0:
320,192,43639,1,0,0:0:0:0:
64,192,43718,128,2,43878:0:0:0:40:
192,192,43718,1,0,0:0:0:0:
192,192,43878,128,2,44038:0:0:0:0:
448,192,43878,1,0,0:0:0:0:
448,192,44038,1,8,0:0:0:40:
320,192,44038,1,0,0:0:0:0:
64,192,44038,1,0,0:0:0:0:
64,192,44197,1,2,0:0:0:0:
320,192,44197,128,0,44357:0:0:0:0:
192,192,44357,1,2,0:0:0:40:
448,192,44357,128,0,44516:0:0:0:0:
320,192,44516,1,0,0:0:0:0:
192,192,44676,1,8,0:0:0:40:
448,192,44676,1,0,0:0:0:0:
64,192,44676,128,0,44835:0:0:0:0:
320,192,44835,1,0,0:0:0:0:
192,192,44995,128,2,45155:0:0:0:40:
320,192,45155,128,2,45314:0:0:0:0:
448,192,45314,1,8,0:0:0:40:
64,192,45314,1,0,0:0:0:0:
192,192,45314,1,0,0:0:0:0:
320,192,45474,128,2,45633:0:0:0:0:
448,192,45633,1,2,0:0:0:40:
64,192,45633,1,0,0:0:0:0:
320,192,45793,1,0,0:0:0:0:
64,192,45953,1,8,0:0:0:40:
320,192,45953,1,0,0:0:0:0:
448,192,45953,1,0,0:0:0:0:
192,192,46112,1,2,0:0:0:0:
448,192,46272,1,2,0:0:0:40:
64,192,46272,1,0,0:0:0:0:
448,192,46431,128,4,46910:0:0:0:40:
64,192,46431,1,0,0:0:0:0:
192,192,46431,1,2,0:0:0:0:
320,192,46910,1,4,0:0:0:40:
64,192,46910,128,2,47070:0:0:0:40:
448,192,47070,128,0,47229:0:0:0:0:
192,192,47229,1,8,0:0:0:40:
64,192,47229,1,0,0:0:0:0:
320,192,47229,128,0,47389:0:0:0:0:
64,192,47389,128,0,47548:0:0:0:0:
448,192,47389,1,2,0:0:0:0:
192,192,47548,128,2,47708:0:0:0:40:
448,192,47548,1,0,0:0:0:0:
64,192,47708,128,0,47867:0:0:0:0:
320,192,47708,1,2,0:0:0:0:
320,192,47867,128,8,48027:0:0:0:40:
192,192,47867,1,0,0:0:0:0:
448,192,47867,1,0,0:0:0:0:
448,192,48027,128,2,48187:0:0:0:0:
64,192,48187,1,2,0:0:0:40:
192,192,48187,128,0,48346:0:0:0:0:
448,192,48346,128,0,48506:0:0:0:0:
192,192,48506,1,8,0:0:0:40:
320,192,48506,1,0,0:0:0:0:
64,192,48506,128,0,48665:0:0:0:0:
448,192,48665,1,0,0:0:0:0:
192,192,48665,128,2,48825:0:0:0:0:
320,192,48745,1,0,0:0:0:0:
448,192,48825,128,2,48984:0:0:0:40:
64,192,48825,1,0,0:0:0:0:
192,192,48984,128,0,49144:0:0:0:0:
64,192,49144,1,8,0:0:0:40:
320,192,49144,1,0,0:0:0:0:
448,192,49144,1,0,0:0:0:0:
320,192,49304,1,0,0:0:0:0:
64,192,49463,1,2,0:0:0:40:
448,192,49463,128,0,49623:0:0:0:0:
192,192,49623,128,0,49782:0:0:0:0:
64,192,49782,1,8,0:0:0:40:
448,192,49782,1,0,0:0:0:0:
320,192,49782,128,0,49942:0:0:0:0:
192,192,49942,128,0,50101:0:0:0:0:
64,192,49942,1,2,0:0:0:0:
448,192,50101,128,0,50261:0:0:0:40:
320,192,50101,1,2,0:0:0:0:
192,192,50261,1,2,0:0:0:0:
64,192,50261,128,0,50421:0:0:0:0:
192,192,50421,1,8,0:0:0:40:
448,192,50421,1,0,0:0:0:0:
320,192,50421,1,0,0:0:0:0:
64,192,50580,1,4,0:0:0:40:
320,192,50580,1,2,0:0:0:0:
448,192,50580,1,0,0:0:0:0:
64,192,50899,1,4,0:0:0:40:
192,192,50899,1,2,0:0:0:0:
448,192,50899,1,0,0:0:0:0:
448,192,51378,128,0,52016:0:0:0:0:
320,192,51378,128,0,52016:0:0:0:0:
192,192,52016,1,2,0:0:0:40:
64,192,52016,128,4,52176:0:0:0:40:
448,192,52176,128,0,52335:0:0:0:0:
320,192,52335,1,8,0:0:0:40:
192,192,52335,1,0,0:0:0:0:
64,192,52335,1,0,0:0:0:0:
448,192,52495,128,2,52655:0:0:0:0:
64,192,52655,1,2,0:0:0:40:
192,192,52655,1,0,0:0:0:0:
64,192,52814,1,0,0:0:0:0:
448,192,52814,1,2,0:0:0:0:
320,192,52974,1,8,0:0:0:40:
192,192,52974,1,0,0:0:0:0:
448,192,52974,128,0,53133:0:0:0:0:
64,192,53133,128,2,53293:0:0:0:0:
448,192,53293,1,2,0:0:0:40:
320,192,53293,1,0,0:0:0:0:
192,192,53453,128,0,53612:0:0:0:0:
448,192,53612,1,8,0:0:0:40:
320,192,53612,1,0,0:0:0:0:
64,192,53612,1,0,0:0:0:0:
192,192,53772,1,0,0:0:0:0:
448,192,53851,1,0,0:0:0:0:
320,192,53931,1,2,0:0:0:40:
64,192,53931,1,0,0:0:0:0:
192,192,54091,1,2,0:0:0:0:
448,192,54091,1,0,0:0:0:0:
64,192,54250,1,8,0:0:0:40:
320,192,54250,1,0,0:0:0:0:
448,192,54250,1,0,0:0:0:0:
320,192,54410,1,2,0:0:0:0:
192,192,54410,1,0,0:0:0:0:
192,192,54570,1,2,0:0:0:40:
64,192,54570,1,4,0:0:0:40:
448,192,54570,128,0,54729:0:0:0:0:
192,192,54729,128,0,54889:0:0:0:0:
64,192,54889,1,8,0:0:0:40:
320,192,54889,1,0,0:0:0:0:
448,192,54889,1,0,0:0:0:0:
64,192,55048,128,2,55208:0:0:0:0:
320,192,55208,128,2,55367:0:0:0:40:
192,192,55208,1,0,0:0:0:0:
448,192,55367,1,0,0:0:0:0:
64,192,55367,1,2,0:0:0:0:
320,192,55527,1,8,0:0:0:40:
448,192,55527,128,0,55687:0:0:0:0:
64,192,55527,1,0,0:0:0:0:
192,192,55687,128,2,55846:0:0:0:0:
64,192,55846,1,2,0:0:0:40:
320,192,55846,1,0,0:0:0:0:
192,192,56006,128,0,56165:0:0:0:0:
320,192,56165,1,8,0:0:0:40:
448,192,56165,1,0,0:0:0:0:
64,192,56165,1,0,0:0:0:0:
64,192,56325,1,0,0:0:0:0:
192,192,56484,1,2,0:0:0:40:
320,192,56484,1,0,0:0:0:0:
64,192,56644,1,4,0:0:0:40:
448,192,56644,1,0,0:0:0:0:
320,192,56644,1,0,0:0:0:0:
64,192,56963,128,2,57123:0:0:0:40:
448,192,56963,128,0,57123:0:0:0:0:
192,192,57123,1,4,0:0:0:40:
320,192,57123,128,2,57282:0:0:0:40:
64,192,57282,128,0,57442:0:0:0:0:
192,192,57442,1,8,0:0:0:40:
448,192,57442,1,0,0:0:0:0:
320,192,57442,1,0,0:0:0:0:
64,192,57601,128,2,57761:0:0:0:0:
320,192,57761,1,2,0:0:0:40:
448,192,57761,1,0,0:0:0:0:
320,192,57921,1,0,0:0:0:0:
192,192,57921,1,2,0:0:0:0:
448,192,58080,128,8,58240:0:0:0:40:
64,192,58080,1,0,0:0:0:0:
192,192,58080,1,0,0:0:0:0:
320,192,58240,128,2,58399:0:0:0:0:
64,192,58399,1,2,0:0:0:40:
192,192,58399,1,0,0:0:0:0:
320,192,58559,128,0,58718:0:0:0:0:
64,192,58718,1,8,0:0:0:40:
448,192,58718,1,0,0:0:0:0:
192,192,58718,1,0,0:0:0:0:
320,192,58878,1,0,0:0:0:0:
448,192,58958,1,0,0:0:0:0:
192,192,59038,1,2,0:0:0:40:
64,192,59038,1,0,0:0:0:0:
192,192,59197,1,2,0:0:0:0:
448,192,59197,1,0,0:0:0:0:
320,192,59357,1,8,0:0:0:40:
448,192,59357,1,0,0:0:0:0:
64,192,59357,1,0,0:0:0:0:
320,192,59516,1,0,0:0:0:0:
64,192,59676,1,2,0:0:0:40:
192,192,59676,1,4,0:0:0:40:
448,192,59676,128,0,59835:0:0:0:0:
64,192,59835,128,0,59995:0:0:0:0:
192,192,59995,1,8,0:0:0:40:
320,192,59995,1,0,0:0:0:0:
448,192,59995,1,0,0:0:0:0:
448,192,60155,128,2,60314:0:0:0:0:
192,192,60314,1,2,0:0:0:40:
64,192,60314,128,0,60474:0:0:0:0:
320,192,60474,1,2,0:0:0:0:
448,192,60474,1,0,0:0:0:0:
448,192,60633,1,4,0:0:0:40:
64,192,60633,128,0,60953:0:0:0:0:
320,192,60633,128,2,60953:0:0:0:0:
64,192,61112,1,4,0:0:0:40:
192,192,61112,128,2,61910:0:0:0:40:
448,192,61112,128,0,62229:0:0:0:0:
320,192,62229,128,0,64304:0:0:0:0:
64,192,62229,1,0,0:0:0:0:
64,192,63187,1,0,0:0:0:0:
448,192,63187,1,0,0:0:0:0:
192,192,63346,1,0,0:0:0:0:
64,192,63346,1,0,0:0:0:0:
64,192,64304,128,0,64782:0:0:0:0:
192,192,64782,128,0,65261:0:0:0:0:
448,192,64782,1,0,0:0:0:0:
320,192,65261,128,0,65740:0:0:0:0:
448,192,65899,128,0,66218:0:0:0:0:
64,192,65899,1,0,0:0:0:0:
64,192,66218,1,0,0:0:0:0:
192,192,66298,1,0,0:0:0:0:
448,192,66378,1,0,0:0:0:0:
320,192,66458,1,0,0:0:0:0:
64,192,66538,1,0,0:0:0:0:
192,192,66617,1,0,0:0:0:0:
448,192,66697,1,0,0:0:0:0:
320,192,66777,1,0,0:0:0:0:
64,192,66857,1,0,0:0:0:0:
192,192,66937,1,0,0:0:0:0:
448,192,67016,1,0,0:0:0:0:
320,192,67096,1,0,0:0:0:0:
64,192,67176,1,0,0:0:0:0:
192,192,67256,1,0,0:0:0:0:
448,192,67335,1,0,0:0:0:0:
320,192,67335,128,0,68453:0:0:0:0:
64,192,68293,1,0,0:0:0:0:
192,192,68293,1,0,0:0:0:0:
448,192,68453,128,0,69729:0:0:0:0:
192,192,68453,1,0,0:0:0:0:
64,192,69570,128,0,69889:0:0:0:0:
192,192,69889,1,4,0:0:0:40:
320,192,69889,1,2,0:0:0:40:
448,192,69889,1,0,0:0:0:0:
192,192,70527,1,2,0:0:0:40:
448,192,70527,1,0,0:0:0:0:
64,192,71325,1,8,0:0:0:40:
320,192,71325,1,0,0:0:0:0:
448,192,71325,1,0,0:0:0:0:
64,192,71644,1,8,0:0:0:40:
192,192,71644,1,0,0:0:0:0:
448,192,71644,1,0,0:0:0:0:
64,192,71963,1,0,0:0:0:0:
448,192,71963,128,0,72282:0:0:0:0:
320,192,71963,1,8,0:0:0:40:
192,192,72123,128,0,72282:0:0:0:0:
64,192,72282,128,0,72442:0:0:0:0:
320,192,72442,1,4,0:0:0:40:
448,192,72442,1,2,0:0:0:40:
192,192,72442,1,0,0:0:0:0:
448,192,72601,1,0,0:0:0:0:
64,192,72601,1,0,0:0:0:0:
192,192,72761,1,8,0:0:0:40:
320,192,72761,1,0,0:0:0:0:
192,192,72921,1,0,0:0:0:0:
448,192,73080,1,2,0:0:0:40:
64,192,73080,1,0,0:0:0:0:
320,192,73240,1,0,0:0:0:0:
64,192,73399,1,8,0:0:0:40:
320,192,73399,1,0,0:0:0:0:
448,192,73399,1,0,0:0:0:0:
192,192,73559,1,0,0:0:0:0:
448,192,73718,1,2,0:0:0:40:
64,192,73718,1,0,0:0:0:0:
320,192,73878,1,0,0:0:0:0:
64,192,74038,1,8,0:0:0:40:
448,192,74038,1,0,0:0:0:0:
192,192,74038,1,0,0:0:0:0:
320,192,74197,1,0,0:0:0:0:
64,192,74357,1,2,0:0:0:40:
448,192,74357,1,0,0:0:0:0:
320,192,74516,1,8,0:0:0:40:
192,192,74516,1,0,0:0:0:0:
448,192,74516,1,0,0:0:0:0:
64,192,74676,1,0,0:0:0:0:
192,192,74835,1,2,0:0:0:40:
448,192,74835,1,0,0:0:0:0:
64,192,74995,1,2,0:0:0:40:
320,192,74995,1,0,0:0:0:0:
448,192,75155,1,0,0:0:0:0:
64,192,75314,1,8,0:0:0:40:
192,192,75314,1,0,0:0:0:0:
320,192,75314,1,0,0:0:0:0:
320,192,75474,1,0,0:0:0:0:
192,192,75633,1,2,0:0:0:40:
448,192,75633,1,0,0:0:0:0:
64,192,75793,1,0,0:0:0:0:
64,192,75953,1,8,0:0:0:40:
192,192,75953,1,0,0:0:0:0:
320,192,75953,1,0,0:0:0:0:
192,192,76112,1,4,0:0:0:40:
448,192,76112,1,0,0:0:0:0:
320,192,76112,1,0,0:0:0:0:
64,192,76272,1,0,0:0:0:0:
320,192,76431,1,0,0:0:0:0:
64,192,76591,1,2,0:0:0:40:
448,192,76591,1,0,0:0:0:0:
192,192,76671,1,0,0:0:0:0:
448,192,76750,1,0,0:0:0:0:
320,192,76830,1,0,0:0:0:0:
64,192,76910,1,2,0:0:0:40:
192,192,76910,1,0,0:0:0:0:
448,192,76990,1,0,0:0:0:0:
64,192,77070,1,8,0:0:0:40:
320,192,77070,1,0,0:0:0:0:
192,192,77070,1,0,0:0:0:0:
448,192,77149,1,0,0:0:0:0:
64,192,77229,1,0,0:0:0:0:
192,192,77309,1,0,0:0:0:0:
448,192,77389,1,2,0:0:0:40:
320,192,77389,1,0,0:0:0:0:
64,192,77548,1,4,0:0:0:40:
448,192,77548,1,2,0:0:0:40:
192,192,77548,1,0,0:0:0:0:
320,192,77708,1,0,0:0:0:0:
64,192,77867,1,8,0:0:0:40:
448,192,77867,1,0,0:0:0:0:
192,192,77867,1,0,0:0:0:0:
192,192,78027,1,0,0:0:0:0:
64,192,78187,1,2,0:0:0:40:
448,192,78187,1,0,0:0:0:0:
320,192,78346,1,0,0:0:0:0:
64,192,78506,1,8,0:0:0:40:
192,192,78506,1,0,0:0:0:0:
320,192,78506,1,0,0:0:0:0:
448,192,78665,1,0,0:0:0:0:
192,192,78665,1,0,0:0:0:0:
320,192,78825,1,2,0:0:0:40:
64,192,78825,1,0,0:0:0:0:
192,192,78984,1,0,0:0:0:0:
64,192,79144,1,8,0:0:0:40:
320,192,79144,1,0,0:0:0:0:
448,192,79144,1,0,0:0:0:0:
320,192,79304,1,0,0:0:0:0:
448,192,79463,1,2,0:0:0:40:
192,192,79463,1,0,0:0:0:0:
64,192,79623,1,0,0:0:0:0:
320,192,79623,1,4,0:0:0:0:
448,192,79623,1,0,0:0:0:0:
64,192,79782,1,8,0:0:0:40:
448,192,79782,1,0,0:0:0:0:
192,192,79782,1,0,0:0:0:0:
320,192,79942,1,0,0:0:0:0:
448,192,80101,1,4,0:0:0:40:
64,192,80101,128,0,80421:0:0:0:0:
192,192,80101,1,2,0:0:0:0:
320,192,80261,1,0,0:0:0:0:
192,192,80421,1,2,0:0:0:0:
448,192,80421,1,0,0:0:0:0:
448,192,80580,128,4,81059:0:0:0:40:
320,192,80580,1,0,0:0:0:0:
192,192,80580,1,0,0:0:0:0:
320,192,80740,1,0,0:0:0:0:
64,192,80740,1,2,0:0:0:0:
192,192,80899,1,0,0:0:0:0:
64,192,81059,1,2,0:0:0:0:
320,192,81059,1,0,0:0:0:0:
64,192,81218,128,4,82176:0:0:0:40:
320,192,81218,1,0,0:0:0:0:
448,192,81218,1,2,0:0:0:0:
192,192,81538,1,0,0:0:0:0:
448,192,81697,1,0,0:0:0:0:
320,192,81777,1,0,0:0:0:0:
192,192,81857,1,0,0:0:0:0:
448,192,81937,1,0,0:0:0:0:
320,192,82016,1,0,0:0:0:0:
192,192,82096,1,0,0:0:0:0:
448,192,82176,1,0,0:0:0:0:
320,192,82256,1,0,0:0:0:0:
64,192,82335,1,0,0:0:0:0:
192,192,82415,1,0,0:0:0:0:
320,192,82495,1,0,0:0:0:0:
192,192,82575,1,0,0:0:0:0:
64,192,82655,1,4,0:0:0:40:
320,192,82655,1,2,0:0:0:40:
448,192,82655,1,0,0:0:0:0:
448,192,82814,1,0,0:0:0:0:
64,192,82974,1,8,0:0:0:40:
192,192,82974,1,0,0:0:0:0:
320,192,82974,1,0,0:0:0:0:
448,192,83133,1,0,0:0:0:0:
64,192,83293,1,2,0:0:0:40:
192,192,83293,1,0,0:0:0:0:
320,192,83453,1,0,0:0:0:0:
192,192,83612,1,8,0:0:0:40:
320,192,83612,1,0,0:0:0:0:
448,192,83612,1,0,0:0:0:0:
64,192,83772,1,4,0:0:0:40:
192,192,83772,1,0,0:0:0:0:
448,192,83772,1,0,0:0:0:0:
320,192,83931,1,2,0:0:0:0:
64,192,83931,1,0,0:0:0:0:
320,192,84091,1,0,0:0:0:0:
64,192,84250,1,8,0:0:0:40:
192,192,84250,1,0,0:0:0:0:
448,192,84250,1,0,0:0:0:0:
192,192,84410,1,0,0:0:0:0:
320,192,84570,1,2,0:0:0:40:
448,192,84570,1,0,0:0:0:0:
192,192,84729,1,2,0:0:0:0:
448,192,84729,1,0,0:0:0:0:
320,192,84889,1,8,0:0:0:40:
192,192,84889,1,0,0:0:0:0:
64,192,85048,1,2,0:0:0:0:
448,192,85048,1,0,0:0:0:0:
192,192,85208,1,4,0:0:0:40:
320,192,85208,1,2,0:0:0:0:
448,192,85208,1,0,0:0:0:0:
320,192,85367,1,0,0:0:0:0:
64,192,85527,1,8,0:0:0:40:
192,192,85527,1,0,0:0:0:0:
448,192,85527,1,0,0:0:0:0:
320,192,85687,1,0,0:0:0:0:
64,192,85846,1,2,0:0:0:40:
448,192,85846,1,0,0:0:0:0:
320,192,86006,1,0,0:0:0:0:
192,192,86165,1,8,0:0:0:40:
64,192,86165,1,0,0:0:0:0:
448,192,86165,1,0,0:0:0:0:
64,192,86325,1,4,0:0:0:40:
192,192,86325,1,0,0:0:0:0:
320,192,86325,1,0,0:0:0:0:
448,192,86484,1,0,0:0:0:0:
64,192,86644,1,0,0:0:0:0:
320,192,86644,1,0,0:0:0:0:
64,192,86804,1,2,0:0:0:40:
192,192,86804,1,0,0:0:0:0:
320,192,86883,1,0,0:0:0:0:
448,192,86963,1,0,0:0:0:0:
192,192,87043,1,0,0:0:0:0:
448,192,87123,1,2,0:0:0:40:
64,192,87123,1,0,0:0:0:0:
320,192,87203,1,0,0:0:0:0:
64,192,87282,1,8,0:0:0:40:
448,192,87282,1,0,0:0:0:0:
192,192,87282,1,0,0:0:0:0:
320,192,87362,1,0,0:0:0:0:
192,192,87442,1,0,0:0:0:0:
448,192,87522,1,0,0:0:0:0:
64,192,87601,1,2,0:0:0:40:
320,192,87601,1,0,0:0:0:0:
64,192,87761,1,4,0:0:0:40:
448,192,87761,1,2,0:0:0:40:
192,192,87761,1,0,0:0:0:0:
192,192,87921,1,0,0:0:0:0:
64,192,88080,1,8,0:0:0:40:
320,192,88080,1,0,0:0:0:0:
448,192,88080,1,0,0:0:0:0:
192,192,88240,1,0,0:0:0:0:
64,192,88399,1,2,0:0:0:40:
448,192,88399,1,0,0:0:0:0:
320,192,88559,1,0,0:0:0:0:
192,192,88718,1,8,0:0:0:40:
320,192,88718,1,0,0:0:0:0:
448,192,88718,1,0,0:0:0:0:
64,192,88878,1,2,0:0:0:40:
192,192,88878,1,4,0:0:0:40:
448,192,88878,1,0,0:0:0:0:
192,192,89197,1,2,0:0:0:0:
448,192,89197,1,0,0:0:0:0:
64,192,89357,1,8,0:0:0:40:
320,192,89357,1,0,0:0:0:0:
64,192,89516,1,2,0:0:0:0:
448,192,89516,1,0,0:0:0:0:
320,192,89676,1,0,0:0:0:40:
192,192,89835,1,2,0:0:0:0:
320,192,89835,1,0,0:0:0:0:
64,192,89995,1,8,0:0:0:40:
192,192,89995,1,0,0:0:0:0:
448,192,89995,1,0,0:0:0:0:
320,192,90155,1,0,0:0:0:0:
448,192,90314,128,4,90793:0:0:0:40:
320,192,90314,128,2,90793:0:0:0:0:
64,192,90314,1,0,0:0:0:0:
192,192,90633,1,0,0:0:0:0:
192,192,90793,1,4,0:0:0:40:
64,192,90793,128,2,91431:0:0:0:0:
192,192,91431,128,4,92867:0:0:0:40:
320,192,91431,128,2,92229:0:0:0:0:
448,192,91431,1,0,0:0:0:0:
64,192,92229,128,0,92867:0:0:0:0:
448,192,92867,128,0,93825:0:0:0:0:
320,192,92867,1,4,0:0:0:0:
64,192,93506,1,0,0:0:0:0:
320,192,93825,128,0,93984:0:0:0:0:
192,192,93984,128,0,95421:0:0:0:0:
64,192,93984,1,0,0:0:0:0:
320,192,94304,1,0,0:0:0:0:
448,192,94463,1,0,0:0:0:0:
64,192,94623,1,0,0:0:0:0:
64,192,94942,1,0,0:0:0:0:
64,192,95261,1,0,0:0:0:0:
448,192,95421,128,0,97974:0:0:0:0:
320,192,95421,1,0,0:0:0:0:
320,192,95740,1,0,0:0:0:0:
192,192,95899,1,0,0:0:0:0:
64,192,96059,1,0,0:0:0:0:
320,192,96378,1,0,0:0:0:0:
64,192,96538,1,0,0:0:0:0:
192,192,96697,1,0,0:0:0:0:
320,192,97016,1,0,0:0:0:0:
192,192,97176,1,0,0:0:0:0:
64,192,97335,1,0,0:0:0:0:
192,192,97655,1,0,0:0:0:0:
64,192,97814,1,0,0:0:0:0:
192,192,97974,1,0,0:0:0:0:
