osu file format v14

[General]
AudioFilename: Yuuki no Pendant.mp3
AudioLeadIn: 0
PreviewTime: 60009
Countdown: 0
SampleSet: Soft
StackLeniency: 0.7
Mode: 3
LetterboxInBreaks: 0
SpecialStyle: 0
WidescreenStoryboard: 0

[Editor]
Bookmarks: 20926,27531,34137
DistanceSpacing: 1.8
BeatDivisor: 4
GridSize: 4
TimelineZoom: 3.839998

[Metadata]
Title:Yuuki no Pendant
TitleUnicode:勇気のペンダント
Artist:Qrispy Joybox feat.Chata
ArtistUnicode:Qrispy Joybox feat.茶太
Creator:AchsanLovers
Version:Hyper
Source:REFLEC BEAT 悠久のリフレシア
Tags:TATSUYA IYAMA Yukyuu no Reflesia The Eternity of Amiichii
BeatmapID:1302373
BeatmapSetID:608271

[Difficulty]
HPDrainRate:7.8
CircleSize:4
OverallDifficulty:7.8
ApproachRate:5
SliderMultiplier:1.4
SliderTickRate:1

[Events]
//Background and Video events
0,0,"shicixianjeg2.jpg",0,0
//Break Periods
//Storyboard Layer 0 (Background)
//Storyboard Layer 1 (Fail)
//Storyboard Layer 2 (Pass)
//Storyboard Layer 3 (Foreground)
//Storyboard Sound Samples

[TimingPoints]
1110,275.229357798165,6,2,1,25,1,0
20926,-100,6,2,1,50,0,0
60834,275.229357798165,6,2,1,50,1,1
73494,-100,6,2,1,50,0,0
74045,-100,6,2,1,50,0,1
87256,-100,6,2,1,25,0,0

[HitObjects]
64,192,1110,5,0,0:0:0:25:
320,192,1110,1,0,0:0:0:25:
192,192,1522,1,0,0:0:0:25:
64,192,1935,1,0,0:0:0:25:
448,192,1935,1,0,0:0:0:25:
448,192,3036,1,0,0:0:0:25:
320,192,3174,1,0,0:0:0:25:
192,192,3311,1,0,0:0:0:25:
64,192,3449,1,0,0:0:0:25:
320,192,3724,1,0,0:0:0:25:
448,192,3862,1,0,0:0:0:25:
192,192,4137,1,0,0:0:0:25:
320,192,4412,1,0,0:0:0:25:
64,192,4687,1,0,0:0:0:25:
192,192,5238,1,0,0:0:0:25:
448,192,5238,1,0,0:0:0:25:
320,192,5651,1,0,0:0:0:25:
64,192,6064,1,0,0:0:0:25:
448,192,6064,1,0,0:0:0:25:
192,192,6889,1,0,0:0:0:25:
320,192,7027,1,0,0:0:0:25:
192,192,7165,1,0,0:0:0:25:
64,192,7302,1,0,0:0:0:25:
448,192,9366,1,0,0:0:0:25:
192,192,9366,1,0,0:0:0:25:
64,192,9779,1,0,0:0:0:0:
192,192,10192,1,0,0:0:0:0:
320,192,10192,1,0,0:0:0:0:
448,192,10605,1,0,0:0:0:0:
64,192,11018,1,0,0:0:0:0:
320,192,11293,1,0,0:0:0:0:
64,192,11568,1,0,0:0:0:0:
192,192,11568,1,0,0:0:0:0:
192,192,13495,1,0,0:0:0:25:
448,192,13495,1,0,0:0:0:25:
320,192,13908,1,0,0:0:0:25:
64,192,14321,1,0,0:0:0:25:
448,192,14321,1,0,0:0:0:25:
192,192,14733,1,0,0:0:0:25:
320,192,15146,1,0,0:0:0:25:
448,192,15421,1,0,0:0:0:25:
64,192,15697,1,0,0:0:0:25:
192,192,15834,1,0,0:0:0:25:
64,192,15972,1,0,0:0:0:25:
320,192,16109,1,0,0:0:0:25:
192,192,16247,1,0,0:0:0:25:
448,192,16385,1,0,0:0:0:25:
64,192,16522,1,0,0:0:0:25:
192,192,16660,1,0,0:0:0:25:
320,192,16798,1,0,0:0:0:25:
64,192,16935,1,0,0:0:0:25:
320,192,17073,1,0,0:0:0:25:
448,192,17210,1,0,0:0:0:25:
192,192,17348,1,0,0:0:0:25:
320,192,17486,1,0,0:0:0:25:
448,192,17623,1,0,0:0:0:25:
64,192,17761,1,0,0:0:0:25:
192,192,18449,1,0,0:0:0:25:
320,192,18862,1,0,0:0:0:25:
64,192,18999,1,0,0:0:0:25:
448,192,19275,1,0,0:0:0:25:
448,192,19550,1,0,0:0:0:25:
448,192,19825,1,0,0:0:0:25:
192,192,20100,1,0,0:0:0:25:
192,192,20376,1,0,0:0:0:25:
192,192,20651,1,0,0:0:0:25:
64,192,20926,1,0,0:0:0:0:
448,192,20926,1,0,0:0:0:0:
320,192,20926,1,0,0:0:0:0:
64,192,21201,1,2,0:0:0:50:
448,192,21201,1,0,0:0:0:50:
192,192,21339,1,0,0:0:0:50:
320,192,21476,1,2,0:0:0:50:
192,192,21752,1,8,0:0:0:50:
448,192,21752,1,0,0:0:0:50:
320,192,22027,1,0,0:0:0:50:
448,192,22027,128,0,22302:0:0:0:0:
64,192,22302,1,2,0:0:0:50:
192,192,22302,1,0,0:0:0:50:
320,192,22440,1,0,0:0:0:50:
192,192,22577,1,2,0:0:0:50:
448,192,22577,1,0,0:0:0:50:
64,192,22853,1,2,0:0:0:50:
448,192,22853,1,0,0:0:0:50:
192,192,22990,1,2,0:0:0:50:
320,192,22990,1,0,0:0:0:50:
320,192,23128,1,2,0:0:0:50:
64,192,23128,1,0,0:0:0:50:
448,192,23403,1,8,0:0:0:50:
64,192,23403,1,0,0:0:0:50:
192,192,23678,1,0,0:0:0:50:bell.wav
448,192,23678,128,0,23954:0:0:0:50:
320,192,23954,1,2,0:0:0:50:
64,192,23954,128,0,24229:0:0:0:50:bell.wav
320,192,24229,1,2,0:0:0:50:
192,192,24229,1,0,0:0:0:50:
448,192,24504,128,0,24642:0:0:0:50:
320,192,24642,128,0,24779:0:0:0:50:
192,192,24779,128,2,24917:0:0:0:50:
448,192,24779,1,0,0:0:0:50:
64,192,25054,1,8,0:0:0:50:
320,192,25054,1,0,0:0:0:50:
64,192,25330,1,0,0:0:0:50:
448,192,25330,128,0,25605:0:0:0:0:
192,192,25605,1,2,0:0:0:50:
64,192,25605,1,0,0:0:0:50:
320,192,25743,1,0,0:0:0:50:
64,192,25880,1,2,0:0:0:50:
448,192,25880,1,0,0:0:0:50:
192,192,26155,1,2,0:0:0:50:
320,192,26155,1,0,0:0:0:50:
448,192,26293,1,2,0:0:0:50:
64,192,26293,1,0,0:0:0:50:
192,192,26431,1,2,0:0:0:50:
320,192,26431,1,0,0:0:0:50:
64,192,26706,1,0,0:0:0:50:LR_Snare Hit Hard.wav
448,192,26706,1,0,0:0:0:50:
320,192,26706,1,0,0:0:0:50:
192,192,26981,128,2,27256:0:0:0:50:
320,192,26981,1,0,0:0:0:80:bell.wav
64,192,27256,1,2,0:0:0:50:
448,192,27256,128,0,27532:0:0:0:80:bell.wav
64,192,27532,1,4,0:0:0:50:
320,192,27532,1,2,0:0:0:50:
192,192,27532,1,0,0:0:0:50:
192,192,27807,1,2,0:0:0:50:
448,192,27807,1,0,0:0:0:50:
64,192,28082,1,2,0:0:0:50:
192,192,28082,1,0,0:0:0:50:
64,192,28357,1,8,0:0:0:50:
448,192,28357,1,0,0:0:0:50:
192,192,28632,128,0,28908:0:0:0:50:
320,192,28632,1,0,0:0:0:0:
64,192,28908,1,2,0:0:0:50:
448,192,28908,1,0,0:0:0:50:
64,192,29183,1,2,0:0:0:50:
320,192,29183,1,0,0:0:0:50:
448,192,29321,1,0,0:0:0:50:
192,192,29458,1,2,0:0:0:50:
64,192,29458,1,0,0:0:0:0:
320,192,29596,1,2,0:0:0:50:
448,192,29596,1,0,0:0:0:50:
64,192,29733,1,2,0:0:0:50:
192,192,29733,1,0,0:0:0:50:
64,192,30009,1,8,0:0:0:50:
448,192,30009,1,0,0:0:0:50:
448,192,30284,128,2,30559:0:0:0:50:
320,192,30284,1,0,0:0:0:50:bell.wav
192,192,30559,1,2,0:0:0:50:
64,192,30559,128,0,30834:0:0:0:50:bell.wav
320,192,30834,1,2,0:0:0:50:
448,192,30834,1,0,0:0:0:50:
192,192,30972,1,0,0:0:0:50:
448,192,31109,128,0,31247:0:0:0:50:
64,192,31247,128,0,31385:0:0:0:50:
192,192,31385,128,2,31522:0:0:0:50:
320,192,31385,1,0,0:0:0:50:
64,192,31660,1,8,0:0:0:50:
448,192,31660,1,0,0:0:0:50:
320,192,31935,1,0,0:0:0:50:
448,192,31935,128,0,32210:0:0:0:0:
192,192,32210,1,2,0:0:0:50:
320,192,32210,1,0,0:0:0:50:
64,192,32486,1,2,0:0:0:50:
192,192,32486,1,0,0:0:0:50:
320,192,32761,1,2,0:0:0:50:
448,192,32761,1,0,0:0:0:50:
192,192,32898,1,2,0:0:0:50:
64,192,32898,1,0,0:0:0:50:
320,192,33036,1,2,0:0:0:50:
448,192,33036,1,0,0:0:0:50:
64,192,33311,1,8,0:0:0:50:
448,192,33311,1,0,0:0:0:50:
320,192,33587,128,0,33862:0:0:0:50:bell.wav
192,192,33587,1,0,0:0:0:50:
448,192,33862,1,0,0:0:0:50:bell.wav
64,192,33862,128,0,34137:0:0:0:50:
192,192,34137,1,4,0:0:0:50:
448,192,34137,1,2,0:0:0:50:
320,192,34137,1,0,0:0:0:50:
64,192,34412,1,8,0:0:0:50:
192,192,34412,1,0,0:0:0:50:
320,192,34550,1,8,0:0:0:50:
64,192,34687,1,8,0:0:0:50:
448,192,34687,1,0,0:0:0:50:
192,192,34825,1,0,0:0:0:50:
64,192,34963,1,0,0:0:0:50:LR_Snare Hit Hard.wav
320,192,34963,1,0,0:0:0:50:
448,192,34963,128,0,35788:0:0:0:50:
192,192,35238,1,8,0:0:0:50:
64,192,35513,1,8,0:0:0:50:
192,192,35513,1,0,0:0:0:50:
320,192,35651,1,0,0:0:0:50:
64,192,35788,1,2,0:0:0:50:
192,192,35788,1,0,0:0:0:50:
320,192,36064,1,8,0:0:0:50:
448,192,36064,1,0,0:0:0:0:
192,192,36201,1,8,0:0:0:50:
64,192,36201,1,0,0:0:0:50:
448,192,36339,1,8,0:0:0:50:
320,192,36339,1,0,0:0:0:50:
64,192,36614,1,8,0:0:0:50:
320,192,36614,1,0,0:0:0:50:
192,192,36889,1,8,0:0:0:50:
448,192,36889,128,0,37165:0:0:0:50:bell.wav
320,192,37165,1,8,0:0:0:50:
64,192,37165,128,0,37440:0:0:0:50:bell.wav
192,192,37302,1,0,0:0:0:50:
448,192,37440,1,2,0:0:0:50:
320,192,37440,1,0,0:0:0:50:
320,192,37715,1,8,0:0:0:50:
448,192,37715,1,0,0:0:0:0:
64,192,37853,1,8,0:0:0:50:
192,192,37853,1,0,0:0:0:50:
448,192,37990,1,8,0:0:0:50:
320,192,37990,1,0,0:0:0:50:
448,192,38265,1,8,0:0:0:50:
64,192,38265,128,0,39091:0:0:0:50:
320,192,38541,1,8,0:0:0:50:
192,192,38816,1,8,0:0:0:50:
320,192,38954,1,0,0:0:0:50:
448,192,39091,1,2,0:0:0:50:
192,192,39091,1,0,0:0:0:50:
192,192,39366,1,8,0:0:0:50:
320,192,39366,1,0,0:0:0:50:
64,192,39504,1,8,0:0:0:50:
448,192,39504,1,0,0:0:0:50:
192,192,39642,1,8,0:0:0:50:
320,192,39642,1,0,0:0:0:50:
64,192,39779,1,0,0:0:0:50:
448,192,39779,1,0,0:0:0:50:
64,192,39917,1,0,0:0:0:50:LR_Snare Hit Hard.wav
192,192,39917,1,0,0:0:0:50:
448,192,39917,1,0,0:0:0:50:
448,192,40192,1,8,0:0:0:50:
192,192,40192,128,0,40467:0:0:0:50:bell.wav
64,192,40467,1,8,0:0:0:50:
320,192,40467,128,0,40743:0:0:0:50:bell.wav
64,192,40743,1,4,0:0:0:50:
448,192,40743,1,2,0:0:0:50:
192,192,40743,1,0,0:0:0:50:
192,192,41018,1,8,0:0:0:50:
64,192,41155,1,8,0:0:0:50:
320,192,41293,1,8,0:0:0:50:
448,192,41293,1,0,0:0:0:50:
192,192,41431,1,0,0:0:0:50:
448,192,41568,1,8,0:0:0:50:
64,192,41568,128,0,42394:0:0:0:50:
320,192,41843,1,8,0:0:0:50:
192,192,42119,128,8,42394:0:0:0:50:
320,192,42394,1,2,0:0:0:50:
448,192,42394,1,0,0:0:0:50:
64,192,42532,1,0,0:0:0:50:
192,192,42669,1,8,0:0:0:50:
448,192,42807,1,8,0:0:0:50:
320,192,42807,1,0,0:0:0:50:
192,192,42944,1,8,0:0:0:50:
64,192,42944,1,0,0:0:0:50:
320,192,43082,1,0,0:0:0:50:
448,192,43220,1,8,0:0:0:50:
64,192,43220,1,0,0:0:0:50:
64,192,43495,1,2,0:0:0:50:
320,192,43495,128,0,43770:0:0:0:50:bell.wav
192,192,43770,1,8,0:0:0:50:
448,192,43770,128,0,44045:0:0:0:50:bell.wav
64,192,44045,1,2,0:0:0:50:
192,192,44045,1,4,0:0:0:50:
192,192,44321,1,8,0:0:0:50:
448,192,44321,1,0,0:0:0:50:
64,192,44458,1,2,0:0:0:50:
320,192,44458,1,0,0:0:0:50:
192,192,44596,1,8,0:0:0:50:
448,192,44596,1,0,0:0:0:50:
64,192,44871,1,2,0:0:0:50:
320,192,44871,1,4,0:0:0:50:
448,192,44871,1,0,0:0:0:50:
192,192,45146,1,8,0:0:0:50:
320,192,45146,1,0,0:0:0:50:
64,192,45284,1,2,0:0:0:50:
448,192,45284,1,0,0:0:0:50:
192,192,45421,1,8,0:0:0:50:
320,192,45421,1,0,0:0:0:50:
64,192,45697,1,2,0:0:0:50:
192,192,45697,1,4,0:0:0:50:
448,192,45697,1,0,0:0:0:50:
448,192,45972,1,8,0:0:0:50:
320,192,45972,1,0,0:0:0:50:
64,192,46109,1,2,0:0:0:50:
192,192,46109,1,0,0:0:0:50:
320,192,46247,1,8,0:0:0:50:
448,192,46247,1,0,0:0:0:50:
64,192,46522,1,4,0:0:0:50:
192,192,46522,1,8,0:0:0:50:
320,192,46522,1,0,0:0:0:50:
320,192,46798,1,8,0:0:0:50:
448,192,46798,1,0,0:0:0:50:
192,192,46935,1,2,0:0:0:50:
64,192,46935,1,0,0:0:0:50:
320,192,47073,1,8,0:0:0:50:
448,192,47073,1,0,0:0:0:50:
192,192,47210,1,2,0:0:0:50:
64,192,47210,1,0,0:0:0:50:
64,192,47348,1,0,0:0:0:50:LR_Snare Hit Hard.wav
320,192,47348,1,0,0:0:0:50:
448,192,47348,1,0,0:0:0:50:
64,192,47623,1,8,0:0:0:50:
192,192,47623,1,0,0:0:0:50:
192,192,47898,1,8,0:0:0:50:
64,192,47898,1,0,0:0:0:50:
64,192,48174,1,8,0:0:0:50:
192,192,48174,1,0,0:0:0:50:
64,192,48449,1,8,0:0:0:50:
192,192,48449,1,0,0:0:0:50:
320,192,48587,1,2,0:0:0:50:
448,192,48587,1,0,0:0:0:50:
64,192,48724,1,8,0:0:0:50:
320,192,48724,1,0,0:0:0:50:
192,192,48862,1,2,0:0:0:50:
448,192,48862,1,0,0:0:0:50:
64,192,48999,1,8,0:0:0:50:
320,192,48999,1,0,0:0:0:50:
448,192,49137,1,0,0:0:0:50:
192,192,49275,1,8,0:0:0:50:
64,192,49275,1,0,0:0:0:50:
192,192,49550,1,8,0:0:0:50:
64,192,49550,1,0,0:0:0:50:
448,192,49825,128,8,50651:0:0:0:50:
64,192,49825,1,0,0:0:0:50:
192,192,50100,1,8,0:0:0:50:
320,192,50238,1,2,0:0:0:50:
192,192,50376,1,8,0:0:0:50:
64,192,50376,1,0,0:0:0:50:
320,192,50513,1,2,0:0:0:50:
192,192,50651,1,8,0:0:0:50:
64,192,50651,1,0,0:0:0:50:
192,192,50926,1,8,0:0:0:50:
448,192,50926,1,0,0:0:0:50:
192,192,51201,1,8,0:0:0:50:
448,192,51201,1,0,0:0:0:50:
64,192,51476,128,8,51752:0:0:0:50:
320,192,51476,1,0,0:0:0:50:
448,192,51752,1,8,0:0:0:50:
320,192,51752,1,0,0:0:0:50:
192,192,51889,1,2,0:0:0:50:
64,192,51889,1,0,0:0:0:50:
64,192,52027,1,8,0:0:0:50:
448,192,52027,1,0,0:0:0:50:
448,192,52165,1,2,0:0:0:50:
320,192,52165,1,0,0:0:0:50:
192,192,52302,1,8,0:0:0:50:
64,192,52302,1,0,0:0:0:40:bell.wav
320,192,52440,1,0,0:0:0:0:
448,192,52440,1,0,0:0:0:0:
192,192,52577,1,8,0:0:0:50:
320,192,52577,1,0,0:0:0:80:bell.wav
192,192,52853,1,8,0:0:0:50:
320,192,52853,1,0,0:0:0:80:bell.wav
320,192,53128,1,8,0:0:0:50:
64,192,53128,128,0,53403:0:0:0:80:bell.wav
448,192,53403,1,8,0:0:0:50:
192,192,53403,1,0,0:0:0:80:bell.wav
320,192,53541,1,2,0:0:0:50:
192,192,53678,1,8,0:0:0:80:bell.wav
448,192,53678,1,0,0:0:0:50:
64,192,53816,1,2,0:0:0:50:
320,192,53816,1,0,0:0:0:50:
64,192,53954,1,4,0:0:0:50:
192,192,53954,1,2,0:0:0:50:
448,192,53954,1,0,0:0:0:50:
320,192,54229,1,8,0:0:0:50:
448,192,54229,1,0,0:0:0:50:
320,192,54504,1,8,0:0:0:50:
448,192,54504,1,0,0:0:0:50:
192,192,54779,1,8,0:0:0:50:
448,192,54779,128,0,55054:0:0:0:50:
64,192,55054,1,8,0:0:0:50:
320,192,55054,1,0,0:0:0:50:
192,192,55192,1,2,0:0:0:50:
64,192,55330,1,8,0:0:0:50:
320,192,55330,1,0,0:0:0:50:
192,192,55467,1,0,0:0:0:0:
448,192,55467,1,8,0:0:0:0:
448,192,55605,1,2,0:0:0:50:
320,192,55605,1,4,0:0:0:50:
64,192,55605,1,0,0:0:0:50:
320,192,55880,1,8,0:0:0:50:
448,192,55880,1,0,0:0:0:50:
320,192,56155,1,8,0:0:0:50:
448,192,56155,1,0,0:0:0:50:
64,192,56431,1,8,0:0:0:50:
448,192,56431,128,0,56981:0:0:0:50:
192,192,56706,1,8,0:0:0:50:
320,192,56843,1,2,0:0:0:50:
64,192,56981,1,8,0:0:0:50:
192,192,56981,1,0,0:0:0:50:
448,192,57119,1,2,0:0:0:50:
320,192,57119,1,0,0:0:0:50:
64,192,57256,1,4,0:0:0:50:
192,192,57256,1,2,0:0:0:50:
448,192,57256,1,0,0:0:0:50:bell.wav
64,192,57532,1,8,0:0:0:50:
320,192,57532,1,0,0:0:0:50:
64,192,57807,1,8,0:0:0:50:
320,192,57807,1,0,0:0:0:50:
192,192,58082,1,8,0:0:0:50:
448,192,58082,1,0,0:0:0:50:
64,192,58357,1,8,0:0:0:50:
320,192,58357,1,0,0:0:0:50:
192,192,58495,1,2,0:0:0:50:
448,192,58495,1,0,0:0:0:50:
320,192,58632,1,8,0:0:0:50:
448,192,58632,1,0,0:0:0:50:
192,192,58770,1,2,0:0:0:50:
64,192,58770,1,0,0:0:0:50:
320,192,58908,1,8,0:0:0:50:
448,192,58908,1,4,0:0:0:50:
64,192,58908,1,0,0:0:0:50:bell.wav
448,192,59733,128,0,60834:0:0:0:80:bell.wav
64,192,59733,128,0,60834:0:0:0:0:
192,192,60834,1,4,0:0:0:50:
320,192,60834,1,2,0:0:0:50:
64,192,61109,1,2,0:0:0:50:
320,192,61109,1,0,0:0:0:50:
192,192,61384,1,8,0:0:0:50:
448,192,61384,1,0,0:0:0:50:
64,192,61659,1,2,0:0:0:50:
448,192,61659,1,0,0:0:0:50:
192,192,61934,1,2,0:0:0:50:
320,192,61934,1,0,0:0:0:50:
192,192,62210,1,8,0:0:0:50:
448,192,62210,1,0,0:0:0:50:
64,192,62485,1,2,0:0:0:50:
320,192,62485,1,0,0:0:0:50:
64,192,62760,1,2,0:0:0:50:
192,192,62760,1,0,0:0:0:50:
320,192,62898,1,2,0:0:0:50:
448,192,62898,1,0,0:0:0:50:
64,192,63035,1,8,0:0:0:50:
448,192,63035,1,0,0:0:0:50:
192,192,63311,1,2,0:0:0:50:
320,192,63311,1,0,0:0:0:50:
64,192,63586,1,2,0:0:0:50:
448,192,63586,1,0,0:0:0:80:bell.wav
320,192,63723,1,0,0:0:0:80:bell.wav
192,192,63861,1,8,0:0:0:50:
64,192,63861,128,0,64136:0:0:0:80:bell.wav
320,192,64136,1,2,0:0:0:50:
448,192,64274,1,0,0:0:0:80:bell.wav
192,192,64411,1,2,0:0:0:50:
64,192,64411,1,0,0:0:0:80:bell.wav
320,192,64549,1,2,0:0:0:50:
448,192,64549,1,0,0:0:0:80:bell.wav
64,192,64687,1,8,0:0:0:50:
192,192,64687,1,0,0:0:0:80:bell.wav
320,192,64824,1,0,0:0:0:80:bell.wav
64,192,64962,1,2,0:0:0:50:
448,192,64962,1,0,0:0:0:80:bell.wav
192,192,65100,1,0,0:0:0:80:bell.wav
320,192,65237,1,2,0:0:0:50:
448,192,65237,1,0,0:0:0:80:bell.wav
64,192,65375,1,2,0:0:0:50:
192,192,65375,1,0,0:0:0:80:bell.wav
320,192,65512,1,8,0:0:0:50:
448,192,65512,1,0,0:0:0:80:bell.wav
192,192,65650,1,0,0:0:0:80:bell.wav
64,192,65788,1,2,0:0:0:50:
320,192,65788,1,0,0:0:0:80:bell.wav
448,192,65925,1,0,0:0:0:80:bell.wav
320,192,66063,1,2,0:0:0:50:
192,192,66063,1,0,0:0:0:80:bell.wav
64,192,66200,1,2,0:0:0:50:
448,192,66200,1,0,0:0:0:80:bell.wav
192,192,66338,1,8,0:0:0:50:
320,192,66338,1,0,0:0:0:80:bell.wav
64,192,66476,1,0,0:0:0:80:bell.wav
192,192,66613,1,2,0:0:0:50:
320,192,66613,128,0,66889:0:0:0:80:bell.wav
448,192,66889,128,8,67164:0:0:0:50:
64,192,66889,1,0,0:0:0:50:
192,192,67164,1,8,0:0:0:50:
64,192,67164,1,0,0:0:0:50:
64,192,67439,1,2,0:0:0:50:
320,192,67439,1,4,0:0:0:50:
448,192,67439,1,0,0:0:0:50:
192,192,67577,1,0,0:0:0:50:
64,192,67714,1,2,0:0:0:50:
320,192,67714,1,0,0:0:0:50:
448,192,67852,1,0,0:0:0:50:
64,192,67989,1,8,0:0:0:50:
192,192,67989,1,0,0:0:0:50:
320,192,68127,1,0,0:0:0:50:
448,192,68265,1,2,0:0:0:50:
64,192,68265,128,0,68540:0:0:0:50:bell.wav
192,192,68540,1,2,0:0:0:50:
448,192,68540,128,0,68815:0:0:0:50:bell.wav
192,192,68815,1,8,0:0:0:50:
320,192,68815,1,0,0:0:0:50:
64,192,69090,1,4,0:0:0:50:
320,192,69090,1,2,0:0:0:50:
448,192,69090,1,0,0:0:0:50:
192,192,69228,1,0,0:0:0:50:
64,192,69366,1,2,0:0:0:50:
448,192,69366,1,0,0:0:0:50:
320,192,69503,1,2,0:0:0:50:
192,192,69641,1,8,0:0:0:50:
448,192,69641,1,0,0:0:0:50:
64,192,69778,1,0,0:0:0:50:
320,192,69916,1,2,0:0:0:50:
192,192,69916,1,0,0:0:0:50:
448,192,70054,1,0,0:0:0:0:
64,192,70191,128,8,70467:0:0:0:50:
192,192,70191,1,0,0:0:0:40:bell.wav
192,192,70467,1,8,0:0:0:50:
320,192,70467,1,0,0:0:0:50:
64,192,70742,1,2,0:0:0:50:
192,192,70742,1,4,0:0:0:50:
448,192,70742,1,0,0:0:0:80:bell.wav
320,192,71017,1,2,0:0:0:50:
448,192,71017,1,0,0:0:0:50:
64,192,71155,1,2,0:0:0:50:
192,192,71155,1,0,0:0:0:50:
320,192,71292,1,8,0:0:0:50:
448,192,71292,1,0,0:0:0:50:
64,192,71567,1,2,0:0:0:50:
192,192,71567,1,4,0:0:0:50:
448,192,71567,1,0,0:0:0:80:bell.wav
192,192,71843,1,2,0:0:0:50:
320,192,71843,1,0,0:0:0:80:bell.wav
64,192,72118,1,8,0:0:0:50:
320,192,72118,1,0,0:0:0:80:bell.wav
192,192,72393,1,2,0:0:0:50:
448,192,72393,128,4,73219:0:0:0:50:
64,192,72393,1,0,0:0:0:80:bell.wav
320,192,72668,1,2,0:0:0:50:
192,192,72668,1,0,0:0:0:80:bell.wav
64,192,72944,1,2,0:0:0:50:
320,192,72944,1,0,0:0:0:80:bell.wav
192,192,73219,1,2,0:0:0:50:
64,192,73219,1,0,0:0:0:80:bell.wav
448,192,73494,1,8,0:0:0:50:
64,192,73494,128,0,74045:0:0:0:50:
448,192,73769,1,8,0:0:0:50:
320,192,73769,128,0,74045:0:0:0:50:
192,192,74045,1,2,0:0:0:50:
448,192,74045,1,4,0:0:0:50:
64,192,74320,1,2,0:0:0:50:
320,192,74320,1,0,0:0:0:50:
448,192,74457,1,0,0:0:0:0:
192,192,74595,1,8,0:0:0:50:
320,192,74595,1,0,0:0:0:50:
192,192,74870,1,2,0:0:0:50:
448,192,74870,1,0,0:0:0:50:
64,192,75145,1,2,0:0:0:50:
448,192,75145,1,0,0:0:0:50:
192,192,75421,1,8,0:0:0:50:
320,192,75421,1,0,0:0:0:50:
448,192,75558,1,0,0:0:0:50:
64,192,75696,1,2,0:0:0:50:
192,192,75696,1,0,0:0:0:50:
320,192,75971,1,2,0:0:0:50:
448,192,75971,1,0,0:0:0:50:
192,192,76109,1,0,0:0:0:50:
64,192,76246,1,8,0:0:0:50:
320,192,76246,1,0,0:0:0:50:
192,192,76522,1,2,0:0:0:50:
448,192,76522,1,0,0:0:0:50:
64,192,76797,1,2,0:0:0:50:
192,192,76797,1,0,0:0:0:50:
448,192,76934,1,2,0:0:0:50:
64,192,76934,1,0,0:0:0:0:
320,192,77072,1,8,0:0:0:50:
192,192,77072,128,0,77347:0:0:0:50:
64,192,77347,1,2,0:0:0:50:
320,192,77347,1,4,0:0:0:50:
448,192,77347,1,0,0:0:0:50:
192,192,77622,1,2,0:0:0:50:
448,192,77622,1,0,0:0:0:50:
320,192,77760,1,0,0:0:0:0:
64,192,77898,1,8,0:0:0:50:
448,192,77898,1,0,0:0:0:50:
64,192,78173,1,4,0:0:0:50:
192,192,78173,1,2,0:0:0:50:
448,192,78173,1,0,0:0:0:50:
320,192,78448,1,2,0:0:0:50:
448,192,78448,1,0,0:0:0:50:
192,192,78586,1,0,0:0:0:0:
448,192,78723,1,8,0:0:0:50:
320,192,78723,1,0,0:0:0:50:
64,192,78861,1,0,0:0:0:50:
320,192,78999,1,2,0:0:0:50:
192,192,78999,1,4,0:0:0:50:
448,192,78999,1,0,0:0:0:50:
320,192,79274,1,8,0:0:0:50:
448,192,79274,1,0,0:0:0:50:
192,192,79411,1,2,0:0:0:50:
64,192,79411,1,0,0:0:0:50:
320,192,79549,1,8,0:0:0:50:
448,192,79549,1,0,0:0:0:50:
64,192,79824,1,2,0:0:0:50:
448,192,79824,1,0,0:0:0:50:
192,192,80100,128,8,80375:0:0:0:0:
320,192,80100,1,0,0:0:0:0:
448,192,80375,1,8,0:0:0:0:
320,192,80512,1,0,0:0:0:50:
64,192,80650,1,2,0:0:0:50:
192,192,80650,1,4,0:0:0:50:
448,192,80650,1,0,0:0:0:50:
320,192,80788,1,0,0:0:0:50:
64,192,80925,1,2,0:0:0:50:
448,192,80925,1,0,0:0:0:50:
192,192,81063,1,2,0:0:0:50:
320,192,81063,1,0,0:0:0:50:
64,192,81200,1,8,0:0:0:50:
448,192,81200,1,0,0:0:0:50:
192,192,81338,1,0,0:0:0:50:
448,192,81476,1,2,0:0:0:50:
64,192,81476,128,0,81751:0:0:0:50:
192,192,81751,1,2,0:0:0:50:
448,192,81751,128,0,82026:0:0:0:50:bell.wav
320,192,82026,1,8,0:0:0:50:
64,192,82026,1,0,0:0:0:50:bell.wav
64,192,82301,1,2,0:0:0:50:
448,192,82301,1,4,0:0:0:50:
192,192,82301,1,0,0:0:0:50:
320,192,82439,1,0,0:0:0:50:
448,192,82577,1,2,0:0:0:50:
64,192,82577,1,0,0:0:0:50:
192,192,82714,1,2,0:0:0:50:
320,192,82714,1,0,0:0:0:50:
64,192,82852,1,8,0:0:0:50:
448,192,82852,1,0,0:0:0:50:
320,192,82989,1,0,0:0:0:50:
192,192,83127,1,2,0:0:0:50:
64,192,83127,1,0,0:0:0:50:
448,192,83265,1,0,0:0:0:50:
192,192,83402,128,8,83678:0:0:0:50:
320,192,83402,1,0,0:0:0:50:
64,192,83678,1,2,0:0:0:50:
448,192,83678,1,0,0:0:0:50:
192,192,83953,1,2,0:0:0:50:
320,192,83953,1,4,0:0:0:50:
448,192,83953,1,0,0:0:0:50:
64,192,84090,1,0,0:0:0:50:
448,192,84228,1,2,0:0:0:50:
320,192,84228,1,0,0:0:0:50:
64,192,84366,1,2,0:0:0:50:
192,192,84366,1,0,0:0:0:50:
320,192,84503,1,8,0:0:0:50:
448,192,84503,1,0,0:0:0:50:
64,192,84641,1,0,0:0:0:50:
320,192,84778,1,4,0:0:0:50:
448,192,84778,1,2,0:0:0:50:
192,192,84778,1,0,0:0:0:50:
64,192,85054,1,2,0:0:0:50:
320,192,85054,1,0,0:0:0:40:bell.wav
192,192,85329,1,8,0:0:0:50:
448,192,85329,1,0,0:0:0:40:bell.wav
64,192,85604,1,2,0:0:0:50:
320,192,85604,1,4,0:0:0:50:
448,192,85604,1,0,0:0:0:40:bell.wav
192,192,85879,1,8,0:0:0:50:
64,192,85879,1,0,0:0:0:80:bell.wav
192,192,86155,1,8,0:0:0:50:
64,192,86155,1,0,0:0:0:80:bell.wav
320,192,86430,1,8,0:0:0:50:
192,192,86430,128,0,87256:0:0:0:80:bell.wav
448,192,86613,128,0,87256:0:0:0:80:bell.wav
64,192,87256,1,4,0:0:0:50:
320,192,87256,1,0,0:0:0:80:bell.wav
448,192,87531,1,0,0:0:0:25:
320,192,87806,1,0,0:0:0:25:
192,192,88081,1,0,0:0:0:25:
448,192,88356,1,0,0:0:0:25:
320,192,88632,1,0,0:0:0:25:
192,192,88907,1,0,0:0:0:25:
64,192,89182,1,0,0:0:0:25:
448,192,89457,1,0,0:0:0:25:
320,192,89733,1,0,0:0:0:25:
192,192,90008,1,0,0:0:0:25:
64,192,90283,1,0,0:0:0:25:
192,192,90558,1,0,0:0:0:25:
320,192,90558,1,0,0:0:0:25:
448,192,90833,1,0,0:0:0:25:
320,192,91109,1,0,0:0:0:25:
192,192,91384,1,0,0:0:0:25:
448,192,91659,1,0,0:0:0:25:
320,192,91934,1,0,0:0:0:25:
192,192,92210,1,0,0:0:0:25:
64,192,92485,1,0,0:0:0:25:
448,192,92760,1,0,0:0:0:25:
320,192,93035,1,0,0:0:0:25:
192,192,93311,1,0,0:0:0:25:
64,192,93586,1,0,0:0:0:25:
192,192,93861,1,0,0:0:0:25:
320,192,93861,1,0,0:0:0:25:
448,192,94136,1,0,0:0:0:25:
320,192,94411,1,0,0:0:0:25:
192,192,94687,1,0,0:0:0:25:
448,192,94962,1,0,0:0:0:25:
320,192,95237,1,0,0:0:0:25:
192,192,95512,1,0,0:0:0:25:
64,192,95788,1,0,0:0:0:25:
448,192,96063,1,0,0:0:0:25:
320,192,96338,1,0,0:0:0:25:
192,192,96613,1,0,0:0:0:25:
64,192,96889,1,0,0:0:0:25:
192,192,97164,1,0,0:0:0:25:
320,192,97164,1,0,0:0:0:25:
448,192,97439,1,0,0:0:0:25:
320,192,97714,1,0,0:0:0:25:
192,192,97989,1,0,0:0:0:25:
448,192,98265,1,0,0:0:0:25:
320,192,98540,1,0,0:0:0:25:
192,192,98815,1,0,0:0:0:25:
64,192,99090,1,0,0:0:0:25:
448,192,99366,1,0,0:0:0:25:
320,192,99641,1,0,0:0:0:25:
192,192,99916,1,0,0:0:0:25:
64,192,100191,1,0,0:0:0:25:
