osu file format v14

[General]
AudioFilename: Yuuki no Pendant.mp3
AudioLeadIn: 0
PreviewTime: 60009
Countdown: 0
SampleSet: Soft
StackLeniency: 0.7
Mode: 3
LetterboxInBreaks: 0
SpecialStyle: 0
WidescreenStoryboard: 0

[Editor]
Bookmarks: 20926,27531,34137
DistanceSpacing: 1.8
BeatDivisor: 4
GridSize: 4
TimelineZoom: 3.339998

[Metadata]
Title:Yuuki no Pendant
TitleUnicode:勇気のペンダント
Artist:Qrispy Joybox feat.Chata
ArtistUnicode:Qrispy Joybox feat.茶太
Creator:AchsanLovers
Version:Courage
Source:REFLEC BEAT 悠久のリフレシア
Tags:TATSUYA IYAMA Yukyuu no Reflesia The Eternity of Amiichii
BeatmapID:1284615
BeatmapSetID:608271

[Difficulty]
HPDrainRate:8.2
CircleSize:4
OverallDifficulty:8.2
ApproachRate:5
SliderMultiplier:1.4
SliderTickRate:1

[Events]
//Background and Video events
0,0,"shicixianjeg2.jpg",0,0
//Break Periods
//Storyboard Layer 0 (Background)
//Storyboard Layer 1 (Fail)
//Storyboard Layer 2 (Pass)
//Storyboard Layer 3 (Foreground)
//Storyboard Sound Samples

[TimingPoints]
1110,275.229357798165,6,2,1,25,1,0
20926,-100,6,2,1,50,0,0
60834,275.229357798165,6,2,1,50,1,1
73494,-100,6,2,1,50,0,0
74045,-100,6,2,1,50,0,1
87256,-100,6,2,1,25,0,0

[HitObjects]
320,192,1110,5,0,0:0:0:0:
64,192,1110,128,0,1247:0:0:0:0:
192,192,1522,1,0,0:0:0:0:
64,192,1935,1,0,0:0:0:0:
448,192,1935,128,0,2486:0:0:0:0:
320,192,3036,1,0,0:0:0:0:
192,192,3174,1,0,0:0:0:0:
64,192,3311,1,0,0:0:0:0:
448,192,3449,1,0,0:0:0:0:
64,192,3724,1,0,0:0:0:0:
192,192,3793,1,0,0:0:0:0:
320,192,3862,1,0,0:0:0:0:
448,192,4137,1,0,0:0:0:0:
320,192,4412,1,0,0:0:0:0:
192,192,4687,1,0,0:0:0:0:
320,192,5238,1,0,0:0:0:0:
64,192,5238,128,0,5376:0:0:0:0:
192,192,5651,1,0,0:0:0:0:
64,192,6064,1,0,0:0:0:0:
448,192,6064,128,0,6614:0:0:0:0:
320,192,6889,1,0,0:0:0:0:
448,192,7027,1,0,0:0:0:0:
320,192,7165,1,0,0:0:0:0:
192,192,7302,1,0,0:0:0:0:
448,192,9366,1,0,0:0:0:0:
192,192,9366,128,0,9504:0:0:0:0:
64,192,9779,1,0,0:0:0:0:
64,192,10192,1,0,0:0:0:0:
448,192,10192,128,0,10330:0:0:0:0:
192,192,10605,1,0,0:0:0:0:
448,192,11018,1,0,0:0:0:0:
320,192,11293,1,0,0:0:0:0:
192,192,11568,1,0,0:0:0:0:
64,192,11568,128,0,12669:0:0:0:0:
448,192,13495,1,0,0:0:0:0:
64,192,13495,128,0,13632:0:0:0:0:
320,192,13908,1,0,0:0:0:0:
64,192,14321,1,0,0:0:0:0:
320,192,14321,128,0,14458:0:0:0:0:
192,192,14733,1,0,0:0:0:0:
320,192,15146,1,0,0:0:0:0:
64,192,15421,1,0,0:0:0:0:
192,192,15697,1,0,0:0:0:0:
64,192,15834,1,0,0:0:0:0:
192,192,15972,1,0,0:0:0:0:
320,192,16109,1,0,0:0:0:0:
192,192,16247,1,0,0:0:0:0:
320,192,16385,1,0,0:0:0:0:
448,192,16522,1,0,0:0:0:0:
320,192,16660,1,0,0:0:0:0:
192,192,16798,1,0,0:0:0:0:
64,192,16935,1,0,0:0:0:0:
192,192,17073,1,0,0:0:0:0:
320,192,17210,1,0,0:0:0:0:
64,192,17348,1,0,0:0:0:0:
192,192,17486,1,0,0:0:0:0:
320,192,17623,1,0,0:0:0:0:
448,192,17761,1,0,0:0:0:0:
64,192,18449,1,0,0:0:0:0:
192,192,18862,1,0,0:0:0:0:
320,192,18931,1,0,0:0:0:0:
448,192,18999,1,0,0:0:0:0:
320,192,19275,1,0,0:0:0:0:
64,192,19275,128,0,19412:0:0:0:0:
192,192,19550,1,0,0:0:0:0:
448,192,19550,128,0,19687:0:0:0:0:
320,192,19825,1,0,0:0:0:0:
64,192,19825,128,0,19963:0:0:0:0:
448,192,20100,128,0,20238:0:0:0:0:
192,192,20100,128,0,20238:0:0:0:0:
64,192,20376,128,0,20513:0:0:0:0:
320,192,20376,128,0,20513:0:0:0:0:
448,192,20651,128,0,20788:0:0:0:0:
192,192,20651,128,0,20788:0:0:0:0:
64,192,20651,128,0,20788:0:0:0:0:
64,192,20926,5,4,0:0:0:50:
320,192,20926,1,2,0:0:0:50:
448,192,20926,128,0,21201:0:0:0:0:
192,192,21201,1,2,0:0:0:0:
64,192,21201,128,0,21339:0:0:0:0:
320,192,21339,1,0,0:0:0:0:
448,192,21476,1,0,0:0:0:0:
192,192,21476,128,2,21614:0:0:0:0:
64,192,21752,1,8,0:0:0:50:
320,192,21752,1,0,0:0:0:0:
448,192,21752,1,0,0:0:0:0:
448,192,22027,1,0,0:0:0:0:
320,192,22096,1,0,0:0:0:0:
192,192,22165,1,0,0:0:0:0:
64,192,22233,1,0,0:0:0:0:
448,192,22302,1,0,0:0:0:0:
320,192,22302,128,2,22440:0:0:0:0:
192,192,22440,1,0,0:0:0:0:
448,192,22577,1,2,0:0:0:50:
64,192,22577,128,0,22715:0:0:0:0:
192,192,22853,1,2,0:0:0:0:
320,192,22853,128,0,22990:0:0:0:0:
448,192,22990,128,0,23128:0:0:0:0:
64,192,22990,1,2,0:0:0:0:
192,192,23128,128,2,23265:0:0:0:0:
320,192,23128,1,0,0:0:0:0:
448,192,23265,1,0,0:0:0:0:
64,192,23403,1,8,0:0:0:50:
320,192,23403,1,0,0:0:0:0:
192,192,23403,1,0,0:0:0:0:
64,192,23678,128,0,23954:0:0:0:50:bell.wav
192,192,23678,1,0,0:0:0:0:
448,192,23747,1,0,0:0:0:0:
320,192,23816,1,0,0:0:0:0:
192,192,23885,1,0,0:0:0:0:
320,192,23954,1,0,0:0:0:50:bell.wav
448,192,23954,128,2,24229:0:0:0:0:
64,192,24229,1,2,0:0:0:50:
320,192,24229,1,0,0:0:0:0:
448,192,24504,128,0,24642:0:0:0:0:
192,192,24504,1,0,0:0:0:0:
320,192,24642,128,0,24779:0:0:0:0:
448,192,24779,1,0,0:0:0:0:
192,192,24779,128,2,24917:0:0:0:0:
64,192,25054,1,8,0:0:0:50:
448,192,25054,1,0,0:0:0:0:
320,192,25054,1,0,0:0:0:0:
64,192,25330,1,0,0:0:0:0:
192,192,25398,1,0,0:0:0:0:
320,192,25467,1,0,0:0:0:0:
448,192,25536,1,0,0:0:0:0:
64,192,25605,1,0,0:0:0:0:
192,192,25605,128,2,25743:0:0:0:0:
320,192,25743,1,0,0:0:0:0:
64,192,25880,1,2,0:0:0:50:
448,192,25880,128,0,26018:0:0:0:0:
192,192,26155,128,0,26293:0:0:0:0:
64,192,26155,1,2,0:0:0:0:
448,192,26293,1,2,0:0:0:0:
320,192,26293,128,0,26431:0:0:0:0:
64,192,26431,1,2,0:0:0:0:
192,192,26431,128,0,26568:0:0:0:0:
64,192,26706,1,0,0:0:0:50:LR_Snare Hit Hard.wav
320,192,26706,1,0,0:0:0:0:
192,192,26706,1,0,0:0:0:0:
448,192,26706,1,0,0:0:0:0:
192,192,26981,1,0,0:0:0:80:bell.wav
64,192,26981,1,2,0:0:0:0:
448,192,27050,1,0,0:0:0:0:
192,192,27119,1,0,0:0:0:0:
320,192,27187,1,0,0:0:0:0:
64,192,27256,1,0,0:0:0:80:bell.wav
448,192,27256,1,2,0:0:0:0:
192,192,27325,1,0,0:0:0:0:
320,192,27394,1,0,0:0:0:0:
192,192,27463,1,0,0:0:0:0:
320,192,27532,1,4,0:0:0:50:
448,192,27532,1,2,0:0:0:50:
64,192,27532,1,0,0:0:0:0:
64,192,27807,1,2,0:0:0:0:
448,192,27807,128,0,27944:0:0:0:0:
320,192,28082,1,2,0:0:0:0:
64,192,28082,128,0,28220:0:0:0:0:
64,192,28357,1,8,0:0:0:50:
320,192,28357,1,0,0:0:0:0:
448,192,28357,1,0,0:0:0:0:
192,192,28632,1,0,0:0:0:0:
320,192,28701,1,0,0:0:0:0:
448,192,28770,1,0,0:0:0:0:
64,192,28839,1,0,0:0:0:0:
192,192,28908,1,0,0:0:0:0:
320,192,28908,128,2,29045:0:0:0:0:
448,192,29183,1,2,0:0:0:50:
64,192,29183,128,0,29321:0:0:0:0:
192,192,29321,1,0,0:0:0:0:
448,192,29458,128,2,29596:0:0:0:0:
320,192,29596,1,2,0:0:0:0:
64,192,29596,128,0,29733:0:0:0:0:
192,192,29733,1,2,0:0:0:0:
448,192,29733,128,0,29871:0:0:0:0:
64,192,30009,1,8,0:0:0:50:
320,192,30009,1,0,0:0:0:0:
448,192,30009,1,0,0:0:0:0:
192,192,30284,1,0,0:0:0:50:bell.wav
64,192,30284,128,2,30559:0:0:0:0:
448,192,30353,1,0,0:0:0:0:
320,192,30421,1,0,0:0:0:0:
192,192,30490,1,0,0:0:0:0:
320,192,30559,1,0,0:0:0:50:bell.wav
448,192,30559,128,2,30834:0:0:0:0:
320,192,30834,1,2,0:0:0:50:
64,192,30834,1,0,0:0:0:0:
192,192,30972,1,0,0:0:0:0:
448,192,31109,1,0,0:0:0:0:
64,192,31109,128,0,31247:0:0:0:0:
192,192,31247,128,0,31385:0:0:0:0:
320,192,31385,128,0,31522:0:0:0:0:
64,192,31385,1,2,0:0:0:0:
64,192,31660,1,8,0:0:0:50:
192,192,31660,1,0,0:0:0:0:
320,192,31660,1,0,0:0:0:0:
448,192,31935,1,0,0:0:0:0:
320,192,32004,1,0,0:0:0:0:
64,192,32073,1,0,0:0:0:0:
192,192,32142,1,0,0:0:0:0:
320,192,32210,1,0,0:0:0:0:
448,192,32210,128,2,32348:0:0:0:0:
320,192,32486,1,2,0:0:0:50:
64,192,32486,128,0,32623:0:0:0:0:
448,192,32761,1,2,0:0:0:0:
320,192,32761,128,0,32898:0:0:0:0:
64,192,32898,1,2,0:0:0:0:
192,192,32898,128,0,33036:0:0:0:0:
448,192,33036,1,2,0:0:0:0:
320,192,33036,128,0,33174:0:0:0:0:
64,192,33311,1,8,0:0:0:50:
320,192,33311,1,0,0:0:0:0:
448,192,33311,1,0,0:0:0:0:
64,192,33587,1,0,0:0:0:50:bell.wav
448,192,33587,1,0,0:0:0:0:
320,192,33655,1,0,0:0:0:0:
192,192,33724,1,0,0:0:0:0:
64,192,33793,1,0,0:0:0:0:
320,192,33862,1,0,0:0:0:50:bell.wav
448,192,33862,1,0,0:0:0:0:
192,192,33931,1,0,0:0:0:0:
64,192,33999,1,0,0:0:0:0:
320,192,34068,1,0,0:0:0:0:
192,192,34137,1,4,0:0:0:50:
64,192,34137,1,2,0:0:0:50:
448,192,34137,1,0,0:0:0:0:
64,192,34412,1,8,0:0:0:0:
320,192,34412,128,0,34550:0:0:0:0:
192,192,34550,1,8,0:0:0:0:
64,192,34687,1,0,0:0:0:0:
320,192,34687,1,8,0:0:0:0:
448,192,34825,1,0,0:0:0:0:
448,192,34963,1,0,0:0:0:50:LR_Snare Hit Hard.wav
192,192,34963,1,0,0:0:0:0:
64,192,34963,128,0,35788:0:0:0:0:
320,192,34963,1,0,0:0:0:0:
320,192,35238,1,8,0:0:0:0:
448,192,35513,1,8,0:0:0:0:
192,192,35513,1,0,0:0:0:0:
320,192,35651,1,0,0:0:0:0:
448,192,35788,1,2,0:0:0:50:
192,192,35788,1,0,0:0:0:0:
192,192,36064,1,8,0:0:0:0:
448,192,36201,128,0,36339:0:0:0:0:
64,192,36201,1,8,0:0:0:0:
320,192,36339,128,0,36476:0:0:0:0:
192,192,36339,1,8,0:0:0:0:
448,192,36614,1,8,0:0:0:50:
64,192,36614,128,0,36752:0:0:0:0:
192,192,36889,128,0,37165:0:0:0:50:bell.wav
448,192,36889,1,8,0:0:0:0:
320,192,37165,128,0,37440:0:0:0:50:bell.wav
64,192,37165,1,8,0:0:0:0:
192,192,37302,1,0,0:0:0:0:
64,192,37440,1,2,0:0:0:50:
448,192,37440,1,0,0:0:0:0:
192,192,37715,1,8,0:0:0:0:
448,192,37715,128,0,37853:0:0:0:0:
320,192,37853,128,0,37990:0:0:0:0:
64,192,37853,1,8,0:0:0:0:
448,192,37990,128,0,38128:0:0:0:0:
192,192,37990,1,8,0:0:0:0:
448,192,38265,1,8,0:0:0:50:
64,192,38265,128,0,39091:0:0:0:0:
320,192,38541,1,8,0:0:0:0:
448,192,38816,1,0,0:0:0:0:
192,192,38816,1,8,0:0:0:0:
320,192,38954,1,0,0:0:0:0:
192,192,39091,1,2,0:0:0:50:
448,192,39091,1,0,0:0:0:0:
64,192,39366,128,0,39504:0:0:0:0:
448,192,39366,1,8,0:0:0:0:
192,192,39504,128,0,39642:0:0:0:0:
320,192,39504,1,8,0:0:0:0:
64,192,39642,128,0,39779:0:0:0:0:
448,192,39642,1,8,0:0:0:0:
320,192,39779,1,0,0:0:0:0:
448,192,39779,1,0,0:0:0:0:
64,192,39917,1,0,0:0:0:50:LR_Snare Hit Hard.wav
320,192,39917,1,0,0:0:0:0:
448,192,39917,1,0,0:0:0:0:
192,192,39917,1,0,0:0:0:0:
448,192,40192,1,0,0:0:0:50:bell.wav
320,192,40192,1,8,0:0:0:0:
64,192,40261,1,0,0:0:0:0:
192,192,40330,1,0,0:0:0:0:
320,192,40398,1,0,0:0:0:0:
64,192,40467,1,0,0:0:0:50:bell.wav
448,192,40467,1,8,0:0:0:0:
192,192,40536,1,0,0:0:0:0:
320,192,40605,1,0,0:0:0:0:
192,192,40674,1,0,0:0:0:0:
64,192,40743,1,4,0:0:0:50:
320,192,40743,1,2,0:0:0:50:
448,192,40743,1,0,0:0:0:0:
320,192,41018,128,0,41155:0:0:0:0:
64,192,41018,1,8,0:0:0:0:
192,192,41155,1,8,0:0:0:0:
320,192,41293,1,8,0:0:0:0:
448,192,41293,128,0,41431:0:0:0:0:
192,192,41431,1,0,0:0:0:0:
320,192,41568,1,8,0:0:0:50:
64,192,41568,128,0,42394:0:0:0:0:
448,192,41843,1,8,0:0:0:0:
192,192,42119,128,8,42394:0:0:0:0:
320,192,42394,1,2,0:0:0:50:
448,192,42394,1,0,0:0:0:0:
64,192,42532,1,0,0:0:0:0:
448,192,42669,1,8,0:0:0:0:
192,192,42669,128,0,42807:0:0:0:0:
448,192,42807,128,0,42944:0:0:0:0:
320,192,42807,1,8,0:0:0:0:
64,192,42944,128,0,43082:0:0:0:0:
192,192,42944,1,8,0:0:0:0:
320,192,43082,1,0,0:0:0:0:
448,192,43220,1,8,0:0:0:50:
64,192,43220,1,0,0:0:0:0:
320,192,43495,1,0,0:0:0:50:bell.wav
64,192,43495,128,2,43770:0:0:0:0:
192,192,43770,1,0,0:0:0:50:bell.wav
448,192,43770,128,8,44045:0:0:0:0:
192,192,44045,1,2,0:0:0:50:
320,192,44045,1,4,0:0:0:50:
64,192,44045,1,0,0:0:0:0:
448,192,44321,1,8,0:0:0:50:
64,192,44321,1,0,0:0:0:0:
320,192,44321,1,0,0:0:0:0:
64,192,44458,1,2,0:0:0:50:
192,192,44458,1,0,0:0:0:0:
320,192,44596,128,8,44871:0:0:0:50:
192,192,44596,1,0,0:0:0:0:
448,192,44596,1,0,0:0:0:0:
64,192,44871,1,2,0:0:0:50:
192,192,44871,1,4,0:0:0:50:
448,192,44871,1,0,0:0:0:0:
320,192,45146,1,8,0:0:0:50:
448,192,45146,1,0,0:0:0:0:
64,192,45146,1,0,0:0:0:0:
192,192,45284,1,2,0:0:0:50:
64,192,45284,1,0,0:0:0:0:
448,192,45421,128,8,45697:0:0:0:50:
192,192,45421,1,0,0:0:0:0:
320,192,45421,1,0,0:0:0:0:
192,192,45697,1,2,0:0:0:50:
320,192,45697,1,4,0:0:0:50:
64,192,45697,1,0,0:0:0:0:
448,192,45972,1,8,0:0:0:50:
320,192,45972,1,0,0:0:0:0:
64,192,45972,1,0,0:0:0:0:
320,192,46109,1,2,0:0:0:50:
192,192,46109,1,0,0:0:0:0:
448,192,46247,128,0,46385:0:0:0:0:
64,192,46247,128,8,46385:0:0:0:0:
192,192,46247,1,0,0:0:0:0:
64,192,46522,1,4,0:0:0:50:
320,192,46522,1,8,0:0:0:50:
448,192,46522,1,0,0:0:0:0:
192,192,46798,1,8,0:0:0:50:
320,192,46798,1,0,0:0:0:0:
320,192,46935,1,2,0:0:0:50:
448,192,46935,1,0,0:0:0:0:
192,192,47073,1,8,0:0:0:50:
64,192,47073,1,0,0:0:0:0:
192,192,47210,1,2,0:0:0:50:
320,192,47210,1,0,0:0:0:0:
64,192,47348,1,0,0:0:0:50:LR_Snare Hit Hard.wav
448,192,47348,1,0,0:0:0:0:
192,192,47348,1,0,0:0:0:0:
320,192,47348,1,0,0:0:0:0:
192,192,47623,1,8,0:0:0:50:
448,192,47623,1,0,0:0:0:0:
192,192,47898,1,8,0:0:0:50:
448,192,47898,1,0,0:0:0:0:
192,192,48174,1,8,0:0:0:50:
448,192,48174,1,0,0:0:0:0:
64,192,48449,1,8,0:0:0:50:
320,192,48449,1,0,0:0:0:0:
192,192,48587,1,2,0:0:0:50:
320,192,48587,1,0,0:0:0:0:
192,192,48724,1,8,0:0:0:50:
448,192,48724,1,0,0:0:0:0:
64,192,48724,1,0,0:0:0:0:
320,192,48862,1,2,0:0:0:50:
64,192,48862,1,0,0:0:0:0:
192,192,48999,1,8,0:0:0:50:
448,192,48999,1,0,0:0:0:0:
320,192,48999,1,0,0:0:0:0:
448,192,49137,1,0,0:0:0:0:
64,192,49275,1,8,0:0:0:50:
192,192,49275,1,0,0:0:0:0:
64,192,49550,1,8,0:0:0:50:
192,192,49550,1,0,0:0:0:0:
192,192,49825,1,8,0:0:0:50:
448,192,49825,128,0,50100:0:0:0:0:
64,192,50100,1,8,0:0:0:50:
192,192,50100,1,0,0:0:0:0:
320,192,50169,1,0,0:0:0:0:
64,192,50238,1,2,0:0:0:50:
448,192,50238,1,0,0:0:0:0:
192,192,50307,1,0,0:0:0:0:
320,192,50376,1,8,0:0:0:50:
448,192,50376,1,0,0:0:0:0:
64,192,50376,1,0,0:0:0:0:
192,192,50444,1,0,0:0:0:0:
320,192,50513,1,2,0:0:0:50:
448,192,50513,1,0,0:0:0:0:
64,192,50582,1,0,0:0:0:0:
192,192,50651,1,8,0:0:0:50:
320,192,50651,1,0,0:0:0:0:
448,192,50651,1,0,0:0:0:0:
320,192,50926,1,8,0:0:0:50:
448,192,50926,1,0,0:0:0:0:
320,192,51201,1,8,0:0:0:50:
448,192,51201,1,0,0:0:0:0:
64,192,51476,1,8,0:0:0:50:
192,192,51476,1,0,0:0:0:0:
448,192,51545,1,0,0:0:0:0:
320,192,51614,1,0,0:0:0:0:
192,192,51683,1,0,0:0:0:0:
64,192,51752,1,8,0:0:0:50:
448,192,51752,1,0,0:0:0:0:
320,192,51889,1,2,0:0:0:50:
448,192,51889,1,0,0:0:0:0:
64,192,52027,1,8,0:0:0:50:
448,192,52027,1,0,0:0:0:0:
192,192,52027,1,0,0:0:0:0:
320,192,52165,1,2,0:0:0:50:
192,192,52165,1,0,0:0:0:0:
64,192,52302,1,8,0:0:0:50:
448,192,52302,1,0,0:0:0:40:bell.wav
320,192,52302,1,0,0:0:0:0:
192,192,52440,1,0,0:0:0:0:
64,192,52440,1,0,0:0:0:0:
320,192,52577,1,8,0:0:0:50:
448,192,52577,1,0,0:0:0:80:bell.wav
320,192,52853,1,8,0:0:0:50:
448,192,52853,1,0,0:0:0:80:bell.wav
192,192,53128,1,8,0:0:0:50:
64,192,53128,1,0,0:0:0:80:bell.wav
320,192,53197,1,0,0:0:0:0:
448,192,53265,1,0,0:0:0:0:
192,192,53334,1,0,0:0:0:0:
320,192,53403,1,8,0:0:0:50:
448,192,53403,1,0,0:0:0:0:
64,192,53403,1,0,0:0:0:80:bell.wav
192,192,53472,1,0,0:0:0:0:
64,192,53541,1,2,0:0:0:50:
448,192,53541,1,0,0:0:0:0:
320,192,53609,1,0,0:0:0:0:
64,192,53678,1,8,0:0:0:80:bell.wav
192,192,53678,1,8,0:0:0:0:
320,192,53747,1,0,0:0:0:0:
448,192,53816,1,2,0:0:0:50:
64,192,53816,1,0,0:0:0:0:
192,192,53885,1,0,0:0:0:0:
64,192,53954,1,4,0:0:0:50:
320,192,53954,1,2,0:0:0:50:
448,192,53954,1,0,0:0:0:0:
448,192,54229,1,8,0:0:0:50:
320,192,54229,1,0,0:0:0:0:
320,192,54504,1,8,0:0:0:50:
448,192,54504,1,0,0:0:0:0:
320,192,54779,1,8,0:0:0:50:
448,192,54779,1,0,0:0:0:0:
64,192,54848,1,0,0:0:0:0:
192,192,54917,1,0,0:0:0:0:
320,192,54986,1,0,0:0:0:0:
64,192,55054,1,8,0:0:0:50:
448,192,55054,1,0,0:0:0:0:
192,192,55192,1,2,0:0:0:50:
320,192,55192,1,0,0:0:0:0:
192,192,55330,1,8,0:0:0:50:
448,192,55330,1,0,0:0:0:0:
64,192,55330,1,0,0:0:0:0:
192,192,55467,1,8,0:0:0:0:
320,192,55467,1,0,0:0:0:0:
64,192,55605,1,2,0:0:0:50:
320,192,55605,1,4,0:0:0:50:
448,192,55605,1,0,0:0:0:0:
64,192,55880,1,8,0:0:0:50:
192,192,55880,1,0,0:0:0:0:
64,192,56155,1,8,0:0:0:50:
192,192,56155,1,0,0:0:0:0:
448,192,56431,1,8,0:0:0:50:
320,192,56431,1,0,0:0:0:0:
192,192,56499,1,0,0:0:0:0:
64,192,56568,1,0,0:0:0:0:
320,192,56637,1,0,0:0:0:0:
192,192,56706,1,8,0:0:0:50:
448,192,56706,1,0,0:0:0:0:
64,192,56775,1,0,0:0:0:0:
320,192,56843,1,2,0:0:0:0:
448,192,56843,1,0,0:0:0:0:
192,192,56912,1,0,0:0:0:0:
320,192,56981,1,8,0:0:0:50:
64,192,56981,1,0,0:0:0:0:
448,192,57050,1,0,0:0:0:0:
192,192,57119,1,2,0:0:0:50:
64,192,57119,1,0,0:0:0:0:
320,192,57187,1,0,0:0:0:0:
448,192,57256,1,4,0:0:0:50:
192,192,57256,1,2,0:0:0:50:
64,192,57256,1,0,0:0:0:50:bell.wav
320,192,57394,1,0,0:0:0:0:
64,192,57532,1,8,0:0:0:50:
448,192,57532,1,0,0:0:0:0:
192,192,57669,1,0,0:0:0:0:
64,192,57807,1,8,0:0:0:50:
448,192,57807,1,0,0:0:0:0:
320,192,57944,1,0,0:0:0:0:
64,192,58082,1,8,0:0:0:50:
192,192,58082,1,0,0:0:0:0:
448,192,58082,1,0,0:0:0:0:
320,192,58220,1,0,0:0:0:0:
64,192,58357,1,8,0:0:0:50:
192,192,58357,1,0,0:0:0:0:
448,192,58357,1,0,0:0:0:0:
192,192,58495,1,2,0:0:0:50:
320,192,58495,1,0,0:0:0:0:
64,192,58632,1,8,0:0:0:50:
320,192,58632,1,0,0:0:0:0:
448,192,58632,1,0,0:0:0:0:
64,192,58770,1,2,0:0:0:50:
192,192,58770,1,0,0:0:0:0:
448,192,58770,1,0,0:0:0:0:
64,192,58908,1,8,0:0:0:50:
192,192,58908,1,4,0:0:0:50:
448,192,58908,1,0,0:0:0:50:bell.wav
320,192,58908,1,0,0:0:0:0:
64,192,59733,128,0,59825:0:0:0:80:bell.wav
192,192,59825,128,0,59917:0:0:0:80:bell.wav
320,192,59917,128,0,60009:0:0:0:80:bell.wav
448,192,60009,128,0,60100:0:0:0:80:bell.wav
320,192,60100,128,0,60192:0:0:0:80:bell.wav
64,192,60192,128,0,60284:0:0:0:80:bell.wav
192,192,60284,128,0,60376:0:0:0:80:bell.wav
448,192,60376,128,0,60467:0:0:0:80:bell.wav
320,192,60467,128,0,60559:0:0:0:80:bell.wav
192,192,60559,128,0,60651:0:0:0:80:bell.wav
448,192,60651,128,0,60743:0:0:0:80:bell.wav
320,192,60743,128,0,60834:0:0:0:80:bell.wav
64,192,60834,1,4,0:0:0:50:
192,192,60834,1,2,0:0:0:50:
448,192,60834,1,0,0:0:0:0:
192,192,61109,1,2,0:0:0:50:
448,192,61109,1,0,0:0:0:0:
64,192,61384,1,8,0:0:0:50:
320,192,61384,1,0,0:0:0:0:
192,192,61384,1,0,0:0:0:0:
64,192,61659,1,2,0:0:0:50:
448,192,61659,128,0,61797:0:0:0:0:
192,192,61934,1,2,0:0:0:50:
320,192,61934,1,0,0:0:0:0:
64,192,62210,1,8,0:0:0:50:
448,192,62210,1,0,0:0:0:0:
192,192,62210,1,0,0:0:0:0:
320,192,62347,1,0,0:0:0:0:
64,192,62485,1,2,0:0:0:50:
448,192,62485,1,0,0:0:0:0:
320,192,62760,1,2,0:0:0:50:
448,192,62760,1,0,0:0:0:0:
64,192,62898,1,2,0:0:0:50:
192,192,62898,1,0,0:0:0:0:
64,192,63035,1,8,0:0:0:50:
320,192,63035,1,0,0:0:0:0:
448,192,63035,1,0,0:0:0:0:
192,192,63311,1,2,0:0:0:50:
320,192,63311,1,0,0:0:0:0:
64,192,63586,128,0,63723:0:0:0:80:bell.wav
320,192,63586,1,2,0:0:0:0:
448,192,63723,128,0,63861:0:0:0:80:bell.wav
192,192,63861,128,8,64136:0:0:0:50:
320,192,63861,1,0,0:0:0:80:bell.wav
64,192,63861,1,0,0:0:0:0:
320,192,64136,128,2,64274:0:0:0:50:
448,192,64136,1,0,0:0:0:80:bell.wav
192,192,64274,128,0,64411:0:0:0:80:bell.wav
448,192,64411,128,2,64549:0:0:0:50:
64,192,64411,1,0,0:0:0:80:bell.wav
320,192,64549,128,2,64687:0:0:0:50:
192,192,64549,1,0,0:0:0:80:bell.wav
64,192,64687,128,8,64824:0:0:0:50:
448,192,64687,1,0,0:0:0:0:
192,192,64687,1,0,0:0:0:80:bell.wav
320,192,64824,128,0,64962:0:0:0:80:bell.wav
192,192,64962,128,2,65100:0:0:0:50:
448,192,64962,1,0,0:0:0:80:bell.wav
64,192,65100,128,0,65237:0:0:0:80:bell.wav
192,192,65237,1,2,0:0:0:50:
448,192,65237,128,0,65375:0:0:0:80:bell.wav
64,192,65375,128,2,65512:0:0:0:50:
320,192,65375,1,0,0:0:0:80:bell.wav
192,192,65512,128,8,65650:0:0:0:50:
320,192,65512,1,0,0:0:0:80:bell.wav
448,192,65512,1,0,0:0:0:0:
64,192,65650,128,0,65788:0:0:0:80:bell.wav
448,192,65788,128,2,65925:0:0:0:50:
192,192,65788,1,0,0:0:0:80:bell.wav
192,192,65925,128,0,66063:0:0:0:80:bell.wav
320,192,66063,128,2,66200:0:0:0:50:
64,192,66063,1,0,0:0:0:80:bell.wav
192,192,66200,128,2,66338:0:0:0:50:
448,192,66200,1,0,0:0:0:80:bell.wav
448,192,66338,128,8,66476:0:0:0:50:
64,192,66338,1,0,0:0:0:80:bell.wav
320,192,66338,1,0,0:0:0:0:
192,192,66476,128,0,66613:0:0:0:80:bell.wav
64,192,66613,128,0,66889:0:0:0:80:bell.wav
320,192,66613,1,2,0:0:0:50:
320,192,66889,1,8,0:0:0:50:
448,192,66889,1,0,0:0:0:0:
64,192,66975,1,8,0:0:0:50:
192,192,66975,1,0,0:0:0:0:
448,192,67072,1,8,0:0:0:50:
320,192,67072,1,0,0:0:0:0:
192,192,67164,1,8,0:0:0:50:
64,192,67164,1,0,0:0:0:0:
64,192,67439,1,2,0:0:0:50:
320,192,67439,1,4,0:0:0:50:
448,192,67439,1,0,0:0:0:0:
192,192,67577,1,0,0:0:0:0:
64,192,67714,1,2,0:0:0:50:
320,192,67714,1,0,0:0:0:0:
448,192,67852,1,0,0:0:0:0:
64,192,67989,1,8,0:0:0:50:
192,192,67989,1,0,0:0:0:0:
320,192,67989,1,0,0:0:0:0:
192,192,68127,1,0,0:0:0:0:
320,192,68265,1,0,0:0:0:50:bell.wav
448,192,68265,128,2,68815:0:0:0:0:
192,192,68540,1,0,0:0:0:50:bell.wav
64,192,68540,128,2,68815:0:0:0:0:
192,192,68815,1,8,0:0:0:50:
320,192,68815,1,0,0:0:0:0:
64,192,69090,1,4,0:0:0:50:
192,192,69090,1,2,0:0:0:50:
448,192,69090,1,0,0:0:0:0:
192,192,69228,1,0,0:0:0:0:
320,192,69366,1,2,0:0:0:50:
448,192,69366,1,0,0:0:0:0:
64,192,69503,1,2,0:0:0:50:
192,192,69503,1,0,0:0:0:0:
64,192,69641,1,8,0:0:0:50:
320,192,69641,1,0,0:0:0:0:
448,192,69641,1,0,0:0:0:0:
192,192,69778,1,0,0:0:0:0:
64,192,69916,1,2,0:0:0:50:
448,192,69916,1,0,0:0:0:0:
192,192,70054,1,0,0:0:0:0:
64,192,70191,1,8,0:0:0:50:
320,192,70191,1,0,0:0:0:40:bell.wav
192,192,70283,1,8,0:0:0:50:
448,192,70283,1,0,0:0:0:0:
64,192,70375,1,8,0:0:0:50:
320,192,70375,1,0,0:0:0:0:
448,192,70467,1,8,0:0:0:50:
192,192,70467,1,0,0:0:0:0:
320,192,70742,1,2,0:0:0:50:
448,192,70742,1,4,0:0:0:50:
64,192,70742,128,0,70879:0:0:0:80:bell.wav
192,192,71017,1,2,0:0:0:50:
320,192,71017,1,0,0:0:0:0:
192,192,71155,1,2,0:0:0:50:
448,192,71155,1,0,0:0:0:0:
64,192,71292,1,8,0:0:0:50:
320,192,71292,1,0,0:0:0:0:
448,192,71292,1,0,0:0:0:0:
64,192,71567,1,2,0:0:0:50:
192,192,71567,1,4,0:0:0:50:
320,192,71567,128,0,71705:0:0:0:80:bell.wav
448,192,71843,1,2,0:0:0:50:
192,192,71843,128,0,71980:0:0:0:80:bell.wav
320,192,72118,1,8,0:0:0:50:
448,192,72118,1,0,0:0:0:0:
64,192,72118,128,0,72256:0:0:0:80:bell.wav
192,192,72393,1,2,0:0:0:50:
448,192,72393,128,4,72531:0:0:0:50:
320,192,72393,1,0,0:0:0:80:bell.wav
320,192,72668,1,2,0:0:0:50:
64,192,72668,128,0,72806:0:0:0:80:bell.wav
448,192,72944,1,2,0:0:0:50:
192,192,72944,128,0,73081:0:0:0:80:bell.wav
448,192,73219,128,0,73356:0:0:0:80:bell.wav
64,192,73219,128,2,73356:0:0:0:0:
320,192,73494,1,8,0:0:0:50:
448,192,73494,1,0,0:0:0:0:
64,192,73586,1,8,0:0:0:50:
192,192,73586,1,0,0:0:0:0:
448,192,73678,1,8,0:0:0:50:
320,192,73678,1,0,0:0:0:0:
64,192,73769,1,8,0:0:0:50:
192,192,73769,1,0,0:0:0:0:
320,192,73861,1,8,0:0:0:50:
448,192,73861,1,0,0:0:0:0:
64,192,73953,1,8,0:0:0:50:
192,192,73953,1,0,0:0:0:0:
64,192,74045,1,2,0:0:0:50:
320,192,74045,1,4,0:0:0:50:
448,192,74045,1,0,0:0:0:0:
192,192,74320,1,2,0:0:0:50:
448,192,74320,1,0,0:0:0:0:
320,192,74457,1,0,0:0:0:0:
64,192,74595,1,8,0:0:0:50:
192,192,74595,1,0,0:0:0:0:
448,192,74595,1,0,0:0:0:0:
448,192,74870,1,2,0:0:0:50:
64,192,74870,1,0,0:0:0:0:
320,192,75145,1,2,0:0:0:50:
192,192,75145,1,0,0:0:0:0:
64,192,75421,1,8,0:0:0:50:
320,192,75421,1,0,0:0:0:0:
448,192,75421,1,0,0:0:0:0:
192,192,75558,1,0,0:0:0:0:
64,192,75696,1,2,0:0:0:50:
320,192,75696,1,0,0:0:0:0:
192,192,75971,1,2,0:0:0:50:
448,192,75971,1,0,0:0:0:0:
64,192,76109,1,0,0:0:0:0:
192,192,76246,1,8,0:0:0:50:
320,192,76246,1,0,0:0:0:0:
448,192,76246,1,0,0:0:0:0:
64,192,76522,1,2,0:0:0:50:
320,192,76522,1,0,0:0:0:0:
192,192,76797,1,2,0:0:0:50:
448,192,76797,1,0,0:0:0:0:
448,192,76934,1,2,0:0:0:0:
192,192,76934,1,0,0:0:0:0:
64,192,77072,1,8,0:0:0:50:
192,192,77072,1,0,0:0:0:0:
448,192,77164,1,8,0:0:0:50:
320,192,77164,1,0,0:0:0:0:
64,192,77256,1,8,0:0:0:50:
192,192,77256,1,0,0:0:0:0:
64,192,77347,1,2,0:0:0:50:
320,192,77347,1,4,0:0:0:50:
448,192,77347,1,0,0:0:0:0:
192,192,77622,1,2,0:0:0:50:
448,192,77622,1,0,0:0:0:0:
320,192,77760,1,0,0:0:0:0:
64,192,77898,1,8,0:0:0:50:
192,192,77898,1,0,0:0:0:0:
448,192,77898,128,0,78035:0:0:0:0:
320,192,78173,1,4,0:0:0:50:
448,192,78173,1,2,0:0:0:50:
64,192,78173,128,0,78311:0:0:0:0:
320,192,78448,1,2,0:0:0:50:
192,192,78448,128,0,78586:0:0:0:0:
64,192,78723,1,8,0:0:0:50:
448,192,78723,1,0,0:0:0:0:
320,192,78723,1,0,0:0:0:0:
320,192,78861,1,0,0:0:0:0:
64,192,78999,1,2,0:0:0:50:
192,192,78999,1,4,0:0:0:50:
448,192,78999,1,0,0:0:0:0:
320,192,79274,1,8,0:0:0:50:
448,192,79274,128,0,79411:0:0:0:0:
192,192,79411,1,2,0:0:0:50:
64,192,79411,128,0,79549:0:0:0:0:
320,192,79549,1,8,0:0:0:50:
448,192,79549,128,0,79687:0:0:0:0:
320,192,79824,128,0,80100:0:0:0:0:
64,192,79824,1,2,0:0:0:50:
192,192,80100,1,8,0:0:0:50:
64,192,80100,1,0,0:0:0:0:
320,192,80191,1,8,0:0:0:0:
448,192,80191,1,0,0:0:0:50:
192,192,80283,1,8,0:0:0:50:
64,192,80283,1,0,0:0:0:0:
320,192,80375,1,8,0:0:0:50:
448,192,80375,1,0,0:0:0:0:
192,192,80512,1,0,0:0:0:0:
64,192,80650,1,2,0:0:0:50:
320,192,80650,1,4,0:0:0:50:
448,192,80650,128,0,80788:0:0:0:0:
320,192,80788,128,0,80925:0:0:0:0:
64,192,80925,128,2,81063:0:0:0:50:
192,192,80925,1,0,0:0:0:0:
448,192,81063,128,2,81200:0:0:0:50:
320,192,81063,1,0,0:0:0:0:
64,192,81200,1,8,0:0:0:50:
320,192,81200,128,0,81338:0:0:0:0:
192,192,81200,1,0,0:0:0:0:
192,192,81338,128,0,81476:0:0:0:0:
448,192,81476,128,2,82026:0:0:0:50:
320,192,81476,1,0,0:0:0:0:
64,192,81751,128,0,82026:0:0:0:50:bell.wav
192,192,81751,1,2,0:0:0:0:
192,192,82026,1,8,0:0:0:50:
320,192,82026,1,0,0:0:0:50:bell.wav
320,192,82301,1,2,0:0:0:50:
448,192,82301,1,4,0:0:0:50:
64,192,82301,128,0,82439:0:0:0:0:
192,192,82439,128,0,82577:0:0:0:0:
448,192,82577,128,2,82714:0:0:0:50:
320,192,82577,1,0,0:0:0:0:
320,192,82714,1,0,0:0:0:0:
64,192,82714,128,2,82852:0:0:0:50:
192,192,82852,128,0,82989:0:0:0:0:
448,192,82852,1,8,0:0:0:0:
64,192,82989,128,0,83127:0:0:0:0:
448,192,83127,128,2,83265:0:0:0:50:
192,192,83127,1,0,0:0:0:0:
320,192,83265,128,0,83402:0:0:0:0:
192,192,83402,1,8,0:0:0:50:
64,192,83402,1,0,0:0:0:0:
448,192,83494,1,8,0:0:0:50:
320,192,83494,1,0,0:0:0:0:
64,192,83586,1,8,0:0:0:50:
192,192,83586,1,0,0:0:0:0:
448,192,83678,1,2,0:0:0:50:
320,192,83678,1,0,0:0:0:0:
64,192,83953,1,2,0:0:0:50:
320,192,83953,1,4,0:0:0:50:
448,192,83953,128,0,84090:0:0:0:0:
192,192,84090,128,0,84228:0:0:0:0:
64,192,84228,128,2,84366:0:0:0:50:
320,192,84228,1,0,0:0:0:0:
448,192,84366,128,2,84503:0:0:0:50:
192,192,84366,1,0,0:0:0:0:
192,192,84503,128,8,84641:0:0:0:50:
64,192,84503,1,0,0:0:0:0:
320,192,84503,1,0,0:0:0:0:
320,192,84641,128,0,84778:0:0:0:0:
64,192,84778,1,4,0:0:0:50:
448,192,84778,128,2,84916:0:0:0:50:
192,192,84778,1,0,0:0:0:0:
320,192,85054,1,2,0:0:0:50:
64,192,85054,128,0,85191:0:0:0:40:bell.wav
448,192,85329,1,8,0:0:0:50:
192,192,85329,128,0,85467:0:0:0:40:bell.wav
320,192,85329,1,0,0:0:0:0:
320,192,85604,1,2,0:0:0:50:
448,192,85604,1,4,0:0:0:50:
64,192,85604,128,0,85742:0:0:0:40:bell.wav
192,192,85879,1,8,0:0:0:50:
448,192,85879,1,0,0:0:0:0:
320,192,85879,1,0,0:0:0:80:bell.wav
64,192,86155,1,8,0:0:0:50:
320,192,86155,1,0,0:0:0:0:
192,192,86155,1,0,0:0:0:80:bell.wav
320,192,86430,1,8,0:0:0:50:
448,192,86430,1,0,0:0:0:0:
64,192,86430,1,0,0:0:0:80:bell.wav
192,192,86430,1,0,0:0:0:0:
448,192,86613,128,0,86705:0:0:0:80:bell.wav
192,192,86705,128,0,86797:0:0:0:80:bell.wav
320,192,86797,128,0,86889:0:0:0:80:bell.wav
448,192,86889,128,0,86980:0:0:0:80:bell.wav
64,192,86980,128,0,87072:0:0:0:80:bell.wav
192,192,87072,128,0,87164:0:0:0:80:bell.wav
320,192,87164,128,0,87256:0:0:0:80:bell.wav
64,192,87256,1,4,0:0:0:50:
448,192,87256,128,0,87393:0:0:0:80:bell.wav
192,192,87531,1,0,0:0:0:0:
320,192,87806,1,0,0:0:0:0:
448,192,88081,1,0,0:0:0:0:
64,192,88356,1,0,0:0:0:0:
192,192,88632,1,0,0:0:0:0:
320,192,88907,1,0,0:0:0:0:
448,192,89182,1,0,0:0:0:0:
64,192,89457,1,0,0:0:0:0:
192,192,89733,1,0,0:0:0:0:
320,192,90008,1,0,0:0:0:0:
448,192,90283,1,0,0:0:0:0:
64,192,90558,128,0,90696:0:0:0:0:
320,192,90558,128,0,90696:0:0:0:0:
192,192,90833,1,0,0:0:0:0:
320,192,91109,1,0,0:0:0:0:
448,192,91384,1,0,0:0:0:0:
64,192,91659,1,0,0:0:0:0:
192,192,91934,1,0,0:0:0:0:
320,192,92210,1,0,0:0:0:0:
448,192,92485,1,0,0:0:0:0:
64,192,92760,1,0,0:0:0:0:
192,192,93035,1,0,0:0:0:0:
320,192,93311,1,0,0:0:0:0:
448,192,93586,1,0,0:0:0:0:
320,192,93861,128,0,93999:0:0:0:0:
192,192,93861,128,0,93999:0:0:0:0:
64,192,94136,1,0,0:0:0:0:
192,192,94411,1,0,0:0:0:0:
320,192,94687,1,0,0:0:0:0:
64,192,94962,1,0,0:0:0:0:
192,192,95237,1,0,0:0:0:0:
320,192,95512,1,0,0:0:0:0:
448,192,95788,1,0,0:0:0:0:
64,192,96063,1,0,0:0:0:0:
192,192,96338,1,0,0:0:0:0:
320,192,96613,1,0,0:0:0:0:
448,192,96889,1,0,0:0:0:0:
448,192,97164,128,0,97301:0:0:0:0:
320,192,97164,1,0,0:0:0:0:
64,192,97439,1,0,0:0:0:0:
192,192,97714,1,0,0:0:0:0:
320,192,97989,1,0,0:0:0:0:
64,192,98265,1,0,0:0:0:0:
192,192,98540,1,0,0:0:0:0:
320,192,98815,1,0,0:0:0:0:
448,192,99090,1,0,0:0:0:0:
64,192,99366,1,0,0:0:0:0:
192,192,99641,1,0,0:0:0:0:
320,192,99916,1,0,0:0:0:0:
448,192,100191,1,0,0:0:0:0:
