osu file format v12

[General]
AudioFilename: Twinkle Wonderland.mp3
AudioLeadIn: 1500
PreviewTime: 11165
Countdown: 0
SampleSet: Soft
StackLeniency: 0.7
Mode: 0
LetterboxInBreaks: 1

[Editor]
DistanceSpacing: 1.2
BeatDivisor: 4
GridSize: 4

[Metadata]
Title:Twinkle Wonderland
TitleUnicode:Twinkle Wonderland
Artist:Qrispy Joybox feat. Sana
ArtistUnicode:Qrispy Joybox feat. Sana
Creator:MerryGate
Version:EXTRA
Source:REFLEC BEAT limelight
Tags:pop'n music 20 fantasia jubeat saucer konami bemani iyama tatsuya
BeatmapID:231307
BeatmapSetID:83836

[Difficulty]
HPDrainRate:6
CircleSize:4
OverallDifficulty:8
ApproachRate:9
SliderMultiplier:1.76
SliderTickRate:2

[Events]
//Background and Video events
0,0,"BG.jpg",0,0
//Break Periods
2,63546,66735
//Storyboard Layer 0 (Background)
//Storyboard Layer 1 (Fail)
//Storyboard Layer 2 (Pass)
//Storyboard Layer 3 (Foreground)
//Storyboard Sound Samples
//Background Colour Transformations
3,100,163,162,255

[TimingPoints]
953,319.148936170213,4,2,1,50,1,0
953,-133.333333333333,4,2,1,50,0,0
4224,-133.333333333333,4,2,1,30,0,0
4304,-133.333333333333,4,2,1,50,0,0
4543,-133.333333333333,4,2,1,30,0,0
4623,-133.333333333333,4,2,1,50,0,0
4942,-133.333333333333,4,1,0,35,0,0
6059,-133.333333333333,4,2,1,50,0,0
8612,-133.333333333333,4,2,1,60,0,0
9250,-133.333333333333,4,2,1,50,0,0
10048,-133.333333333333,4,2,3,65,0,0
10288,-133.333333333333,4,2,3,30,0,0
10367,-100,4,2,3,70,0,0
10607,-100,4,2,3,30,0,0
10687,-80,4,2,3,75,0,0
11165,-100,4,2,1,80,0,0
18825,-100,4,2,1,65,0,0
19942,-100,4,2,1,45,0,0
20740,-100,4,2,1,55,0,0
21059,-100,4,2,1,60,0,0
21378,-100,4,2,1,65,0,0
26006,-133.333333333333,4,2,1,65,0,0
26325,-100,4,2,1,65,0,0
30155,-100,4,2,1,55,0,0
30793,-100,4,2,1,60,0,0
31591,-100,4,2,2,65,0,0
40208,-133.333333333333,4,2,1,55,0,0
40687,-100,4,2,1,60,0,0
40846,-100,4,2,3,60,0,0
41165,-80,4,2,1,65,0,0
41325,-80,4,2,3,65,0,0
41804,-100,4,2,1,70,0,0
45873,-100,4,2,1,30,0,0
45953,-100,4,2,1,70,0,0
46351,-100,4,2,1,30,0,0
46431,-100,4,2,1,70,0,0
50899,-133.333333333333,4,2,3,60,0,0
52016,-100,4,2,2,65,0,0
63346,-100,4,2,1,45,0,0
67335,-100,4,2,1,50,0,0
69889,-133.333333333333,4,2,1,60,0,0
70527,-133.333333333333,4,2,1,50,0,0
71325,-133.333333333333,4,2,3,65,0,0
71564,-133.333333333333,4,2,3,30,0,0
71644,-100,4,2,3,70,0,0
71883,-100,4,2,3,30,0,0
71963,-80,4,2,3,75,0,0
72442,-100,4,2,1,80,0,1
81697,-100,4,1,0,55,0,1
82575,-100,4,1,0,55,0,0
82655,-80,4,2,1,80,0,1
90314,-100,4,2,1,70,0,1
90793,-100,4,2,1,60,0,1
91431,-100,4,2,1,40,0,0
95421,-100,4,2,3,75,0,0

[Colours]
Combo1 : 255,255,128
Combo2 : 255,169,128
Combo3 : 128,191,255
Combo4 : 191,255,128

[HitObjects]
293,46,953,1,6,0:0:0:0:
317,129,1112,1,2,0:0:0:0:
256,192,1272,1,2,0:0:0:0:
171,171,1431,1,2,0:0:0:0:
171,171,1750,1,2,0:0:0:0:
317,129,1910,1,2,0:0:0:0:
280,276,2070,1,6,0:0:0:0:
136,268,2389,5,2,0:0:0:0:
136,268,2468,1,2,0:0:0:0:
136,268,2548,2,0,L|104:280,2,33.0000012588501,2|2|2,0:0|0:0|0:0,0:0:0:0:
168,186,2868,1,2,0:0:0:0:
205,323,3027,1,2,0:0:0:0:
256,192,3187,1,2,0:0:0:0:
280,277,3346,1,2,0:0:0:0:
340,212,3506,2,0,P|400:188|452:224,1,132.000005035401,6|0,0:0|0:0,0:0:0:0:
340,212,3984,2,0,B|328:160|328:160|348:116,1,99.0000037765504,2|0,0:0|0:0,0:0:0:0:
352,80,4304,2,0,P|312:52|264:56,1,99.0000037765504,2|0,0:0|0:0,0:0:0:0:
232,80,4623,1,4,0:0:0:0:
120,228,4942,6,0,L|100:256,13,33.0000012588501,0|0|0|0|0|0|0|0|0|0|0|0|0|0,0:0|0:0|0:0|0:0|0:0|0:0|0:0|0:0|0:0|0:0|0:0|0:0|0:0|0:0,0:0:0:0:
92,288,6059,6,0,P|112:316|140:332,1,66.0000025177003,6|0,0:0|0:0,0:0:0:0:
220,292,6378,1,2,0:0:0:0:
300,332,6538,1,2,0:0:0:0:
300,332,6857,1,2,0:0:0:0:
368,196,7016,1,2,0:0:0:0:
216,204,7176,1,6,0:0:0:0:
70,175,7495,5,2,0:0:0:0:
102,180,7574,1,2,0:0:0:0:
133,171,7654,1,2,0:0:0:0:
157,149,7734,1,2,0:0:0:0:
169,118,7814,1,2,0:0:0:0:
86,87,7974,1,2,0:0:0:0:
50,259,8133,1,2,0:0:0:0:
216,204,8293,2,0,P|250:195|282:195,1,66.0000025177003,2|2,0:0|0:0,0:0:0:0:
352,228,8612,5,4,0:0:0:0:
344,236,9250,1,4,0:0:0:0:
224,272,10048,6,0,B|180:268|164:224|164:224|148:228,1,99.0000037765504,8|0,0:0|0:0,0:0:0:0:
140,232,10367,2,0,B|204:228|220:160|220:160|236:164,1,132,8|0,0:0|0:0,0:0:0:0:
240,168,10687,2,0,B|136:160|116:60|116:60|148:36,1,220,12|0,0:0|0:0,0:0:0:0:
256,20,11165,5,4,0:0:0:0:
364,32,11325,1,0,0:0:0:0:
300,120,11484,1,10,0:0:0:0:
256,20,11644,1,0,0:0:0:0:
364,32,11804,2,0,P|394:61|405:105,1,88,2|0,0:0|0:0,0:0:0:0:
364,208,12123,1,8,0:0:0:0:
216,120,12282,2,0,P|256:108|300:120,1,88,2|0,0:0|0:0,0:0:0:0:
136,212,12601,2,0,P|105:182|94:138,1,88,2|8,0:0|0:0,0:0:0:0:
44,292,12921,2,0,P|75:318|120:324,1,88,2|0,0:0|0:0,0:0:0:0:
208,324,13240,1,6,0:0:0:0:
240,168,13399,1,8,0:0:0:0:
360,276,13559,1,2,0:0:0:0:
180,236,13718,5,4,0:0:0:0:
332,188,13878,1,0,0:0:0:0:
300,344,14037,1,10,0:0:0:0:
180,236,14197,1,0,0:0:0:0:
300,104,14357,2,0,P|305:58|294:18,2,88,2|0|8,0:0|0:0|0:0,0:0:0:0:
240,168,14835,2,0,P|194:172|151:160,1,88,6|0,0:0|0:0,0:0:0:0:
76,116,15155,1,0,0:0:0:0:
8,168,15314,1,8,0:0:0:0:
148,64,15474,2,0,P|193:59|236:71,1,88,2|0,0:0|0:0,0:0:0:0:
412,200,15793,2,0,P|332:236|248:220,1,176,6|2,0:0|0:0,0:0:0:0:
308,72,16272,5,4,0:0:0:0:
360,144,16431,1,0,0:0:0:0:
360,144,16591,2,0,P|320:156|272:152,1,88,10|0,0:0|0:0,0:0:0:0:
92,184,16910,2,0,P|132:172|180:176,1,88,2|0,0:0|0:0,0:0:0:0:
272,296,17229,1,10,0:0:0:0:
356,328,17389,2,0,P|396:340|444:336,1,88,2|0,0:0|0:0,0:0:0:0:
272,296,17708,2,0,P|241:324|221:368,1,88,2|8,0:0|0:0,0:0:0:0:
340,240,18027,2,0,P|330:199|302:159,1,88,2|0,0:0|0:0,0:0:0:0:
225,121,18346,1,2,0:0:0:0:
125,241,18506,1,8,0:0:0:0:
141,153,18665,1,0,0:0:0:0:
209,213,18825,6,0,B|260:268|340:240|340:240|332:276,1,176,6|0,0:0|0:0,0:0:0:0:
288,156,19304,2,0,P|304:116|340:92,2,88,2|0|0,0:0|0:0|0:0,0:0:0:0:
372,176,19782,1,0,0:0:0:0:
372,176,19942,1,4,0:0:0:0:
256,192,20022,12,4,21378,0:0:0:0:
404,256,21697,6,0,P|364:272|320:272,1,88,10|0,0:0|0:0,0:0:0:0:
236,240,22016,1,2,0:0:0:0:
192,164,22176,1,2,0:0:0:0:
220,80,22335,1,10,0:0:0:0:
200,172,22495,2,0,P|168:248|84:256,1,176,6|2,0:0|0:0,0:0:0:0:
12,96,22974,2,0,P|44:64|84:48,1,88,8|0,0:0|0:0,0:0:0:0:
100,152,23293,1,2,0:0:0:0:
100,152,23453,1,2,0:0:0:0:
12,208,23612,2,0,P|44:240|84:256,1,88,10|2,0:0|0:0,0:0:0:0:
220,144,23931,5,6,0:0:0:0:
164,216,24091,1,2,0:0:0:0:
216,284,24250,2,0,P|248:316|288:332,1,88,10|0,0:0|0:0,0:0:0:0:
376,320,24570,1,2,0:0:0:0:
436,256,24729,1,2,0:0:0:0:
377,342,24889,1,10,0:0:0:0:
434,233,25048,2,0,P|432:152|360:96,1,176,6|2,0:0|0:0,0:0:0:0:
164,216,25527,2,0,P|208:208|240:180,1,88,10|2,0:0|0:0,0:0:0:0:
96,124,25846,1,2,0:0:0:0:
76,136,25926,1,0,0:0:0:0:
64,152,26006,2,0,P|40:212|64:272,1,132.000005035401,4|2,0:0|0:0,0:0:0:0:
208,304,26484,6,0,P|191:345|156:372,1,88,6|2,0:0|0:0,0:0:0:0:
164,216,26804,2,0,P|206:203|249:214,1,88,10|0,0:0|0:0,0:0:0:0:
296,288,27123,1,2,0:0:0:0:
120,292,27282,1,2,0:0:0:0:
204,136,27442,1,10,0:0:0:0:
288,148,27601,2,0,B|344:164|392:132|392:132|428:124|456:144,1,176,6|2,0:0|0:0,0:0:0:0:
492,224,28080,1,8,0:0:0:0:
376,224,28240,1,0,0:0:0:0:
328,76,28399,1,2,0:0:0:0:
328,76,28559,1,2,0:0:0:0:
240,60,28718,2,0,P|196:52|156:68,1,88,10|0,0:0|0:0,0:0:0:0:
100,136,29038,5,6,0:0:0:0:
72,304,29197,1,2,0:0:0:0:
193,184,29357,1,10,0:0:0:0:
25,211,29516,1,2,0:0:0:0:
176,287,29676,1,2,0:0:0:0:
36,212,29836,1,2,0:0:0:0:
184,188,29995,1,10,0:0:0:0:
112,224,30155,5,6,0:0:0:0:
300,52,30474,1,6,0:0:0:0:
356,300,30793,1,6,0:0:0:0:
356,300,31112,2,0,B|300:316|252:284|252:284|216:276|188:296,1,176,2|2,0:0|0:0,0:0:0:0:
232,372,31591,5,8,0:0:0:0:
312,232,31750,1,8,0:0:0:0:
204,112,31910,2,0,P|164:88|124:88,1,88,0|8,0:0|0:0,0:0:0:0:
308,152,32229,2,0,B|272:156|248:184|248:184|196:208|144:176,1,176,8|8,0:0|0:0,0:0:0:0:
204,112,32708,1,8,0:0:0:0:
196,120,33027,1,2,0:0:0:0:
120,144,33187,1,2,0:0:0:0:
52,100,33346,1,2,0:0:0:0:
48,20,33506,1,2,0:0:0:0:
156,76,33665,1,2,0:0:0:0:
180,196,33825,1,2,0:0:0:0:
92,280,33984,1,2,0:0:0:0:
12,244,34144,6,0,P|-4:204|0:160,1,88,8|8,0:0|0:0,0:0:0:0:
84,192,34463,1,0,0:0:0:0:
20,332,34623,1,8,0:0:0:0:
172,324,34782,2,0,P|245:282|248:198,1,176,8|8,0:0|0:0,0:0:0:0:
156,76,35261,2,0,P|188:108|228:116,1,88,8|0,0:0|0:0,0:0:0:0:
316,100,35580,1,0,0:0:0:0:
304,12,35740,1,0,0:0:0:0:
224,40,35899,1,2,0:0:0:0:
140,295,36218,1,2,0:0:0:0:
403,240,36538,1,2,0:0:0:0:
326,204,36697,6,0,P|284:192|240:204,1,88,8|8,0:0|0:0,0:0:0:0:
140,295,37016,1,0,0:0:0:0:
403,240,37176,2,0,P|412:196|400:156,1,88,8|8,0:0|0:0,0:0:0:0:
252,129,37495,1,0,0:0:0:0:
360,308,37655,2,0,P|402:320|446:308,1,88,8|8,0:0|0:0,0:0:0:0:
232,52,38133,1,2,0:0:0:0:
252,129,38293,1,2,0:0:0:0:
176,149,38453,1,2,0:0:0:0:
156,73,38612,1,2,0:0:0:0:
340,123,38772,1,2,0:0:0:0:
290,304,38932,1,2,0:0:0:0:
110,255,39091,1,2,0:0:0:0:
110,255,39250,6,0,L|200:224,1,88,8|0,0:0|0:0,0:0:0:0:
280,240,39570,1,0,0:0:0:0:
324,164,39729,2,0,P|352:128|392:112,2,88,8|8|0,0:0|0:0|0:0,0:0:0:0:
404,200,40208,6,0,P|460:228|464:292,1,132.000005035401,6|0,0:0|0:0,0:0:0:0:
324,164,40687,2,0,P|292:88|356:36,1,176,6|0,0:0|0:0,0:0:0:0:
332,248,41165,2,0,P|272:332|180:292,1,220,6|0,0:0|0:0,0:0:0:0:
128,84,41804,6,0,B|184:68|232:100|232:100|268:108|296:88,1,176,4|8,0:0|0:0,0:0:0:0:
256,12,42282,1,0,0:0:0:0:
168,164,42442,2,0,P|156:208|168:248,1,88,0|0,0:0|0:0,0:0:0:0:
256,348,42761,1,8,0:0:0:0:
344,248,42921,2,0,P|356:208|344:164,1,88,0|0,0:0|0:0,0:0:0:0:
256,12,43240,1,0,0:0:0:0:
212,108,43399,2,0,P|255:116|299:108,1,88,10|0,0:0|0:0,0:0:0:0:
112,76,43718,1,0,0:0:0:0:
64,172,43878,2,0,P|75:215|103:246,1,88,2|8,0:0|0:0,0:0:0:0:
168,164,44197,1,0,0:0:0:0:
44,308,44357,6,0,B|89:340|138:324|138:324|179:323|209:346,1,176,4|8,0:0|0:0,0:0:0:0:
284,300,44835,1,0,0:0:0:0:
440,228,44995,2,0,L|352:240,1,88,2|0,0:0|0:0,0:0:0:0:
268,212,45314,1,8,0:0:0:0:
196,160,45474,1,2,0:0:0:0:
108,152,45633,2,0,P|52:184|40:248,1,132,0|8,0:0|0:0,0:0:0:0:
56,288,45953,1,8,0:0:0:0:
216,348,46112,2,0,P|272:316|284:252,1,132,2|0,0:0|0:0,0:0:0:0:
268,212,46431,2,0,P|304:136|388:128,1,176,4|0,0:0|0:0,0:0:0:0:
356,212,46910,6,0,P|300:148|324:64,1,176,4|8,0:0|0:0,0:0:0:0:
388,128,47389,1,0,0:0:0:0:
216,172,47548,2,0,P|171:176|128:164,1,88
188,44,47867,1,8,0:0:0:0:
288,132,48027,2,0,P|292:176|280:219,1,88,2|0,0:0|0:0,0:0:0:0:
212,272,48346,1,0,0:0:0:0:
104,195,48506,1,10,0:0:0:0:
91,327,48665,1,0,0:0:0:0:
256,360,48825,1,0,0:0:0:0:
421,327,48984,1,4,0:0:0:0:
408,195,49143,1,8,0:0:0:0:
300,272,49304,1,0,0:0:0:0:
300,272,49463,6,0,P|368:224|372:136,1,176,4|8,0:0|0:0,0:0:0:0:
288,180,49942,1,0,0:0:0:0:
300,272,50101,2,0,P|332:300|376:308,1,88,2|0,0:0|0:0,0:0:0:0:
440,248,50421,1,8,0:0:0:0:
370,138,50580,1,6,0:0:0:0:
370,138,50899,2,0,B|316:137|285:183|285:183|256:224|201:220,1,198.000007553101,6|0,0:0|0:0,0:0:0:0:
48,80,52016,5,8,0:0:0:0:
48,80,52176,2,0,P|88:60|132:56,1,88,8|0,0:0|0:0,0:0:0:0:
256,96,52495,1,8,0:0:0:0:
380,136,52655,2,0,P|422:131|462:111,1,88,8|0,0:0|0:0,0:0:0:0:
392,32,52974,1,8,0:0:0:0:
380,136,53133,2,0,P|368:220|424:284,1,176,8|2,0:0|0:0,0:0:0:0:
444,196,53612,1,2,0:0:0:0:
336,316,53772,1,2,0:0:0:0:
280,216,53931,1,2,0:0:0:0:
220,316,54091,2,0,P|180:332|136:332,1,88,2|2,0:0|0:0,0:0:0:0:
64,284,54410,1,2,0:0:0:0:
120,136,54570,5,8,0:0:0:0:
120,136,54729,2,0,P|160:120|188:84,1,88,8|0,0:0|0:0,0:0:0:0:
304,20,55048,1,8,0:0:0:0:
436,32,55208,2,0,P|476:48|500:84,2,88,8|0|8,0:0|0:0|0:0,0:0:0:0:
416,116,55687,2,0,P|440:196|384:264,1,176,8|0,0:0|0:0,0:0:0:0:
256,228,56165,1,0,0:0:0:0:
156,264,56325,1,2,0:0:0:0:
140,268,56644,1,2,0:0:0:0:
124,272,56963,1,2,0:0:0:0:
100,360,57123,6,0,L|184:336,1,88,8|8,0:0|0:0,0:0:0:0:
256,284,57442,1,0,0:0:0:0:
100,196,57601,2,0,L|184:172,1,88,8|8,0:0|0:0,0:0:0:0:
256,120,57920,1,0,0:0:0:0:
328,172,58080,2,0,P|368:188|412:184,2,88,8|8|0,0:0|0:0|0:0,0:0:0:0:
184,68,58559,2,0,P|144:52|100:56,1,88,2|2,0:0|0:0,0:0:0:0:
16,184,58878,2,0,P|56:200|100:196,1,88,2|2,0:0|0:0,0:0:0:0:
180,156,59197,1,2,0:0:0:0:
92,288,59357,1,2,0:0:0:0:
168,244,59516,1,2,0:0:0:0:
240,292,59676,6,0,P|275:310|324:309,1,88,8|8,0:0|0:0,0:0:0:0:
452,272,59995,1,0,0:0:0:0:
468,184,60155,2,0,P|432:202|383:201,1,88,8|8,0:0|0:0,0:0:0:0:
256,164,60474,1,0,0:0:0:0:
128,128,60633,2,0,P|80:127|45:145,2,88,14|2|2,0:0|0:0|0:0,0:0:0:0:
224,36,61112,1,6,0:0:0:0:
256,192,61192,12,0,63346,0:0:0:0:
256,192,67335,12,0,69570,0:0:0:0:
120,144,69889,5,4,0:0:0:0:
124,152,70527,1,4,0:0:0:0:
142,315,71325,6,0,B|186:318|209:278|209:278|224:284,1,99.0000037765504,8|0,0:0|0:0,0:0:0:0:
137,318,71644,2,0,P|127:255|175:215,1,132,8|0,0:0|0:0,0:0:0:0:
133,322,71963,2,0,P|70:239|126:151,1,220,12|0,0:0|0:0,0:0:0:0:
232,128,72442,5,4,0:0:0:0:
328,180,72601,1,0,0:0:0:0:
328,180,72761,2,0,P|344:220|380:248,1,88,10|0,0:0|0:0,0:0:0:0:
428,132,73080,2,0,P|412:92|376:64,1,88,2|0,0:0|0:0,0:0:0:0:
232,128,73399,1,8,0:0:0:0:
192,276,73559,2,0,P|229:302|270:304,1,88,2|0,0:0|0:0,0:0:0:0:
92,168,73878,2,0,P|50:187|28:221,1,88,2|8,0:0|0:0,0:0:0:0:
232,128,74197,2,0,P|236:82|217:46,1,88,2|0,0:0|0:0,0:0:0:0:
148,100,74516,1,6,0:0:0:0:
104,252,74676,1,8,0:0:0:0:
148,100,74835,1,2,0:0:0:0:
256,212,74995,5,4,0:0:0:0:
300,60,75155,1,0,0:0:0:0:
408,172,75314,2,0,P|438:200|452:243,1,88,10|0,0:0|0:0,0:0:0:0:
300,372,75633,2,0,P|270:341|256:298,1,88,2|0,0:0|0:0,0:0:0:0:
256,212,75953,1,8,0:0:0:0:
255,122,76112,2,0,P|255:78|236:40,2,88,6|0|0,0:0|0:0|0:0,0:0:0:0:
256,212,76591,1,8,0:0:0:0:
124,288,76750,2,0,P|84:308|40:308,1,88,2|0,0:0|0:0,0:0:0:0:
73,62,77070,2,0,P|152:24|236:40,1,176,6|2,0:0|0:0,0:0:0:0:
448,116,77548,6,0,P|434:156|403:189,1,88,4|0,0:0|0:0,0:0:0:0:
386,274,77867,2,0,P|398:316|427:347,1,88,10|0,0:0|0:0,0:0:0:0:
320,216,78187,2,0,P|276:205|235:214,1,88,2|0,0:0|0:0,0:0:0:0:
168,272,78506,1,10,0:0:0:0:
300,140,78665,2,0,P|308:96|304:52,1,88,2|0,0:0|0:0,0:0:0:0:
108,78,78984,2,0,P|132:116|168:139,1,88,2|8,0:0|0:0,0:0:0:0:
168,272,79304,2,0,P|124:260|80:264,1,88,2|0,0:0|0:0,0:0:0:0:
116,344,79623,1,2,0:0:0:0:
256,276,79782,1,8,0:0:0:0:
168,272,79942,1,0,0:0:0:0:
204,352,80101,6,0,B|264:376|316:340|316:340|348:336|368:360,1,176,6|2,0:0|0:0,0:0:0:0:
256,276,80580,2,0,P|296:256|340:256,2,88,2|0|0,0:0|0:0|0:0,0:0:0:0:
168,272,81059,1,0,0:0:0:0:
80,260,81218,2,0,P|28:192|48:108,1,176,4|0,0:0|0:0,0:0:0:0:
168,160,81697,6,0,L|124:172,1,44
168,160,81857,2,0,L|130:133,1,44
168,160,82016,2,0,L|165:114,1,44
168,160,82176,2,0,L|201:129,1,44
168,160,82335,2,0,L|213:166,1,44
168,160,82495,2,0,L|190:199,1,44
168,160,82655,6,0,L|124:264,2,110,6|2|10,0:0|0:0|0:0,0:0:0:0:
300,160,83133,2,0,L|256:56,2,110,2|2|2,0:0|0:0|0:0,0:0:0:0:
396,216,83612,1,10,0:0:0:0:
500,184,83772,2,0,P|468:132|424:108,1,110,6|0,0:0|0:0,0:0:0:0:
288,244,84091,2,0,P|320:296|364:320,1,110,2|8,0:0|0:0,0:0:0:0:
396,216,84410,1,2,0:0:0:0:
300,160,84570,2,0,P|248:148|192:160,1,110,0|0,0:0|0:0,0:0:0:0:
84,320,84889,2,0,P|120:280|138:226,1,110,8|0,0:0|0:0,0:0:0:0:
104,144,85208,6,0,P|66:102|51:51,2,110,6|2|10,0:0|0:0|0:0,0:0:0:0:
140,64,85687,1,2,0:0:0:0:
28,192,85846,1,2,0:0:0:0:
28,192,86006,1,2,0:0:0:0:
192,136,86165,1,2,0:0:0:0:
192,136,86325,2,8,L|276:212,1,110,4|2,0:0|0:0,0:0:0:0:
380,288,86644,5,2,0:0:0:0:
349,275,86723,1,2,0:0:0:0:
316,275,86803,1,2,0:0:0:0:
285,286,86883,1,2,0:0:0:0:
261,308,86963,2,0,P|224:344|168:348,1,110,2|0,0:0|0:0,0:0:0:0:
48,292,87282,2,0,P|20:244|28:192,2,110,4|0|0,0:0|0:0|0:0,0:0:0:0:
76,272,87681,1,0,0:0:0:0:
88,240,87761,6,0,P|127:200|179:194,1,110,6|2,0:0|0:0,0:0:0:0:
88,136,88080,1,10,0:0:0:0:
264,136,88240,2,0,P|224:96|172:90,1,110,2|2,0:0|0:0,0:0:0:0:
264,32,88559,1,2,0:0:0:0:
179,194,88718,1,10,0:0:0:0:
256,272,88878,2,0,P|360:252|404:152,2,220,6|2|2,0:0|0:0|0:0,0:0:0:0:
179,194,89676,2,0,P|124:192|80:224,1,110,0|0,0:0|0:0,0:0:0:0:
288,156,89995,2,0,P|262:107|212:85,1,110,0|0,0:0|0:0,0:0:0:0:
104,88,90314,6,0,P|44:148|56:232,1,176,2|0,0:0|0:0,0:0:0:0:
132,312,90793,2,0,B|192:348|256:312|256:312|324:276|384:308,1,264,2|0,0:0|0:0,0:0:0:0:
472,352,91431,1,4,0:0:0:0:
256,192,91511,12,4,95421,0:0:0:0:
