osu file format v12

[General]
AudioFilename: Twinkle Wonderland.mp3
AudioLeadIn: 1500
PreviewTime: 11165
Countdown: 0
SampleSet: Soft
StackLeniency: 0.7
Mode: 0
LetterboxInBreaks: 1

[Editor]
DistanceSpacing: 1
BeatDivisor: 2
GridSize: 4

[Metadata]
Title:Twinkle Wonderland
TitleUnicode:Twinkle Wonderland
Artist:Qrispy Joybox feat. Sana
ArtistUnicode:Qrispy Joybox feat. Sana
Creator:MerryGate
Version:BASIC
Source:REFLEC BEAT limelight
Tags:pop'n music 20 fantasia jubeat saucer konami bemani iyama tatsuya
BeatmapID:233973
BeatmapSetID:83836

[Difficulty]
HPDrainRate:2
CircleSize:3
OverallDifficulty:2
ApproachRate:2
SliderMultiplier:0.8
SliderTickRate:2

[Events]
//Background and Video events
0,0,"BG.jpg",0,0
//Break Periods
2,63546,65775
//Storyboard Layer 0 (Background)
//Storyboard Layer 1 (Fail)
//Storyboard Layer 2 (Pass)
//Storyboard Layer 3 (Foreground)
//Storyboard Sound Samples
//Background Colour Transformations
3,100,163,162,255

[TimingPoints]
953,319.148936170213,4,2,1,50,1,0
8612,-100,4,2,1,60,0,0
9250,-100,4,2,1,50,0,0
10048,-100,4,2,3,65,0,0
10367,-100,4,2,3,70,0,0
10687,-100,4,2,3,75,0,0
11165,-100,4,2,1,80,0,0
18825,-100,4,2,1,60,0,0
19942,-100,4,2,1,65,0,0
30155,-100,4,2,1,55,0,0
30793,-100,4,2,1,60,0,0
31591,-100,4,2,2,65,0,0
40208,-100,4,2,1,55,0,0
40687,-100,4,2,1,60,0,0
41165,-100,4,2,1,65,0,0
41804,-100,4,2,1,70,0,0
52016,-100,4,2,2,65,0,0
63346,-100,4,2,1,45,0,0
67335,-100,4,2,1,50,0,0
69889,-100,4,2,1,55,0,0
71325,-100,4,2,3,65,0,0
71644,-100,4,2,3,70,0,0
71963,-100,4,2,3,75,0,0
72442,-100,4,2,1,80,0,1
82575,-100,4,2,1,80,0,0
82655,-100,4,2,1,80,0,1
90314,-100,4,2,1,70,0,1
90793,-100,4,2,1,60,0,1
91431,-100,4,2,1,40,0,0
95421,-100,4,2,3,75,0,0

[Colours]
Combo1 : 255,255,128
Combo2 : 255,169,128
Combo3 : 128,191,255
Combo4 : 191,255,128

[HitObjects]
256,192,953,2,0,P|200:184|148:216,1,120,6|2,0:0|0:0,0:0:0:0:
280,304,2070,2,0,P|360:252|364:152,1,200,6|2,0:0|0:0,0:0:0:0:
220,88,3506,6,0,P|220:148|256:192,1,120,6|10,0:0|0:0,0:0:0:0:
336,192,4304,1,2,0:0:0:0:
416,192,4623,1,14,0:0:0:0:
60,132,6059,6,0,P|113:149|170:127,1,120,6|2,0:0|0:0,0:0:0:0:
324,80,7176,2,0,P|414:42|494:93,1,200,6|0,0:0|0:0,0:0:0:0:
404,224,8612,6,0,P|348:280|272:280,1,160,4|4,0:0|0:0,0:0:0:0:
112,160,10048,2,0,L|32:160,2,80,8|8|12,1:0|1:0|1:2,0:0:0:0:
224,120,11165,6,0,P|300:104|364:152,1,160,4|8,0:0|0:0,0:0:0:0:
364,232,12123,2,0,P|301:277|225:261,1,160,2|0,0:0|0:0,0:0:0:0:
128,192,13240,1,8,0:0:0:0:
88,78,13718,6,0,P|165:68|224:120,1,160,4|8,0:0|0:0,0:0:0:0:
244,200,14676,2,0,P|302:251|379:241,1,160,2|0,0:0|0:0,0:0:0:0:
448,144,15793,1,10,0:0:0:0:
340,88,16272,6,0,P|304:100|268:124,1,80,4|0,0:0|0:0,0:0:0:0:
244,200,16910,2,0,L|192:352,2,160,8|2|8,0:0|0:0|0:0,0:0:0:0:
256,192,18825,12,4,21378,0:0:0:0:
292,136,22655,6,0,P|240:76|160:60,1,160,2|10,0:0|0:0,0:0:0:0:
88,200,23931,6,0,P|140:260|220:276,1,160,6|10,0:0|0:0,0:0:0:0:
296,276,24889,1,0,0:0:0:0:
376,272,25208,2,0,L|376:108,1,160,2|10,0:0|0:0,0:0:0:0:
220,68,26484,6,0,P|148:92|128:168,1,160,6|10,0:0|0:0,0:0:0:0:
208,152,27442,1,0,0:0:0:0:
288,136,27761,2,0,P|268:212|196:236,1,160,2|10,0:0|0:0,0:0:0:0:
96,112,29038,6,0,L|32:48,2,80,6|2|10,0:0|0:0|0:0,0:0:0:0:
208,152,30155,2,0,L|264:208,2,80,6|6|6,0:0|0:0|0:0,0:0:0:0:
400,204,31591,6,0,L|400:284,2,80,0|0|8,0:0|0:0|0:0,0:0:0:0:
400,124,32548,2,0,P|380:67|329:38,1,120,8|8,0:0|0:0,0:0:0:0:
96,192,34144,6,0,L|44:252,2,80,0|0|8,0:0|0:0|0:0,0:0:0:0:
92,112,35101,2,0,P|147:131|176:182,1,120,8|8,0:0|0:0,0:0:0:0:
448,252,36697,6,0,P|452:212|448:172,1,80,4|0,0:0|0:0,0:0:0:0:
436,92,37335,1,8,0:0:0:0:
372,44,37655,2,0,P|312:32|256:44,1,120,8|8,0:0|0:0,0:0:0:0:
68,252,39250,6,0,P|108:256|148:252,1,80,4|0,0:0|0:0,0:0:0:0:
228,252,39889,1,0,0:0:0:0:
308,244,40208,2,0,P|364:225|393:174,2,120,6|6|6,0:0|0:0|0:0,0:0:0:0:
256,92,41804,6,0,P|180:72|100:92,1,160,4|8,0:0|0:0,0:0:0:0:
36,236,43080,2,0,P|112:256|192:236,1,160,2|8,0:0|0:0,0:0:0:0:
256,192,44038,1,0,0:0:0:0:
320,144,44357,6,0,P|397:125|473:145,1,160,4|8,0:0|0:0,0:0:0:0:
472,304,45633,2,0,P|432:312|392:308,1,80,2|0,0:0|0:0,0:0:0:0:
316,292,46272,2,0,P|277:288|237:296,1,80,8|0,0:0|0:0,0:0:0:0:
156,304,46910,6,0,P|108:244|124:168,1,160,4|8,0:0|0:0,0:0:0:0:
224,44,48187,2,0,P|272:104|256:180,1,160,2|8,0:0|0:0,0:0:0:0:
156,304,49463,6,0,L|80:336,2,80,4|0|8,0:0|0:0|0:0,0:0:0:0:
276,308,50580,2,0,L|352:276,1,80,6|6,0:0|0:0,0:0:0:0:
460,76,52016,6,0,L|384:108,1,80,4|0,0:0|0:0,0:0:0:0:
324,156,52655,2,0,P|256:192|188:156,2,160,8|0|8,0:0|0:0|0:0,0:0:0:0:
228,28,54570,6,0,P|188:23|148:28,1,80,4|0,0:0|0:0,0:0:0:0:
80,72,55208,1,8,0:0:0:0:
28,180,55687,2,0,P|36:237|73:285,2,120,8|0|8,0:0|0:0|0:0,0:0:0:0:
148,168,57123,6,0,P|184:152|212:124,1,80,4|0,0:0|0:0,0:0:0:0:
256,56,57761,1,8,0:0:0:0:
376,52,58240,2,0,P|421:88|444:144,2,120,8|0|8,0:0|0:0|0:0,0:0:0:0:
256,56,59676,6,0,P|216:52|176:56,1,80,4|0,0:0|0:0,0:0:0:0:
104,92,60314,1,0,0:0:0:0:
80,168,60633,1,4,0:0:0:0:
256,192,61112,12,2,63346,0:0:0:0:
256,192,67335,12,4,69889,0:0:0:0:
140,296,71325,6,0,L|60:296,2,80,8|8|12,1:0|1:0|1:2,0:0:0:0:
256,316,72442,6,0,P|316:270|329:189,1,160,4|8,0:0|0:0,0:0:0:0:
260,148,73399,2,0,P|273:68|333:22,1,160,2|0,0:0|0:0,0:0:0:0:
384,132,74516,1,8,0:0:0:0:
316,228,74995,6,0,P|241:243|170:201,1,160,4|8,0:0|0:0,0:0:0:0:
160,124,75953,2,0,P|214:63|288:57,1,160,2|0,0:0|0:0,0:0:0:0:
384,132,77070,1,8,0:0:0:0:
316,228,77548,5,4,0:0:0:0:
156,212,78187,2,0,P|117:198|85:176,1,80,8|0,0:0|0:0,0:0:0:0:
80,96,78825,2,0,P|136:44|216:48,1,160,2|8,0:0|0:0,0:0:0:0:
340,148,80101,6,0,P|291:175|227:166,1,120,6|2,0:0|0:0,0:0:0:0:
160,24,81218,2,0,P|72:100|76:216,1,240,4|0,0:0|0:0,0:0:0:0:
156,304,82655,6,2,P|190:324|228:337,2,80,6|2|8,0:0|0:0|0:0,0:0:0:0:
256,180,83931,2,0,P|320:132|396:136,1,160,2|6,0:0|0:0,0:0:0:0:
418,296,85208,6,0,P|374:336|314:348,1,120,6|2,0:0|0:0,0:0:0:0:
194,348,86165,2,0,P|96:288|88:172,1,240,2|10,0:0|0:0,0:0:0:0:
216,68,87761,6,0,L|296:68,1,80,6|2,0:0|0:0,0:0:0:0:
376,84,88399,1,10,0:0:0:0:
468,216,89038,2,0,L|308:216,1,160,2|2,0:0|0:0,0:0:0:0:
200,96,90314,6,0,P|256:76|312:96,1,120,2|2,0:0|0:0,0:0:0:0:
256,192,91431,12,4,95421,0:0:0:0:
