osu file format v14

[General]
AudioFilename: Qrispy Joybox - licca.mp3
AudioLeadIn: 0
PreviewTime: 58946
Countdown: 0
SampleSet: Soft
StackLeniency: 0.4
Mode: 0
LetterboxInBreaks: 0
WidescreenStoryboard: 0

[Editor]
DistanceSpacing: 0.8
BeatDivisor: 4
GridSize: 8
TimelineZoom: 1.5

[Metadata]
Title:licca
TitleUnicode:licca
Artist:Qrispy Joybox
ArtistUnicode:Qrispy Joybox
Creator:Minakami Yuki
Version:Basic
Source:REFLEC BEAT groovin'!!
Tags:Spy victorica_db yf_bmp skystar amamiya yuko
BeatmapID:671579
BeatmapSetID:287052

[Difficulty]
HPDrainRate:3
CircleSize:3.5
OverallDifficulty:3
ApproachRate:4
SliderMultiplier:1
SliderTickRate:1

[Events]
//Background and Video events
0,0,"bg.jpg",0,0
//Break Periods
2,830,3901
2,49809,57779
//Storyboard Layer 0 (Background)
//Storyboard Layer 1 (Fail)
//Storyboard Layer 2 (Pass)
//Storyboard Layer 3 (Foreground)
//Storyboard Sound Samples

[TimingPoints]
630,306.122448979592,4,2,1,60,1,0
5527,-100,4,2,1,70,0,0
5834,-100,4,2,1,50,0,0
6599,-100,4,2,1,60,0,0
7211,-100,4,2,1,50,0,0
7364,-100,4,2,1,40,0,0
7976,-100,4,2,1,70,0,0
8283,-100,4,2,1,50,0,0
9048,-100,4,2,1,60,0,0
9660,-100,4,2,1,50,0,0
10425,-100,4,2,1,70,0,0
14252,-100,4,2,1,50,0,0
15323,-100,4,2,1,70,0,0
20221,-100,4,2,1,60,0,0
21599,-100,4,2,3,40,0,0
22058,-100,4,2,1,40,0,0
22670,-100,4,2,1,60,0,0
24048,-100,4,2,3,40,0,0
24507,-100,4,2,1,40,0,0
25119,-100,4,2,1,60,0,0
26191,-100,4,2,1,50,0,0
26497,-100,4,2,3,40,0,0
26956,-100,4,2,1,40,0,0
27568,-100,4,2,1,60,0,0
28946,-100,4,2,1,30,0,0
29405,-100,4,2,3,50,0,0
30017,-100,4,2,1,60,0,0
34303,-100,4,2,1,40,0,0
34533,-100,4,2,1,20,0,0
34609,-100,4,2,1,60,0,0
39201,-100,4,2,1,40,0,0
39813,-100,4,2,1,65,0,0
41191,-100,4,2,3,45,0,0
42262,-100,4,2,1,65,0,0
43640,-100,4,2,3,45,0,0
44099,-100,4,2,1,45,0,0
44711,-100,4,2,1,65,0,0
46089,-100,4,2,3,45,0,0
47160,-100,4,2,1,65,0,0
48997,-200,4,2,1,40,0,0
50834,-100,4,2,3,40,0,0
58181,-62.5,4,2,1,50,0,0
59099,-100,4,2,3,55,0,0
59405,-100,4,2,1,75,0,1
68818,-100,4,2,1,20,0,1
68895,-100,4,2,3,55,0,1
69124,-100,4,2,1,75,0,0
69201,-100,4,2,1,75,0,1
76548,-100,4,2,3,55,0,0
78614,-100,4,2,3,20,0,0
78691,-100,4,2,3,55,0,0
78920,-100,4,2,1,75,0,0
78997,-100,4,2,1,75,0,1
88181,-100,4,2,1,55,0,1
88410,-100,4,2,1,20,0,1
88487,-100,4,2,3,55,0,1
88716,-100,4,2,1,75,0,0
88793,-100,4,2,1,75,0,1
96140,-100,4,2,3,55,0,1
97364,-100,4,2,3,60,0,1
98589,-100,4,2,1,65,0,0
99966,-100,4,2,3,45,0,0
101038,-100,4,2,1,65,0,0
102415,-100,4,2,3,45,0,0
102874,-100,4,2,1,45,0,0
103487,-100,4,2,1,65,0,0
104864,-100,4,2,3,45,0,0
105936,-100,4,2,1,65,0,0

[Colours]
Combo1 : 255,128,255
Combo2 : 128,255,255
Combo3 : 255,128,128
Combo4 : 128,255,128

[HitObjects]
112,97,630,5,4,0:0:0:0:
112,97,5221,5,2,0:0:0:0:
184,136,5527,6,0,P|241:138|292:108,1,100,6|2,0:0|0:0,0:0:0:0:
331,59,6140,2,0,P|406:41|473:83,1,150,2|4,0:0|0:0,0:0:0:0:
488,151,6905,1,4,0:0:0:0:
405,237,7364,2,0,P|391:289|409:333,1,100,6|6,0:0|0:0,0:0:0:0:
336,367,7976,6,0,L|231:363,1,100,6|2,0:0|0:0,0:0:0:0:
230,283,8589,2,0,B|188:287|167:321|167:321|129:341|80:315,1,150,2|6,0:0|0:0,0:0:0:0:
33,272,9354,1,6,0:0:0:0:
81,162,9813,2,0,P|100:110|78:53,1,100,2|2,0:0|0:0,0:0:0:0:
20,108,10425,5,4,0:0:0:0:
20,108,11650,5,4,0:0:0:0:
20,108,12874,5,4,0:0:0:0:
20,108,14099,6,0,L|125:97,1,100,4|0,0:0|0:0,0:0:0:0:
198,86,14711,2,0,P|195:120|170:161,2,66.6666666666667,0|0|0,3:0|3:0|3:0,0:0:0:0:
182,35,15323,5,4,0:0:0:0:
182,35,16548,5,4,0:0:0:0:
182,35,17772,5,4,0:0:0:0:
182,35,18997,6,0,L|298:39,1,100,4|0,0:0|0:0,0:0:0:0:
347,81,19609,2,0,P|396:88|441:66,1,100,0|0,3:0|3:0,0:0:0:0:
498,122,20221,6,0,P|510:171|482:234,1,100,4|4,0:0|0:0,0:0:0:0:
421,247,20834,2,0,B|347:237|347:237|262:255,1,150,8|4,0:0|0:0,0:0:0:0:
234,322,21599,2,0,P|201:285|227:189,1,150,2|4,0:0|0:0,0:0:0:0:
286,148,22364,1,4,0:0:0:0:
266,70,22670,6,0,L|161:66,1,100,4|4,0:0|0:0,0:0:0:0:
91,37,23283,2,0,B|59:76|59:76|68:178,1,150,8|4,0:0|0:0,0:0:0:0:
147,180,24048,2,0,P|108:242|36:247,1,150,2|2,0:0|0:0,0:0:0:0:
186,303,25119,6,0,P|232:285|280:293,1,100,4|4,0:0|0:0,0:0:0:0:
338,349,25732,2,0,B|412:356|412:356|503:339,1,150,8|4,0:0|0:0,0:0:0:0:
476,262,26497,2,0,P|445:202|482:125,1,150,2|4,0:0|0:0,0:0:0:0:
453,53,27262,1,4,0:0:0:0:
385,96,27568,6,0,P|337:111|290:99,1,100,4|4,0:0|0:0,0:0:0:0:
237,38,28181,2,0,B|198:65|210:126|210:126|187:146|142:130,1,150,8|4,0:0|0:0,0:0:0:0:
85,107,28946,1,0,0:0:0:0:
16,205,29405,2,0,L|20:312,1,100,2|2,0:0|0:0,0:0:0:0:
86,348,30017,6,0,P|157:283|248:311,1,200,6|2,0:0|0:0,0:0:0:0:
303,369,30936,1,2,0:0:0:0:
368,323,31242,2,0,P|360:275|379:229,1,100,2|2,0:0|0:0,0:0:0:0:
452,198,31854,2,0,P|460:149|441:103,1,100,2|4,0:0|0:0,0:0:0:0:
388,44,32466,6,0,B|323:39|323:39|265:63|265:63|181:56,1,200,6|2,0:0|0:0,0:0:0:0:
122,19,33385,1,2,0:0:0:0:
52,57,33691,2,0,P|33:102|42:151,1,100,2|2,0:0|0:0,0:0:0:0:
103,202,34303,2,0,L|210:193,1,100,0|4,0:0|0:0,0:0:0:0:
269,149,34915,6,0,B|286:172|291:228|249:260|249:260|224:298|255:353,1,200,6|2,0:0|0:0,0:0:0:0:
320,362,35834,1,2,0:0:0:0:
383,313,36140,2,0,L|491:317,1,100,2|2,0:0|0:0,0:0:0:0:
486,236,36752,2,0,L|386:232,1,100,2|4,0:0|0:0,0:0:0:0:
317,191,37364,6,0,P|245:255|157:204,1,200,6|2,0:0|0:0,0:0:0:0:
236,174,38283,1,2,0:0:0:0:
167,132,38589,2,0,L|173:33,1,100,2|2,0:0|0:0,0:0:0:0:
93,40,39201,2,0,L|87:139,1,100,0|0,0:0|0:0,0:0:0:0:
39,203,39813,6,0,P|58:248|50:297,1,100,4|4,0:0|0:0,0:0:0:0:
91,366,40425,2,0,B|121:343|129:312|129:312|159:335|193:339|223:323,1,150,8|4,0:0|0:0,0:0:0:0:
280,298,41191,2,0,L|443:309,1,150,2|4,0:0|0:0,0:0:0:0:
495,262,41956,1,4,0:0:0:0:
423,226,42262,6,0,P|412:177|431:132,1,100,4|4,0:0|0:0,0:0:0:0:
492,82,42874,2,0,P|426:54|360:94,1,150,8|4,0:0|0:0,0:0:0:0:
319,157,43640,2,0,P|256:193|189:165,1,150,2|2,0:0|0:0,0:0:0:0:
147,319,44711,6,0,L|254:327,1,100,4|4,0:0|0:0,0:0:0:0:
237,247,45323,2,0,L|87:235,1,150,8|4,0:0|0:0,0:0:0:0:
24,185,46089,2,0,P|-3:116|38:54,1,150,2|4,0:0|0:0,0:0:0:0:
76,125,46854,1,4,0:0:0:0:
149,94,47160,6,0,L|255:88,1,100,4|4,0:0|0:0,0:0:0:0:
313,134,47772,2,0,P|382:154|445:116,1,150,8|4,0:0|0:0,0:0:0:0:
501,309,48997,6,0,L|401:303,1,100,0|4,0:0|0:0,0:0:0:0:
401,303,59099,5,2,0:0:0:0:
461,251,59405,6,0,P|373:227|321:312,1,200,6|2,0:0|0:0,0:0:0:0:
249,344,60323,1,2,0:0:0:0:
178,306,60630,2,0,P|187:251|164:207,1,100,2|2,0:0|0:0,0:0:0:0:
94,183,61242,2,0,L|86:78,1,100,2|2,0:0|0:0,0:0:0:0:
146,30,61854,6,0,B|209:22|209:22|272:38|272:38|343:30,1,200,6|2,0:0|0:0,0:0:0:0:
422,20,62772,1,2,0:0:0:0:
486,64,63078,2,0,P|502:111|489:159,1,100,2|2,0:0|0:0,0:0:0:0:
418,195,63691,2,0,P|402:241|415:289,1,100,2|2,0:0|0:0,0:0:0:0:
354,341,64303,6,0,P|323:248|350:153,1,200,6|2,0:0|0:0,0:0:0:0:
418,112,65221,1,2,0:0:0:0:
348,73,65527,2,0,L|244:79,1,100,2|2,0:0|0:0,0:0:0:0:
191,22,66140,2,0,P|169:65|182:127,1,100,2|2,0:0|0:0,0:0:0:0:
239,162,66752,6,0,P|245:210|223:254,2,100,6|2|2,0:0|0:0|0:0,0:0:0:0:
167,197,67670,1,2,0:0:0:0:
95,232,67976,2,0,P|88:183|110:139,2,100,6|6|6,0:0|0:0|0:0,0:0:0:0:
151,288,68895,1,2,0:0:0:0:
223,255,69201,6,0,P|203:346|110:358,2,200,6|2|2,0:0|0:0|0:0,0:0:0:0:
167,197,70732,1,2,0:0:0:0:
102,150,71038,2,0,P|92:101|111:56,1,100,2|2,0:0|0:0,0:0:0:0:
187,30,71650,6,0,B|271:46|271:46|394:32,2,200,6|2|2,0:0|0:0|0:0,0:0:0:0:
111,56,73181,1,2,0:0:0:0:
171,110,73487,2,0,L|273:129,1,100,2|2,0:0|0:0,0:0:0:0:
347,143,74099,6,0,P|433:103|498:183,2,200,6|2|6,0:0|0:0|0:0,0:0:0:0:
418,181,75630,1,2,0:0:0:0:
461,248,75936,2,0,P|473:302|444:352,1,100,2|2,0:0|0:0,0:0:0:0:
393,290,76548,6,0,P|317:260|231:331,3,200,4|2|2|2,0:0|0:0|0:0|0:0,0:0:0:0:
71,329,78997,6,0,P|89:283|81:234,1,100,6|2,0:0|0:0,0:0:0:0:
28,174,79609,2,0,P|9:128|17:79,1,100,2|2,0:0|0:0,0:0:0:0:
91,49,80221,2,0,P|177:82|275:16,1,200,2|2,0:0|0:0,0:0:0:0:
345,22,81140,1,2,0:0:0:0:
410,70,81446,6,0,P|371:99|322:98,1,100,6|2,0:0|0:0,0:0:0:0:
263,152,82058,2,0,B|254:194|254:194|273:269,1,100,2|2,0:0|0:0,0:0:0:0:
347,261,82670,2,0,P|280:326|196:285,1,200,2|2,0:0|0:0,0:0:0:0:
129,330,83589,1,2,0:0:0:0:
57,294,83895,6,0,B|41:258|41:258|48:180,1,100,6|2,0:0|0:0,0:0:0:0:
126,194,84507,2,0,B|142:158|142:158|135:80,1,100,2|2,0:0|0:0,0:0:0:0:
65,59,85119,2,0,P|102:26|152:19,1,100,2|2,0:0|0:0,0:0:0:0:
213,70,85732,2,0,P|256:92|306:85,1,100,2|2,0:0|0:0,0:0:0:0:
380,59,86344,6,0,B|433:30|433:30|481:73|481:73|404:157|463:242,1,300,6|2,0:0|0:0,0:0:0:0:
485,307,87568,2,0,P|429:308|386:274,2,100,2|2|2,0:0|0:0|0:0,0:0:0:0:
356,211,88793,6,0,L|242:222,1,100,6|2,0:0|0:0,0:0:0:0:
232,296,89405,2,0,P|184:282|135:293,1,100,2|2,0:0|0:0,0:0:0:0:
72,342,90017,2,0,B|39:301|61:252|83:232|83:232|106:194|76:139,1,200,2|2,0:0|0:0,0:0:0:0:
30,97,90936,1,2,0:0:0:0:
75,31,91242,6,0,L|189:42,1,100,6|2,0:0|0:0,0:0:0:0:
243,80,91854,2,0,P|292:80|336:57,1,100,2|2,0:0|0:0,0:0:0:0:
397,108,92466,2,0,P|312:157|213:155,1,200,2|2,0:0|0:0,0:0:0:0:
138,127,93385,1,2,0:0:0:0:
79,180,93691,6,0,P|60:227|78:285,1,100,6|2,0:0|0:0,0:0:0:0:
131,326,94303,2,0,L|233:319,1,100,2|2,0:0|0:0,0:0:0:0:
306,344,94915,2,0,B|351:294|422:332|422:332|411:250,1,200,2|2,0:0|0:0,0:0:0:0:
402,180,95834,1,2,0:0:0:0:
470,138,96140,6,0,P|421:103|322:176,3,200,6|2|2|2,0:0|0:0|0:0|0:0,0:0:0:0:
220,50,98589,6,0,L|112:40,1,100,4|4,0:0|0:0,0:0:0:0:
41,54,99201,2,0,B|49:82|69:101|69:101|48:207,1,150,8|4,0:0|0:0,0:0:0:0:
73,270,99966,2,0,P|133:300|217:263,1,150,2|4,0:0|0:0,0:0:0:0:
264,216,100732,1,4,0:0:0:0:
330,259,101038,6,0,L|338:361,1,100,4|4,0:0|0:0,0:0:0:0:
415,340,101650,2,0,B|407:250|407:250|438:191,1,150,8|4,0:0|0:0,0:0:0:0:
510,172,102415,2,0,P|497:148|382:139,1,150,2|2,0:0|0:0,0:0:0:0:
255,44,103487,6,0,P|208:58|161:43,1,100,4|4,0:0|0:0,0:0:0:0:
102,97,104099,2,0,P|170:132|246:132,1,150,8|4,0:0|0:0,0:0:0:0:
315,165,104864,2,0,B|339:205|339:205|328:314,1,150,2|4,0:0|0:0,0:0:0:0:
258,347,105630,1,4,0:0:0:0:
191,303,105936,6,0,L|201:203,1,100,4|4,0:0|0:0,0:0:0:0:
242,132,106548,2,0,P|313:146|382:83,1,150,8|4,0:0|0:0,0:0:0:0:
