osu file format v14

[General]
AudioFilename: 02. Qrispy Joybox - licca.mp3
AudioLeadIn: 2000
PreviewTime: 59101
Countdown: 0
SampleSet: Normal
StackLeniency: 0.4
Mode: 0
LetterboxInBreaks: 0
WidescreenStoryboard: 0

[Editor]
Bookmarks: 27570,49535
DistanceSpacing: 1.1
BeatDivisor: 4
GridSize: 4
TimelineZoom: 1

[Metadata]
Title:licca
TitleUnicode:licca
Artist:Qrispy Joybox
ArtistUnicode:Qrispy Joybox
Creator:Frey
Version:Normal
Source:REFLEC BEAT groovin'!!
Tags:Fortune orza6006 Mei Tatsuya Iyama 伊山達也
BeatmapID:650380
BeatmapSetID:242877

[Difficulty]
HPDrainRate:4
CircleSize:3
OverallDifficulty:4
ApproachRate:5
SliderMultiplier:0.999999999999999
SliderTickRate:1

[Events]
//Background and Video events
0,0,"bg.jpg",0,0
//Break Periods
//Storyboard Layer 0 (Background)
//Storyboard Layer 1 (Fail)
//Storyboard Layer 2 (Pass)
//Storyboard Layer 3 (Foreground)
//Storyboard Sound Samples

[TimingPoints]
632,306.122448979592,4,1,0,80,1,0
10427,-100,4,2,0,80,0,0
30019,-100,4,1,0,80,0,0
34305,-100,4,2,0,80,0,0
34917,-100,4,1,0,80,0,0
39203,-100,4,2,0,80,0,0
59407,-100,4,1,0,80,0,1
68591,-100,4,2,0,80,0,0
69203,-100,4,1,0,80,0,1
76550,-100,4,2,0,80,0,0
78999,-100,4,1,0,80,0,1
88183,-100,4,2,0,80,0,0
88795,-100,4,1,0,80,0,1
96142,-100,4,2,0,80,0,0

[Colours]
Combo1 : 242,170,230
Combo2 : 175,247,128
Combo3 : 248,224,152
Combo4 : 171,192,250

[HitObjects]
256,192,632,12,4,5529,1:2:0:0:
388,76,6142,5,0,0:0:0:0:
428,156,6448,1,8,0:0:0:0:
392,180,6601,2,0,P|344:176|288:164,1,99.9999999999999,4|4,1:2|1:2,0:0:0:0:
256,192,7060,1,8,0:0:0:0:
196,256,7366,1,0,0:0:0:0:
256,324,7672,1,8,0:0:0:0:
316,256,7978,6,0,P|376:180|332:92,1,200,4|0,1:2|0:0,0:0:0:0:
248,88,8897,1,8,0:0:0:0:
208,112,9050,2,0,P|200:164|196:220,1,99.9999999999999,4|4,1:2|1:2,0:0:0:0:
228,244,9509,1,8,0:0:0:0:
316,256,9815,1,0,0:0:0:0:
368,180,10121,1,8,0:0:0:0:
336,96,10427,5,4,1:2:0:0:
248,88,10734,2,0,L|220:20,2,50,2|2|2,0:0|0:0|0:0,0:0:0:0:
196,160,11346,1,2,0:0:0:0:
228,244,11652,2,0,P|312:236|344:228,1,99.9999999999999,4|2,1:2|0:0,0:0:0:0:
404,184,12264,2,2,P|412:88|316:44,1,200,0|4,0:0|1:2,0:0:0:0:
268,104,13183,6,0,L|276:172,2,50,2|2|2,0:0|0:0|0:0,0:0:0:0:
188,68,13795,1,2,0:0:0:0:
116,124,14101,2,0,P|128:220|132:244,1,99.9999999999999,4|2,1:2|0:0,0:0:0:0:
216,252,14713,2,0,P|136:316|48:268,1,200,0|4,0:0|1:2,0:0:0:0:
42,191,15632,6,0,L|29:122,2,50,2|2|2,0:0|0:0|0:0,0:0:0:0:
130,224,16244,1,2,0:0:0:0:
168,140,16550,2,0,P|220:124|276:124,1,99.9999999999999,4|2,1:2|0:0,0:0:0:0:
328,192,17162,2,0,P|424:220|500:164,1,200,0|4,0:0|1:2,0:0:0:0:
504,76,18080,6,0,L|508:4,2,50,2|2|2,0:0|0:0|0:0,0:0:0:0:
416,68,18693,1,2,0:0:0:0:
332,96,18999,2,0,P|264:108|216:112,1,99.9999999999999,4|2,1:2|0:0,0:0:0:0:
168,52,19611,1,0,0:0:0:0:
80,68,19917,1,2,0:0:0:0:
44,148,20223,6,0,P|32:244|32:268,1,99.9999999999999,4|8,1:2|1:0,0:0:0:0:
48,336,20836,1,0,1:0:0:0:
48,336,20989,1,4,1:2:0:0:
136,316,21295,2,0,P|192:320|252:312,1,99.9999999999999,4|2,1:2|0:0,0:0:0:0:
312,272,21907,1,0,0:0:0:0:
312,272,22060,2,0,P|361:267|411:271,1,99.9999999999999,0|2,0:0|0:0,0:0:0:0:
488,224,22672,6,0,P|476:160|472:108,1,99.9999999999999,4|8,1:2|1:0,0:0:0:0:
412,60,23285,1,0,1:0:0:0:
412,60,23438,1,4,1:2:0:0:
324,80,23744,2,0,P|336:144|340:196,1,99.9999999999999,4|2,1:2|0:0,0:0:0:0:
308,264,24356,1,0,0:0:0:0:
308,264,24509,2,0,P|256:296|152:208,1,200,0|4,0:0|1:2,0:0:0:0:
168,136,25427,5,8,1:0:0:0:
92,84,25734,1,0,1:0:0:0:
92,84,25887,1,4,1:2:0:0:
76,172,26193,2,0,P|74:230|68:280,1,99.9999999999999,4|2,1:2|0:0,0:0:0:0:
108,352,26805,1,0,0:0:0:0:
108,352,26958,2,0,P|168:344|228:344,1,99.9999999999999,0|2,0:0|0:0,0:0:0:0:
296,360,27570,6,0,P|345:358|395:351,1,99.9999999999999,4|8,1:2|1:0,1:0:0:0:
464,292,28183,1,0,1:0:0:0:
464,292,28336,1,4,1:2:0:0:
456,204,28642,1,4,1:2:0:0:
316,28,29407,6,0,L|292:148,1,99.9999999999999,0|2,0:0|0:0,0:0:0:0:
278,214,30019,1,4,0:2:0:0:
367,212,30325,1,8,0:0:0:0:
456,204,30632,2,0,L|475:105,1,99.9999999999999,0|8,0:0|0:0,0:0:0:0:
416,40,31244,2,0,P|360:52|312:60,1,99.9999999999999,0|8,0:0|0:0,0:0:0:0:
260,128,31856,1,0,0:0:0:0:
279,214,32162,1,8,0:0:0:0:
364,180,32468,6,0,P|364:240|336:288,1,99.9999999999999,0|8,0:0|0:0,0:0:0:0:
276,332,33080,2,0,L|160:320,1,99.9999999999999,0|8,0:0|0:0,0:0:0:0:
92,352,33693,1,0,0:0:0:0:
60,268,33999,1,8,0:0:0:0:
144,236,34305,2,0,B|128:176|138:132|138:132|96:104|96:44,1,200,0|4,0:0|0:2,0:0:0:0:
188,56,35223,5,8,0:0:0:0:
260,112,35529,2,0,L|248:216,1,99.9999999999999,0|8,0:0|0:0,0:0:0:0:
300,288,36142,2,0,P|351:280|399:276,1,99.9999999999999,0|8,0:0|0:0,0:0:0:0:
460,208,36754,1,0,0:0:0:0:
452,120,37060,1,8,0:0:0:0:
364,92,37366,6,0,P|372:180|376:212,1,99.9999999999999,0|8,0:0|0:0,0:0:0:0:
400,276,37978,1,0,0:0:0:0:
332,332,38285,1,8,0:0:0:0:
256,284,38591,1,0,0:0:0:0:
284,200,38897,1,8,0:0:0:0:
373,191,39203,2,0,P|413:135|349:27,1,200,0|4,0:0|1:2,0:0:0:0:
268,20,40121,6,0,P|188:32|152:36,1,99.9999999999999,8|0,1:0|1:0,0:0:0:0:
124,44,40580,1,4,1:2:0:0:
96,128,40887,1,4,1:2:0:0:
156,196,41193,1,2,0:0:0:0:
232,152,41499,1,0,0:0:0:0:
232,152,41652,2,0,P|228:92|208:44,1,99.9999999999999,0|2,0:0|0:0,0:0:0:0:
124,44,42264,5,4,1:2:0:0:
72,116,42570,2,0,P|62:165|60:215,1,99.9999999999999,8|0,1:0|1:0,1:0:0:0:
60,260,43029,1,4,1:2:0:0:
124,324,43336,2,0,L|244:312,1,99.9999999999999,4|2,1:2|0:0,0:0:0:0:
304,276,43948,1,0,0:0:0:0:
304,276,44101,2,0,B|268:180|332:176|292:80,1,200,0|4,0:0|1:2,0:0:0:0:
216,36,45019,5,8,1:0:0:0:
140,80,45325,1,0,1:0:0:0:
140,80,45478,1,4,1:2:0:0:
140,172,45785,2,0,P|72:164|28:156,1,99.9999999999999,4|2,1:2|0:0,0:0:0:0:
48,68,46397,1,0,0:0:0:0:
48,68,46550,1,0,0:0:0:0:
140,80,46856,1,2,0:0:0:0:
140,172,47162,6,0,P|128:240|116:280,1,99.9999999999999,4|8,1:2|1:0,0:0:0:0:
180,336,47774,1,0,1:0:0:0:
180,336,47927,1,4,1:2:0:0:
268,316,48234,1,4,1:2:0:0:
256,88,48999,5,0,0:0:0:0:
94,164,49611,2,0,P|256:264|418:164,1,400,4|0,0:0|0:0,0:0:0:0:
256,88,51448,1,0,0:0:0:0:
256,268,52060,6,0,P|74:246|76:64,1,400
256,88,53897,1,0,0:0:0:0:
376,228,54509,6,0,P|252:256|172:260,1,200
256,88,55734,2,0,P|355:95|452:120,1,200,2|0,0:0|0:0,0:0:0:0:
444,300,56958,1,0,0:0:0:0:
172,64,58183,6,0,P|152:160|160:264,1,200
236,308,59101,1,2,0:0:0:0:
280,228,59407,6,0,P|288:164|288:120,1,99.9999999999999,6|8,0:2|0:0,0:0:0:0:
208,88,60019,1,2,0:2:0:0:
120,76,60325,1,8,0:0:0:0:
156,160,60632,2,0,L|148:228,2,50,0|2|8,0:0|0:2|0:0,0:0:0:0:
208,88,61244,1,0,0:0:0:0:
256,16,61550,1,8,0:0:0:0:
332,60,61856,6,0,P|404:56|448:52,1,99.9999999999999,2|8,0:2|0:0,0:0:0:0:
492,120,62468,1,2,0:2:0:0:
492,120,62774,1,8,0:0:0:0:
472,208,63080,2,0,L|480:276,2,50,2|0|8,0:2|0:0|0:0,0:0:0:0:
388,176,63693,2,0,P|339:163|289:164,1,99.9999999999999,2|8,0:2|0:0,0:0:0:0:
204,188,64305,6,0,L|184:88,1,99.9999999999999,6|8,0:2|0:0,0:0:0:0:
248,24,64917,1,2,0:2:0:0:
332,52,65223,1,8,0:0:0:0:
352,140,65529,2,0,L|412:128,2,50,2|0|8,0:2|0:0|0:0,0:0:0:0:
292,208,66142,1,2,0:2:0:0:
204,188,66448,1,8,0:0:0:0:
176,100,66754,6,0,L|284:104,1,99.9999999999999,6|8,0:2|0:0,0:0:0:0:
352,52,67366,1,2,0:2:0:0:
352,52,67672,1,8,0:0:0:0:
372,140,67978,2,0,L|432:152,2,50,6|0|6,0:2|0:0|0:2,0:0:0:0:
324,216,68591,2,0,P|335:263|340:316,1,99.9999999999999,0|2,0:0|0:0,0:0:0:0:
256,348,69203,5,6,0:2:0:0:
188,292,69509,1,8,0:0:0:0:
104,320,69815,1,2,0:2:0:0:
36,264,70121,1,8,0:0:0:0:
52,180,70427,2,0,L|32:124,2,50,0|2|8,0:0|0:2|0:0,0:0:0:0:
136,148,71040,1,0,0:0:0:0:
120,236,71346,1,8,0:0:0:0:
188,292,71652,6,0,P|268:304|308:308,1,99.9999999999999,2|8,0:2|0:0,0:0:0:0:
356,248,72264,2,0,P|368:168|372:128,1,99.9999999999999,2|8,0:2|0:0,0:0:0:0:
312,80,72876,2,0,L|276:136,2,50,2|0|8,0:2|0:0|0:0,0:0:0:0:
400,60,73489,1,2,0:2:0:0:
464,124,73795,1,8,0:0:0:0:
448,212,74101,6,0,P|376:208|340:200,1,99.9999999999999,6|8,0:2|0:0,0:0:0:0:
260,188,74713,2,0,P|188:192|152:200,1,99.9999999999999,2|8,0:2|0:0,0:0:0:0:
84,244,75325,2,0,P|76:272|72:304,2,50,6|0|8,0:2|0:0|0:0,0:0:0:0:
36,168,75938,1,2,0:2:0:0:
112,120,76244,1,8,0:0:0:0:
162,198,76550,6,0,P|170:258|170:302,1,99.9999999999999,4|2,1:2|0:0,0:0:0:0:
256,328,77162,2,0,L|372:312,1,99.9999999999999,0|2,0:0|0:0,0:0:0:0:
396,236,77774,2,0,L|467:246,2,50,0|0|2,0:0|0:0|0:0,0:0:0:0:
396,144,78387,1,0,0:0:0:0:
316,188,78693,1,2,0:0:0:0:
240,144,78999,6,0,P|224:96|248:40,1,99.9999999999999,6|8,0:2|0:0,0:0:0:0:
316,96,79611,1,2,0:2:0:0:
316,188,79917,1,8,0:0:0:0:
236,232,80223,2,0,P|156:224|32:208,1,200,2|2,0:2|0:2,0:0:0:0:
16,120,81142,1,8,0:0:0:0:
68,48,81448,6,0,P|128:52|168:56,1,99.9999999999999,6|8,0:2|0:0,0:0:0:0:
240,108,82060,1,2,0:2:0:0:
160,148,82366,1,8,0:0:0:0:
232,204,82672,2,0,P|320:164|320:56,1,200,2|2,0:2|0:2,0:0:0:0:
256,16,83591,1,8,0:0:0:0:
172,49,83897,6,0,P|160:98|160:148,1,99.9999999999999,6|8,0:2|0:0,0:0:0:0:
232,204,84509,2,0,P|281:206|331:198,1,99.9999999999999,2|8,0:2|0:0,0:0:0:0:
404,148,85121,2,0,P|460:152|476:156,2,50,2|0|8,0:2|0:0|0:0,0:0:0:0:
416,236,85734,2,0,P|412:288|396:340,1,99.9999999999999,2|8,0:2|0:0,0:0:0:0:
308,336,86346,6,0,L|196:348,1,99.9999999999999,6|8,0:2|0:0,0:0:0:0:
128,304,86958,1,2,0:2:0:0:
116,216,87264,1,8,0:0:0:0:
200,248,87570,2,0,L|260:240,2,50,0|2|8,0:0|0:2|0:0,0:0:0:0:
128,304,88183,2,0,P|80:296|32:252,1,99.9999999999999,0|2,0:0|0:0,0:0:0:0:
116,216,88795,5,6,0:2:0:0:
52,152,89101,1,8,0:0:0:0:
108,80,89407,2,0,P|148:88|220:92,1,99.9999999999999,2|8,0:2|0:0,0:0:0:0:
292,60,90019,2,0,P|296:32|296:8,2,50,0|2|8,0:0|0:2|0:0,0:0:0:0:
276,148,90632,2,0,P|264:204|268:252,1,99.9999999999999,0|8,0:0|0:0,0:0:0:0:
296,332,91244,6,0,L|408:324,1,99.9999999999999,6|8,0:2|0:0,0:0:0:0:
484,316,91856,1,2,0:2:0:0:
484,316,92162,1,8,0:0:0:0:
476,228,92468,2,0,L|492:172,2,50,2|0|8,0:2|0:0|0:0,0:0:0:0:
388,240,93080,2,0,P|288:236|184:212,1,200,0|6,0:0|0:2,0:0:0:0:
148,136,93999,5,8,0:0:0:0:
208,68,94305,2,0,P|256:60|308:68,1,99.9999999999999,2|8,0:2|0:0,0:0:0:0:
364,136,94917,2,0,L|424:136,2,50,2|0|8,0:2|0:0|0:0,0:0:0:0:
304,204,95529,2,0,P|256:212|204:204,1,99.9999999999999,2|8,0:2|0:0,0:0:0:0:
148,136,96142,6,0,P|100:136|40:160,1,99.9999999999999,4|2,1:2|0:0,0:0:0:0:
20,240,96754,2,0,P|68:240|128:216,1,99.9999999999999,0|2,0:0|0:0,0:0:0:0:
208,204,97366,2,0,L|219:268,2,50,0|0|2,0:0|0:0|0:0,0:0:0:0:
244,120,97978,2,0,P|336:100|420:156,1,200,0|6,0:0|1:2,0:0:0:0:
404,244,98897,5,8,1:0:0:0:
388,332,99203,1,0,1:0:0:0:
388,332,99356,1,4,1:2:0:0:
320,276,99662,2,0,P|264:280|212:292,1,99.9999999999999,4|2,1:2|0:0,0:0:0:0:
144,332,100274,1,0,0:0:0:0:
144,332,100427,1,0,0:0:0:0:
68,284,100734,1,2,0:0:0:0:
148,240,101040,6,0,P|144:184|132:136,1,99.9999999999999,4|8,1:2|1:0,0:0:0:0:
192,76,101652,1,0,1:0:0:0:
192,76,101805,2,0,P|260:88|291:88,1,99.9999999999999,4|4,1:2|1:2,0:0:0:0:
376,64,102417,1,2,0:0:0:0:
456,104,102723,1,0,0:0:0:0:
456,104,102876,2,0,B|464:160|440:204|440:204|452:252|428:300,1,200,0|4,0:0|1:2,0:0:0:0:
360,236,103795,5,8,1:0:0:0:
292,300,104101,1,0,1:0:0:0:
292,300,104254,2,0,P|216:312|176:316,1,99.9999999999999,4|4,1:2|1:2,0:0:0:0:
108,284,104866,1,2,0:0:0:0:
136,200,105172,1,0,0:0:0:0:
136,200,105325,1,0,0:0:0:0:
220,228,105632,1,2,0:0:0:0:
256,148,105938,6,0,P|308:144|376:132,1,99.9999999999999,4|8,1:2|1:0,0:0:0:0:
440,172,106550,1,0,1:0:0:0:
440,172,106703,1,4,1:2:0:0:
416,260,107009,1,4,1:2:0:0:
