osu file format v14

[General]
AudioFilename: Niflheimr.mp3
AudioLeadIn: 0
PreviewTime: 73957
Countdown: 0
SampleSet: Soft
StackLeniency: 0.7
Mode: 3
LetterboxInBreaks: 0
SpecialStyle: 0
WidescreenStoryboard: 0

[Editor]
DistanceSpacing: 1
BeatDivisor: 4
GridSize: 16
TimelineZoom: 2.1

[Metadata]
Title:Niflheimr
TitleUnicode:Niflheimr
Artist:Qrispy Joybox
ArtistUnicode:Qrispy Joybox
Creator:AchsanLovers
Version:Sya's Normal
Source:jubeat prop
Tags:ly0572 syadow- tofu1222 amiichii
BeatmapID:1404406
BeatmapSetID:663499

[Difficulty]
HPDrainRate:7
CircleSize:4
OverallDifficulty:7
ApproachRate:5
SliderMultiplier:1.4
SliderTickRate:1

[Events]
//Background and Video events
0,0,"BG.jpg",0,0
//Break Periods
//Storyboard Layer 0 (Background)
//Storyboard Layer 1 (Fail)
//Storyboard Layer 2 (Pass)
//Storyboard Layer 3 (Foreground)
//Storyboard Sound Samples

[TimingPoints]
1780,322.58064516129,4,2,1,40,1,0
74038,-100,4,2,1,40,0,1
83070,-100,4,2,1,40,0,0
84360,-100,4,2,1,40,0,1
94683,-100,4,2,1,40,0,0

[HitObjects]
64,192,1780,5,2,0:0:0:0:
448,192,1780,1,4,0:0:0:0:
320,192,2102,1,2,3:0:0:0:
192,192,2425,1,2,0:0:0:0:
64,192,2747,1,2,3:0:0:0:
320,192,3070,1,8,0:0:0:0:
448,192,3070,1,0,0:0:0:0:
64,192,3392,1,2,3:0:0:0:
192,192,3715,1,2,0:0:0:0:
320,192,4038,1,2,3:0:0:0:
448,192,4360,1,2,0:0:0:0:
320,192,4683,1,2,3:0:0:0:
192,192,5005,1,2,0:0:0:0:
64,192,5328,1,2,3:0:0:0:
192,192,5650,1,8,0:0:0:0:
448,192,5650,1,0,0:0:0:0:
320,192,5973,1,2,3:0:0:0:
192,192,6296,1,2,0:0:0:0:
448,192,6618,1,2,3:0:0:0:
320,192,6941,1,2,0:0:0:0:
64,192,7263,1,2,3:0:0:0:
192,192,7586,1,2,0:0:0:0:
448,192,7909,1,2,3:0:0:0:
192,192,8231,1,8,0:0:0:0:
320,192,8231,1,0,0:0:0:0:
64,192,8554,1,2,3:0:0:0:
192,192,8876,1,2,0:0:0:0:
320,192,9199,1,2,3:0:0:0:
64,192,9521,1,2,0:0:0:0:
448,192,9521,1,0,0:0:0:0:
192,192,9683,1,0,0:0:0:0:
320,192,9844,1,2,3:0:0:0:
448,192,10167,1,2,0:0:0:0:
192,192,10167,1,0,0:0:0:0:
320,192,10328,1,0,0:0:0:0:
192,192,10489,1,8,0:0:0:0:
448,192,10650,1,0,0:0:0:0:
64,192,10812,1,2,0:0:0:0:
320,192,10812,1,0,0:0:0:0:
192,192,10973,1,0,0:0:0:0:
320,192,11134,1,2,3:0:0:0:
448,192,11296,1,0,0:0:0:0:
64,192,11457,1,2,0:0:0:0:
192,192,11457,1,0,0:0:0:0:
320,192,11618,1,0,0:0:0:0:
64,192,11779,1,8,0:0:0:0:
448,192,11941,1,0,0:0:0:0:
192,192,12102,1,2,0:0:0:0:
320,192,12102,1,4,0:0:0:0:
192,192,12747,1,0,0:0:0:0:
64,192,13392,1,2,0:0:0:0:
448,192,13392,1,4,0:0:0:0:
448,192,14038,1,0,0:0:0:0:
64,192,14683,1,2,0:0:0:0:
192,192,14683,1,4,0:0:0:0:
320,192,14844,1,0,0:0:0:0:
64,192,15086,1,0,0:0:0:0:
320,192,15328,1,4,0:0:0:0:
448,192,15328,1,2,0:0:0:0:
192,192,15489,1,0,0:0:0:0:
448,192,15570,1,0,0:0:0:0:
64,192,15731,1,0,0:0:0:0:
320,192,15892,1,0,0:0:0:0:
64,192,15973,1,4,0:0:0:0:
192,192,15973,1,2,0:0:0:0:
448,192,16134,1,0,0:0:0:0:
320,192,16296,1,0,0:0:0:0:
192,192,16457,1,0,0:0:0:0:
64,192,16618,1,2,0:0:0:0:
448,192,16618,1,4,0:0:0:0:
320,192,16779,1,0,0:0:0:0:
192,192,16941,1,0,0:0:0:0:
320,192,17102,1,0,0:0:0:0:
64,192,17263,1,2,0:0:0:0:
192,192,17263,1,4,0:0:0:0:
448,192,18554,128,8,18715:0:0:0:0:
64,192,18715,128,8,18876:0:0:0:0:
320,192,18876,128,8,19038:0:0:0:0:
192,192,19038,128,8,19199:0:0:0:0:
64,192,19199,1,2,0:0:0:0:
448,192,19199,1,0,0:0:0:0:
320,192,19521,128,8,19844:0:0:0:0:
64,192,19844,1,2,0:0:0:0:
192,192,19844,1,4,0:0:0:0:
192,192,20167,1,2,3:0:0:0:
320,192,20167,1,0,0:0:0:0:
320,192,20489,1,8,0:0:0:0:
448,192,20489,1,0,0:0:0:0:
64,192,20812,128,2,21134:3:0:0:0:
192,192,20812,1,0,0:0:0:0:
192,192,21134,1,2,0:0:0:0:
448,192,21134,1,0,0:0:0:0:
64,192,21457,1,2,3:0:0:0:
320,192,21457,1,0,0:0:0:0:
64,192,21779,1,8,0:0:0:0:
192,192,21779,1,0,0:0:0:0:
320,192,22102,1,2,3:0:0:0:
448,192,22102,1,0,0:0:0:0:
64,192,22425,1,2,0:0:0:0:
448,192,22425,1,0,0:0:0:0:
64,192,22747,1,2,3:0:0:0:
192,192,22747,1,0,0:0:0:0:
320,192,23070,1,8,0:0:0:0:
448,192,23070,1,0,0:0:0:0:
192,192,23392,1,2,3:0:0:0:
448,192,23392,1,0,0:0:0:0:
64,192,23715,1,2,0:0:0:0:
320,192,23715,1,0,0:0:0:0:
64,192,24038,1,2,3:0:0:0:
192,192,24038,1,0,0:0:0:0:
192,192,24360,1,8,0:0:0:0:
448,192,24360,1,0,0:0:0:0:
64,192,24683,1,2,3:0:0:0:
320,192,24683,1,0,0:0:0:0:
320,192,25005,1,2,0:0:0:0:
448,192,25005,1,4,3:0:0:0:
64,192,25328,1,2,3:0:0:0:
192,192,25328,1,0,0:0:0:0:
192,192,25650,1,8,0:0:0:0:
320,192,25650,1,0,0:0:0:0:
320,192,25973,128,2,26296:3:0:0:0:
448,192,25973,1,0,0:0:0:0:
64,192,26296,1,2,0:0:0:0:
448,192,26296,1,0,0:0:0:0:
192,192,26618,1,2,3:0:0:0:
320,192,26618,1,0,0:0:0:0:
64,192,26941,1,8,0:0:0:0:
320,192,26941,1,0,0:0:0:0:
192,192,27263,1,2,3:0:0:0:
448,192,27263,128,0,27586:0:0:0:0:
64,192,27586,1,2,0:0:0:0:
192,192,27586,1,0,0:0:0:0:
320,192,27909,1,2,3:0:0:0:
448,192,27909,1,0,0:0:0:0:
192,192,28231,1,8,0:0:0:0:
448,192,28231,1,0,0:0:0:0:
64,192,28554,128,2,28876:3:0:0:0:
320,192,28554,1,0,0:0:0:0:
320,192,28876,1,2,0:0:0:0:
448,192,28876,1,0,0:0:0:0:
192,192,29199,1,2,3:0:0:0:
448,192,29199,1,0,0:0:0:0:
64,192,29521,1,8,0:0:0:0:
320,192,29521,1,0,0:0:0:0:
64,192,29844,1,2,3:0:0:0:
192,192,29844,128,0,30167:0:0:0:0:
64,192,30167,1,2,0:0:0:0:
448,192,30167,1,4,3:0:0:0:
192,192,30489,1,2,3:0:0:0:
320,192,30489,1,0,0:0:0:0:
64,192,30812,1,8,0:0:0:0:
448,192,30812,1,0,0:0:0:0:
192,192,31134,1,2,3:0:0:0:
448,192,31134,1,0,0:0:0:0:
320,192,31296,1,0,0:0:0:0:
192,192,31457,1,0,0:0:0:0:
64,192,31457,1,2,0:0:0:0:
448,192,31618,1,0,0:0:0:0:
320,192,31779,1,0,0:0:0:0:
192,192,31779,1,2,3:0:0:0:
64,192,31941,1,0,0:0:0:0:
448,192,32102,1,0,0:0:0:0:
320,192,32102,1,8,0:0:0:0:
192,192,32263,1,0,0:0:0:0:
64,192,32425,1,2,3:0:0:0:
448,192,32425,1,0,0:0:0:0:
320,192,32586,1,0,0:0:0:0:
192,192,32747,1,0,0:0:0:0:
64,192,32747,1,2,0:0:0:0:
448,192,32909,1,0,0:0:0:0:
192,192,33070,1,2,3:0:0:0:
320,192,33070,1,0,0:0:0:0:
64,192,33231,1,0,0:0:0:0:
448,192,33392,1,0,0:0:0:0:
320,192,33392,1,8,0:0:0:0:
192,192,33554,1,0,0:0:0:0:
64,192,33715,1,2,3:0:0:0:
320,192,33715,1,0,0:0:0:0:
448,192,33876,1,0,0:0:0:0:
192,192,34038,1,0,0:0:0:0:
64,192,34038,1,2,0:0:0:0:
448,192,34199,1,0,0:0:0:0:
192,192,34360,1,2,3:0:0:0:
320,192,34360,1,0,0:0:0:0:
64,192,34521,1,0,0:0:0:0:
448,192,34683,1,8,0:0:0:0:
320,192,34683,1,0,0:0:0:0:
64,192,34844,1,0,0:0:0:0:
448,192,35005,1,0,0:0:0:0:
192,192,35005,1,2,3:0:0:0:
320,192,35167,1,0,0:0:0:0:
64,192,35328,1,2,0:0:0:0:
448,192,35328,1,4,3:0:0:0:
192,192,35650,1,2,3:0:0:0:
320,192,35650,1,0,0:0:0:0:
64,192,35973,1,8,0:0:0:0:
448,192,35973,1,0,0:0:0:0:
320,192,36134,1,0,0:0:0:0:
64,192,36296,1,2,3:0:0:0:
192,192,36296,1,0,0:0:0:0:
320,192,36457,1,0,0:0:0:0:
64,192,36618,1,2,0:0:0:0:
448,192,36618,1,0,0:0:0:0:
192,192,36941,1,2,3:0:0:0:
448,192,36941,1,0,0:0:0:0:
192,192,37263,1,8,0:0:0:0:
320,192,37263,1,0,0:0:0:0:
64,192,37586,1,2,3:0:0:0:
320,192,37586,1,0,0:0:0:0:
64,192,37909,1,2,0:0:0:0:
448,192,37909,1,4,0:0:0:0:
320,192,38070,1,0,0:0:0:0:
192,192,38231,1,2,3:0:0:0:
64,192,38392,1,0,0:0:0:0:
192,192,38554,1,2,0:0:0:0:
320,192,38554,1,4,0:0:0:0:
448,192,38715,1,0,0:0:0:0:
64,192,38876,1,8,0:0:0:0:
192,192,39038,1,0,0:0:0:0:
320,192,39199,1,2,0:0:0:0:
448,192,39199,1,4,0:0:0:0:
64,192,39360,1,0,0:0:0:0:
192,192,39521,1,2,3:0:0:0:
320,192,39683,1,0,0:0:0:0:
64,192,39844,1,2,0:0:0:0:
448,192,39844,1,0,0:0:0:0:
448,192,40167,128,8,40489:0:0:0:0:
64,192,40489,1,4,0:0:0:0:
320,192,40489,1,2,0:0:0:0:
192,192,40812,1,2,3:0:0:0:
448,192,40812,1,0,0:0:0:0:
320,192,41134,1,8,0:0:0:0:
448,192,41134,1,0,0:0:0:0:
64,192,41457,1,2,3:0:0:0:
320,192,41618,1,0,0:0:0:0:
64,192,41779,1,2,0:0:0:0:
320,192,41941,1,0,0:0:0:0:
64,192,42102,1,2,3:0:0:0:
320,192,42263,1,0,0:0:0:0:
64,192,42425,1,8,0:0:0:0:
192,192,42425,1,0,0:0:0:0:
448,192,42586,1,0,0:0:0:0:
192,192,42747,1,2,3:0:0:0:
448,192,42909,1,0,0:0:0:0:
192,192,43070,1,2,0:0:0:0:
448,192,43231,1,0,0:0:0:0:
192,192,43392,1,2,3:0:0:0:
448,192,43554,1,0,0:0:0:0:
64,192,43715,1,8,0:0:0:0:
192,192,43715,1,0,0:0:0:0:
448,192,43876,1,0,0:0:0:0:
64,192,44038,1,2,3:0:0:0:
448,192,44199,1,0,0:0:0:0:
64,192,44360,1,2,0:0:0:0:
448,192,44521,1,0,0:0:0:0:
64,192,44683,1,2,3:0:0:0:
448,192,44844,1,0,0:0:0:0:
64,192,45005,1,8,0:0:0:0:
192,192,45005,1,0,0:0:0:0:
448,192,45167,1,0,0:0:0:0:
64,192,45328,1,2,3:0:0:0:
448,192,45489,1,0,0:0:0:0:
64,192,45650,1,2,0:0:0:0:
320,192,45650,1,4,3:0:0:0:
192,192,45973,1,2,3:0:0:0:
448,192,45973,1,0,0:0:0:0:
64,192,46296,128,8,46618:0:0:0:0:
320,192,46296,1,0,0:0:0:0:
192,192,46618,1,2,3:0:0:0:
448,192,46618,128,0,46941:0:0:0:0:
192,192,46941,1,2,0:0:0:0:
320,192,46941,1,0,0:0:0:0:
64,192,47263,1,2,3:0:0:0:
448,192,47263,1,0,0:0:0:0:
192,192,47586,128,8,47909:0:0:0:0:
320,192,47586,1,0,0:0:0:0:
64,192,47909,1,2,3:0:0:0:
320,192,47909,128,0,48231:0:0:0:0:
64,192,48231,1,2,0:0:0:0:
448,192,48231,1,0,0:0:0:0:
192,192,48554,1,2,3:0:0:0:
320,192,48554,1,0,0:0:0:0:
192,192,48876,1,8,0:0:0:0:
448,192,48876,128,0,49199:0:0:0:0:
64,192,49199,128,2,49521:3:0:0:0:
320,192,49199,1,0,0:0:0:0:
192,192,49521,1,2,0:0:0:0:
320,192,49521,1,0,0:0:0:0:
64,192,49844,1,2,3:0:0:0:
448,192,49844,1,0,0:0:0:0:
192,192,50167,1,8,0:0:0:0:
320,192,50167,128,0,50489:0:0:0:0:
192,192,50489,128,2,50812:3:0:0:0:
448,192,50489,1,0,0:0:0:0:
64,192,50812,1,2,0:0:0:0:
448,192,50812,1,4,3:0:0:0:
192,192,51134,1,2,3:0:0:0:
320,192,51134,1,0,0:0:0:0:
320,192,51457,1,8,0:0:0:0:
448,192,51457,1,0,0:0:0:0:
64,192,51779,1,2,3:0:0:0:
448,192,51779,1,0,0:0:0:0:
320,192,51941,1,0,0:0:0:0:
64,192,52102,128,2,52425:0:0:0:0:
192,192,52102,1,0,0:0:0:0:
320,192,52425,1,2,3:0:0:0:
448,192,52425,128,0,52747:0:0:0:0:
64,192,52747,1,8,0:0:0:0:
192,192,52747,1,0,0:0:0:0:
192,192,53070,1,2,3:0:0:0:
320,192,53070,1,0,0:0:0:0:
320,192,53392,1,2,0:0:0:0:
448,192,53392,1,0,0:0:0:0:
64,192,53715,1,2,3:0:0:0:
448,192,53715,1,0,0:0:0:0:
192,192,54038,1,8,0:0:0:0:
320,192,54038,1,0,0:0:0:0:
448,192,54199,1,0,0:0:0:0:
64,192,54360,1,2,3:0:0:0:
192,192,54360,1,0,0:0:0:0:
320,192,54521,1,0,0:0:0:0:
64,192,54683,1,2,0:0:0:0:
448,192,54683,1,0,0:0:0:0:
192,192,54844,1,0,0:0:0:0:
320,192,55005,1,2,3:0:0:0:
448,192,55005,1,0,0:0:0:0:
64,192,55167,1,0,0:0:0:0:
192,192,55328,1,8,0:0:0:0:
448,192,55328,1,0,0:0:0:0:
320,192,55489,1,0,0:0:0:0:
64,192,55650,1,2,3:0:0:0:
192,192,55650,1,0,0:0:0:0:
448,192,55812,1,0,0:0:0:0:
192,192,55973,1,2,0:0:0:0:
320,192,55973,1,4,0:0:0:0:
64,192,56134,1,0,0:0:0:0:
320,192,56296,1,2,3:0:0:0:
448,192,56296,1,0,0:0:0:0:
64,192,56618,1,4,0:0:0:0:
192,192,56618,1,2,0:0:0:0:
320,192,56779,1,0,0:0:0:0:
64,192,56941,1,8,0:0:0:0:
448,192,56941,1,0,0:0:0:0:
192,192,57263,1,2,0:0:0:0:
448,192,57263,1,4,0:0:0:0:
320,192,57425,1,0,0:0:0:0:
64,192,57586,1,2,3:0:0:0:
192,192,57586,1,0,0:0:0:0:
320,192,57909,1,4,0:0:0:0:
448,192,57909,1,2,0:0:0:0:
192,192,58070,1,0,0:0:0:0:
64,192,58231,1,8,0:0:0:0:
448,192,58231,1,0,0:0:0:0:
64,192,58554,1,2,0:0:0:0:
320,192,58554,1,4,0:0:0:0:
192,192,58715,1,0,0:0:0:0:
320,192,58876,1,2,3:0:0:0:
448,192,58876,1,0,0:0:0:0:
64,192,59199,1,2,0:0:0:0:
192,192,59199,1,4,0:0:0:0:
320,192,59360,1,0,0:0:0:0:
64,192,59521,1,8,0:0:0:0:
448,192,59521,1,0,0:0:0:0:
320,192,59844,1,4,0:0:0:0:
448,192,59844,1,8,0:0:0:0:
64,192,60005,1,8,0:0:0:0:
192,192,60167,1,8,0:0:0:0:
320,192,60167,1,0,0:0:0:0:
448,192,60328,1,8,0:0:0:0:
64,192,60489,1,2,0:0:0:0:
192,192,60489,1,0,0:0:0:0:
320,192,60812,128,8,61134:0:0:0:0:
64,192,61134,1,2,0:0:0:0:
448,192,61134,1,4,0:0:0:0:
192,192,61349,1,0,0:0:0:0:
448,192,61564,1,0,0:0:0:0:
192,192,61779,1,0,0:0:0:0:
448,192,61995,1,0,0:0:0:0:
192,192,62210,1,0,0:0:0:0:
320,192,62425,1,0,0:0:0:0:
64,192,62640,1,0,0:0:0:0:
320,192,62855,1,0,0:0:0:0:
64,192,63070,1,0,0:0:0:0:
320,192,63285,1,0,0:0:0:0:
64,192,63500,1,0,0:0:0:0:
448,192,63715,1,0,0:0:0:0:
64,192,63930,1,0,0:0:0:0:
448,192,64145,1,0,0:0:0:0:
64,192,64360,1,0,0:0:0:0:
448,192,64575,1,0,0:0:0:0:
64,192,64790,1,0,0:0:0:0:
320,192,65005,1,0,0:0:0:0:
192,192,65220,1,0,0:0:0:0:
320,192,65435,1,0,0:0:0:0:
192,192,65650,1,0,0:0:0:0:
320,192,65866,1,0,0:0:0:0:
64,192,66054,128,0,66296:0:0:0:0:
192,192,66296,1,4,0:0:0:0:
448,192,66296,1,2,0:0:0:0:
320,192,66618,1,0,0:0:0:0:
320,192,66941,1,0,0:0:0:0:
320,192,67263,1,0,0:0:0:0:
192,192,67425,1,0,0:0:0:0:
64,192,67586,1,2,0:0:0:0:
448,192,67586,1,4,0:0:0:0:
192,192,67909,1,0,0:0:0:0:
192,192,68231,1,0,0:0:0:0:
192,192,68554,1,0,0:0:0:0:
320,192,68715,1,0,0:0:0:0:
64,192,68876,1,2,0:0:0:0:
448,192,68876,1,4,0:0:0:0:
192,192,69038,1,0,0:0:0:0:
320,192,69279,1,0,0:0:0:0:
64,192,69521,1,2,0:0:0:0:
192,192,69521,1,4,0:0:0:0:
448,192,69683,1,0,0:0:0:0:
64,192,69763,1,0,0:0:0:0:
320,192,69925,1,0,0:0:0:0:
192,192,70086,1,0,0:0:0:0:
320,192,70167,1,2,0:0:0:0:
448,192,70167,1,4,0:0:0:0:
64,192,70328,1,0,0:0:0:0:
192,192,70489,1,0,0:0:0:0:
320,192,70650,1,0,0:0:0:0:
64,192,70812,1,2,0:0:0:0:
192,192,70812,1,4,0:0:0:0:
448,192,70973,1,0,0:0:0:0:
320,192,71134,1,0,0:0:0:0:
192,192,71296,1,0,0:0:0:0:
320,192,71457,1,2,0:0:0:0:
448,192,71457,1,4,0:0:0:0:
64,192,72747,128,8,72909:0:0:0:0:
448,192,72909,128,8,73070:0:0:0:0:
192,192,73070,128,8,73231:0:0:0:0:
320,192,73231,128,8,73392:0:0:0:0:
64,192,73392,1,2,0:0:0:0:
448,192,73392,1,0,0:0:0:0:
320,192,73715,128,8,74038:0:0:0:0:
64,192,74038,1,4,0:0:0:0:
192,192,74038,1,2,0:0:0:0:
448,192,74360,128,8,74683:0:0:0:0:
64,192,74683,1,2,0:0:0:0:
192,192,74844,1,0,0:0:0:0:
320,192,75005,1,8,0:0:0:0:
64,192,75167,1,0,0:0:0:0:
320,192,75328,1,2,0:0:0:0:
192,192,75489,1,0,0:0:0:0:
448,192,75650,1,8,0:0:0:0:
320,192,75812,1,0,0:0:0:0:
64,192,75973,1,2,0:0:0:0:
192,192,76134,1,0,0:0:0:0:
320,192,76296,1,8,0:0:0:0:
448,192,76457,1,0,0:0:0:0:
64,192,76618,1,4,0:0:0:0:
192,192,76618,1,2,0:0:0:0:
320,192,76941,128,8,77263:0:0:0:0:
192,192,77263,1,2,0:0:0:0:
448,192,77425,1,0,0:0:0:0:
64,192,77586,1,8,0:0:0:0:
320,192,77747,1,0,0:0:0:0:
192,192,77909,1,2,0:0:0:0:
448,192,78070,1,0,0:0:0:0:
320,192,78231,1,8,0:0:0:0:
64,192,78392,1,0,0:0:0:0:
192,192,78554,1,2,0:0:0:0:
448,192,78715,1,0,0:0:0:0:
320,192,78876,1,8,0:0:0:0:
192,192,79038,1,0,0:0:0:0:
64,192,79199,1,2,0:0:0:0:
448,192,79199,128,4,79521:0:0:0:0:
192,192,79414,1,0,0:0:0:0:
320,192,79521,128,8,79844:0:0:0:0:
64,192,79629,1,0,0:0:0:0:
192,192,79844,128,2,80167:0:0:0:0:
320,192,80059,1,0,0:0:0:0:
64,192,80167,128,8,80489:0:0:0:0:
448,192,80274,1,0,0:0:0:0:
192,192,80489,1,2,0:0:0:0:
448,192,80489,128,4,80812:0:0:0:0:
320,192,80704,1,0,0:0:0:0:
192,192,80812,128,8,81134:0:0:0:0:
64,192,80919,1,0,0:0:0:0:
320,192,81134,128,2,81457:0:0:0:0:
192,192,81349,1,0,0:0:0:0:
64,192,81457,128,8,81779:0:0:0:0:
320,192,81672,1,0,0:0:0:0:
192,192,81779,1,2,0:0:0:0:
448,192,81779,1,4,0:0:0:0:
320,192,81941,1,0,0:0:0:0:
64,192,82102,1,8,0:0:0:0:
192,192,82102,1,0,0:0:0:0:
320,192,82263,1,0,0:0:0:0:
64,192,82425,1,2,0:0:0:0:
448,192,82425,1,4,0:0:0:0:
192,192,82586,1,0,0:0:0:0:
320,192,82747,1,8,0:0:0:0:
448,192,82747,1,0,0:0:0:0:
192,192,82909,1,0,0:0:0:0:
64,192,83070,1,2,0:0:0:0:
448,192,83070,1,4,0:0:0:0:
320,192,83231,1,0,0:0:0:0:
64,192,83392,1,0,0:0:0:0:
192,192,83554,1,0,0:0:0:0:
448,192,83715,1,0,0:0:0:0:
320,192,83876,1,0,0:0:0:0:
192,192,84038,1,0,0:0:0:0:
64,192,84199,1,0,0:0:0:0:
320,192,84360,1,2,0:0:0:0:
448,192,84360,1,4,0:0:0:0:
64,192,84683,128,8,85005:0:0:0:0:
448,192,85005,1,2,0:0:0:0:
192,192,85167,1,0,0:0:0:0:
320,192,85328,1,8,0:0:0:0:
64,192,85489,1,0,0:0:0:0:
192,192,85650,1,2,0:0:0:0:
448,192,85812,1,0,0:0:0:0:
320,192,85973,1,8,0:0:0:0:
192,192,86134,1,0,0:0:0:0:
448,192,86296,1,2,0:0:0:0:
64,192,86457,1,0,0:0:0:0:
192,192,86618,1,8,0:0:0:0:
320,192,86779,1,0,0:0:0:0:
64,192,86941,1,2,0:0:0:0:
448,192,86941,1,4,0:0:0:0:
192,192,87263,128,8,87586:0:0:0:0:
448,192,87586,1,2,0:0:0:0:
320,192,87747,1,0,0:0:0:0:
192,192,87909,1,8,0:0:0:0:
64,192,88070,1,0,0:0:0:0:
192,192,88231,1,2,0:0:0:0:
320,192,88392,1,0,0:0:0:0:
448,192,88554,1,8,0:0:0:0:
192,192,88715,1,0,0:0:0:0:
320,192,88876,1,2,0:0:0:0:
64,192,89038,1,0,0:0:0:0:
192,192,89199,1,8,0:0:0:0:
320,192,89360,1,0,0:0:0:0:
64,192,89521,128,2,89844:0:0:0:0:
448,192,89521,1,4,0:0:0:0:
320,192,89736,1,0,0:0:0:0:
192,192,89844,128,8,90167:0:0:0:0:
448,192,89952,1,0,0:0:0:0:
320,192,90167,128,2,90489:0:0:0:0:
64,192,90382,1,0,0:0:0:0:
448,192,90489,128,8,90812:0:0:0:0:
192,192,90597,1,0,0:0:0:0:
320,192,90812,1,4,0:0:0:0:
64,192,90812,1,2,0:0:0:0:
192,192,90973,1,0,0:0:0:0:
320,192,91134,1,8,0:0:0:0:
448,192,91296,1,0,0:0:0:0:
192,192,91457,1,2,0:0:0:0:
64,192,91618,1,0,0:0:0:0:
448,192,91779,128,8,92102:0:0:0:0:
192,192,92102,1,4,0:0:0:0:
64,192,92102,1,2,0:0:0:0:
320,192,92263,1,0,0:0:0:0:
448,192,92425,1,8,0:0:0:0:
64,192,92425,1,0,0:0:0:0:
192,192,92586,1,0,0:0:0:0:
320,192,92747,1,4,0:0:0:0:
64,192,92747,1,2,0:0:0:0:
448,192,92909,1,0,0:0:0:0:
192,192,93070,1,8,0:0:0:0:
64,192,93070,1,0,0:0:0:0:
320,192,93231,1,0,0:0:0:0:
64,192,93392,1,2,0:0:0:0:
448,192,93392,1,4,0:0:0:0:
192,192,93554,1,0,0:0:0:0:
320,192,93715,1,8,0:0:0:0:
448,192,93715,1,0,0:0:0:0:
64,192,93876,1,0,0:0:0:0:
192,192,94038,1,2,0:0:0:0:
320,192,94038,1,4,0:0:0:0:
448,192,94199,1,0,0:0:0:0:
64,192,94360,1,8,0:0:0:0:
320,192,94360,1,0,0:0:0:0:
192,192,94521,1,0,0:0:0:0:
64,192,94683,1,4,0:0:0:0:
448,192,94683,1,2,0:0:0:0:
320,192,94844,1,0,0:0:0:0:
192,192,95005,1,0,0:0:0:0:
320,192,95973,1,2,0:0:0:0:
448,192,95973,1,4,0:0:0:0:
64,192,96134,1,0,0:0:0:0:
448,192,96296,1,0,0:0:0:0:
64,192,97263,1,2,0:0:0:0:
192,192,97263,1,4,0:0:0:0:
320,192,97425,1,0,0:0:0:0:
192,192,97586,1,0,0:0:0:0:
320,192,97909,1,2,0:0:0:0:
448,192,97909,1,4,0:0:0:0:
192,192,98070,1,0,0:0:0:0:
320,192,98231,1,0,0:0:0:0:
64,192,98554,1,8,0:0:0:0:
448,192,98554,1,4,0:0:0:0:
192,192,98715,1,8,0:0:0:0:
320,192,98876,1,8,0:0:0:0:
448,192,99038,1,8,0:0:0:0:
192,192,99199,1,4,0:0:0:0:
64,192,99199,1,2,0:0:0:0:
320,192,99360,1,2,0:0:0:0:
448,192,99521,1,8,0:0:0:0:
192,192,99521,1,0,0:0:0:0:
64,192,99683,1,8,0:0:0:0:
448,192,99844,1,4,0:0:0:0:
320,192,99844,1,2,0:0:0:0:
192,192,100005,1,0,0:0:0:0:
