osu file format v14

[General]
AudioFilename: Cytus Qrabit Twenty One.mp3
AudioLeadIn: 0
PreviewTime: -1
Countdown: 0
SampleSet: None
StackLeniency: 0.2
Mode: 0
LetterboxInBreaks: 1
WidescreenStoryboard: 0

[Editor]
DistanceSpacing: 1.1
BeatDivisor: 4
GridSize: 32
TimelineZoom: 1

[Metadata]
Title:Twenty One
TitleUnicode:Twenty One
Artist:Qrabit
ArtistUnicode:Qrabit
Creator:batwoman3
Version:Hard
Source:Cytus
Tags:
BeatmapID:775562
BeatmapSetID:351912

[Difficulty]
HPDrainRate:5
CircleSize:5
OverallDifficulty:8
ApproachRate:7
SliderMultiplier:1.4
SliderTickRate:1

[Events]
//Background and Video events
0,0,"Cytus_Qrabit_-_Twenty_One.jpg",0,0
//Break Periods
//Storyboard Layer 0 (Background)
//Storyboard Layer 1 (Fail)
//Storyboard Layer 2 (Pass)
//Storyboard Layer 3 (Foreground)
//Storyboard Sound Samples

[TimingPoints]
2030,454.545454545455,4,2,0,100,1,0
45666,-100,4,2,0,100,0,1
74757,-100,4,2,0,100,0,0

[HitObjects]
192,202,2030,6,0,P|192:234|216:256,1,52.5
203,249,2370,1,2,0:0:0:0:
203,249,2598,1,0,0:0:0:0:
203,249,2825,1,0,0:0:0:0:
353,218,3317,1,0,0:0:0:0:
353,218,3393,2,0,B|285:170|288:182|283:177,1,70,2|0,0:0|0:0,0:0:0:0:
266,100,3848,6,0,P|239:80|207:80,1,52.5
220,77,4189,1,2,0:0:0:0:
219,76,4416,1,0,0:0:0:0:
219,76,4643,1,0,0:0:0:0:
161,224,5136,1,0,0:0:0:0:
161,224,5211,2,0,P|174:190|206:176,1,70,2|0,0:0|0:0,0:0:0:0:
260,231,5590,1,0,0:0:0:0:
260,231,5666,6,0,P|250:259|274:285,1,52.5
260,277,6007,1,2,0:0:0:0:
260,277,6234,1,0,0:0:0:0:
260,277,6461,1,0,0:0:0:0:
428,248,6954,1,0,0:0:0:0:
428,248,7030,2,0,L|371:199,1,70,2|0,0:0|0:0,0:0:0:0:
356,142,7484,6,0,L|296:127,1,52.5
305,129,7825,1,2,0:0:0:0:
214,134,8052,2,0,L|172:191,1,70
172,190,8393,1,6,0:0:0:0:
223,300,8620,1,6,0:0:0:0:
303,195,8848,1,6,0:0:0:0:
383,300,9075,1,6,0:0:0:0:
359,146,9302,5,2,0:0:0:0:
346,116,9416,1,0,0:0:0:0:
329,89,9530,1,0,0:0:0:0:
306,67,9643,1,0,0:0:0:0:
276,55,9757,1,2,0:0:0:0:
246,43,9870,1,0,0:0:0:0:
214,41,9984,1,0,0:0:0:0:
183,49,10098,1,0,0:0:0:0:
159,70,10211,5,2,0:0:0:0:
190,75,10325,1,0,0:0:0:0:
218,88,10439,1,0,0:0:0:0:
240,109,10552,1,2,0:0:0:0:
260,132,10666,1,0,0:0:0:0:
270,161,10780,1,0,0:0:0:0:
277,191,10893,1,2,0:0:0:0:
273,222,11007,1,0,0:0:0:0:
262,251,11120,5,2,0:0:0:0:
249,221,11234,1,0,0:0:0:0:
232,194,11348,1,0,0:0:0:0:
209,172,11461,1,0,0:0:0:0:
179,160,11575,1,2,0:0:0:0:
149,148,11688,1,0,0:0:0:0:
117,146,11802,1,0,0:0:0:0:
86,154,11916,1,0,0:0:0:0:
62,175,12029,5,2,0:0:0:0:
93,180,12143,1,0,0:0:0:0:
121,193,12257,1,0,0:0:0:0:
143,214,12370,1,2,0:0:0:0:
163,237,12484,1,0,0:0:0:0:
173,266,12598,1,0,0:0:0:0:
180,296,12711,1,2,0:0:0:0:
176,327,12825,1,0,0:0:0:0:
206,309,12939,6,0,L|231:250,1,35,8|0,0:0|0:0,0:0:0:0:
306,75,13166,2,0,L|280:133,1,35,8|0,0:0|0:0,0:0:0:0:
137,239,13393,2,0,L|197:215,1,35,8|0,0:0|0:0,0:0:0:0:
374,144,13620,2,0,L|314:168,1,35,8|0,0:0|0:0,0:0:0:0:
139,142,13848,2,0,L|197:167,1,35,8|0,0:0|0:0,0:0:0:0:
373,242,14075,2,0,L|314:216,1,35,8|0,0:0|0:0,0:0:0:0:
208,73,14302,2,0,L|232:133,1,35,8|0,0:0|0:0,0:0:0:0:
303,310,14530,2,0,L|279:250,1,35,8|0,0:0|0:0,0:0:0:0:
206,309,14757,5,0,0:0:0:0:
206,309,14870,1,0,0:0:0:0:
256,192,15098,1,0,0:0:0:0:
256,192,15211,1,0,0:0:0:0:
304,73,15439,1,0,0:0:0:0:
304,73,15552,1,0,0:0:0:0:
304,73,15666,5,2,0:0:0:0:
276,86,15780,1,0,0:0:0:0:
248,99,15893,2,0,L|199:125,1,35
61,196,16120,1,8,0:0:0:0:
85,216,16234,1,0,0:0:0:0:
108,238,16348,2,0,L|146:270,1,35
246,343,16575,6,0,L|356:291,1,105,4|0,0:0|0:0,0:0:0:0:
372,283,17030,1,2,0:0:0:0:
390,222,17257,1,0,0:0:0:0:
378,160,17484,1,8,0:0:0:0:
256,256,17711,1,8,0:0:0:0:
134,160,17939,1,0,0:0:0:0:
256,256,18166,1,8,0:0:0:0:
145,297,18393,6,0,L|201:342,1,70
367,297,18848,2,0,L|311:342,1,70,2|0,0:0|0:0,0:0:0:0:
256,311,19302,1,2,0:0:0:0:
256,311,19416,1,2,0:0:0:0:
224,224,19643,1,2,0:0:0:0:
288,224,19984,1,2,0:0:0:0:
370,170,20211,5,0,0:0:0:0:
285,76,20552,2,0,L|243:87,1,35,2|0,0:0|0:0,0:0:0:0:
127,110,20893,2,0,P|103:165|142:246,1,140,2|0,0:0|0:0,0:0:0:0:
156,278,21575,2,0,P|237:307|286:270,2,140,10|0|10,0:0|0:0|0:0,0:0:0:0:
144,105,22939,1,0,0:0:0:0:
162,67,23052,1,2,0:0:0:0:
199,47,23166,1,2,0:0:0:0:
239,37,23280,1,2,0:0:0:0:
280,41,23393,1,0,0:0:0:0:
321,59,23507,1,2,0:0:0:0:
353,95,23620,1,2,0:0:0:0:
374,143,23734,1,2,0:0:0:0:
381,198,23848,6,0,B|454:220|454:220|443:271,1,105,6|0,0:0|0:0,0:0:0:0:
443,282,24302,2,0,P|414:311|381:311,1,70,2|0,0:0|0:0,0:0:0:0:
316,309,24757,1,8,0:0:0:0:
280,120,24984,1,8,0:0:0:0:
316,309,25211,1,0,0:0:0:0:
168,174,25439,1,8,0:0:0:0:
131,233,25666,6,0,P|177:246|205:226,1,70
238,182,26120,2,0,P|266:222|252:268,1,70,2|0,0:0|0:0,0:0:0:0:
335,243,26575,2,2,L|382:244,1,35
378,174,26916,1,2,0:0:0:0:
367,104,27143,1,2,0:0:0:0:
367,104,27257,1,2,0:0:0:0:
258,51,27484,5,0,0:0:0:0:
216,57,27598,1,0,0:0:0:0:
176,71,27711,1,0,0:0:0:0:
142,96,27825,1,0,0:0:0:0:
115,129,27939,1,8,0:0:0:0:
126,212,28166,2,0,L|134:249,2,35
209,209,28620,1,0,0:0:0:0:
213,293,28848,1,8,0:0:0:0:
254,286,28961,1,0,0:0:0:0:
287,259,29075,1,0,0:0:0:0:
308,222,29189,1,0,0:0:0:0:
309,180,29302,5,0,0:0:0:0:
310,95,29530,1,0,0:0:0:0:
360,27,29757,2,0,P|397:29|426:69,1,70,8|0,0:0|0:0,0:0:0:0:
400,245,30439,1,12,0:0:0:0:
256,64,30780,1,12,0:0:0:0:
112,245,31120,5,12,0:0:0:0:
114,76,31575,2,0,L|112:156,1,70
195,161,32030,1,8,0:0:0:0:
256,320,32257,1,8,0:0:0:0:
317,161,32484,1,0,0:0:0:0:
256,320,32711,1,8,0:0:0:0:
343,327,32939,6,0,P|339:278|298:254,1,70
256,217,33393,1,2,0:0:0:0:
321,268,33620,1,0,0:0:0:0:
317,161,33848,2,2,L|343:194,1,35
390,122,34189,1,2,0:0:0:0:
338,188,34530,1,2,0:0:0:0:
409,231,34757,6,0,P|380:265|303:259,1,105,0|2,0:0|0:0,0:0:0:0:
321,268,35211,1,0,0:0:0:0:
237,258,35439,2,0,P|283:195|348:190,1,140,2|0,0:0|0:0,0:0:0:0:
412,230,36120,2,0,P|415:160|371:110,2,140,8|0|2,0:0|0:0|0:0,0:0:0:0:
353,311,37484,1,0,0:0:0:0:
328,314,37598,1,0,0:0:0:0:
300,310,37711,1,0,0:0:0:0:
269,300,37825,1,0,0:0:0:0:
240,279,37939,1,8,0:0:0:0:
217,248,38052,1,0,0:0:0:0:
208,206,38166,1,0,0:0:0:0:
206,160,38280,1,0,0:0:0:0:
206,111,38393,5,6,0:0:0:0:
223,46,38848,2,0,P|262:74|266:118,1,70
258,190,39302,1,8,0:0:0:0:
356,190,39530,1,8,0:0:0:0:
309,275,39757,1,0,0:0:0:0:
356,190,39984,1,8,0:0:0:0:
419,115,40211,6,0,P|360:101|297:113,1,105
256,114,40666,2,0,P|266:164|299:193,1,70
239,252,41120,2,0,L|192:241,3,35,0|0|2|2,0:0|0:0|0:0|0:0,0:0:0:0:
123,222,41689,2,0,L|85:212,1,35,0|2,0:0|0:0,0:0:0:0:
83,107,42030,6,0,L|103:147,1,35
131,101,42257,2,0,L|146:157,1,35
183,111,42484,1,8,0:0:0:0:
279,94,42711,2,0,L|279:137,2,35
267,191,43166,1,0,0:0:0:0:
355,232,43393,2,0,L|313:214,1,35,8|0,0:0|0:0,0:0:0:0:
322,267,43620,2,0,L|297:233,1,35
275,280,43848,1,0,0:0:0:0:
177,284,44075,1,0,0:0:0:0:
105,217,44302,1,2,0:0:0:0:
65,187,44416,1,0,0:0:0:0:
51,139,44530,1,0,0:0:0:0:
48,90,44643,1,0,0:0:0:0:
384,64,44984,1,12,0:0:0:0:
256,192,45325,1,12,0:0:0:0:
128,64,45666,6,0,P|225:37|316:94,1,210,12|0,0:0|0:0,0:0:0:0:
66,251,47030,1,0,0:0:0:0:
182,171,47257,1,0,0:0:0:0:
178,320,47484,2,0,P|297:327|376:274,2,210,0|0|8,0:0|0:0|0:0,0:0:0:0:
145,293,48961,1,0,0:0:0:0:
118,260,49075,1,0,0:0:0:0:
101,221,49189,1,0,0:0:0:0:
99,179,49302,5,2,0:0:0:0:
99,179,49530,2,0,P|122:120|192:98,1,140
358,105,50439,2,0,L|335:184,2,70,0|2|0,0:0|0:0|0:0,0:0:0:0:
441,114,51120,2,0,L|399:256,1,140,0|8,0:0|0:0,0:0:0:0:
485,245,51802,2,0,B|468:341|381:342|345:323|323:278,1,210,0|8,0:0|0:0,0:0:0:0:
179,217,52939,5,0,0:0:0:0:
256,64,53393,1,8,0:0:0:0:
333,217,53848,1,0,0:0:0:0:
262,261,54075,2,0,L|195:300,2,70,0|8|0,0:0|0:0|0:0,0:0:0:0:
180,241,54757,2,0,B|165:164|201:96|288:75,2,210,0|0|2,0:0|0:0|0:0,2:0:0:0:
88,100,56575,5,8,0:0:0:0:
202,46,56916,1,8,0:0:0:0:
328,48,57257,1,8,0:0:0:0:
390,114,57484,2,2,L|390:170,1,35
475,199,57711,2,0,L|418:199,1,35
390,284,57939,2,2,L|390:227,1,35
304,199,58166,2,0,L|360:199,1,35
390,199,58393,5,8,0:0:0:0:
324,318,58734,1,8,0:0:0:0:
187,318,59075,1,8,0:0:0:0:
111,267,59302,2,2,L|110:210,1,35
26,182,59529,2,0,L|82:182,1,35
111,97,59757,2,2,L|110:153,1,35
197,182,59984,2,0,L|140:182,1,35
176,138,60211,6,0,P|249:117|388:169,1,210,0|8,0:0|0:0,0:0:0:0:
245,323,61575,1,2,0:0:0:0:
321,321,61802,1,0,0:0:0:0:
398,325,62030,2,0,P|363:256|251:295,1,210,0|8,0:0|0:0,0:0:0:0:
32,221,63393,1,2,0:0:0:0:
32,221,63507,1,0,0:0:0:0:
32,221,63620,1,0,0:0:0:0:
32,221,63734,1,0,0:0:0:0:
32,221,63848,6,0,B|79:280|94:138|150:224,2,140,0|8|0,0:0|0:0|0:0,0:0:0:0:
0,150,64984,1,0,0:0:0:0:
18,75,65211,1,8,0:0:0:0:
0,150,65439,1,0,0:0:0:0:
76,158,65666,2,0,P|137:116|189:159,1,140
135,207,66348,2,0,P|230:226|246:112,1,210,0|8,0:0|0:0,0:0:0:0:
