osu file format v9

[General]
AudioFilename: BLUEQLOCKS.mp3
AudioLeadIn: 0
PreviewTime: 48722
Countdown: 0
SampleSet: Soft
StackLeniency: 0.7
Mode: 0
LetterboxInBreaks: 1

[Editor]
Bookmarks: 18238,49206,66625,82109,113304,147915,178883
DistanceSpacing: 1
BeatDivisor: 4
GridSize: 8

[Metadata]
Title:BLUE
Artist:QLOCKS
Creator:Sandpig
Version:Relax
Source:Touhou
Tags:broken moon ibuki suika

[Difficulty]
HPDrainRate:3
CircleSize:3
OverallDifficulty:3
ApproachRate:3
SliderMultiplier:1.4
SliderTickRate:1

[Events]
//Background and Video events
0,0,"bg.jpg"
//Break Periods
2,49391,55494
2,82294,88397
2,130681,136784
2,179069,185171
//Storyboard Layer 0 (Background)
//Storyboard Layer 1 (Fail)
//Storyboard Layer 2 (Pass)
//Storyboard Layer 3 (Foreground)
//Storyboard Sound Samples
//Background Colour Transformations
3,100,163,162,255

[TimingPoints]
805,483.870967741935,4,2,2,67,1,0
56934,-133.333333333333,4,2,2,56,0,0
65643,-100,4,2,1,85,0,0
66611,-100,4,2,2,70,0,1
67095,-100,4,2,1,85,0,1
82095,-100,4,2,1,85,0,0
89837,-133.333333333333,4,2,2,46,0,0
93224,-133.333333333333,4,2,2,54,0,0
95643,-133.333333333333,4,2,2,61,0,0
99514,-100,4,2,2,67,0,0
138224,-133.333333333333,4,2,2,54,0,0
146934,-100,4,2,1,86,0,0
147901,-100,4,2,2,69,0,1
148385,-100,4,2,1,86,0,1
163264,-100,4,2,1,86,0,0
163385,-100,4,2,1,86,0,1
178869,-100,4,2,1,50,0,0
186611,-133.333333333333,4,2,1,33,0,0

[Colours]
Combo1 : 240,0,0
Combo2 : 208,121,68
Combo3 : 83,31,220

[HitObjects]
384,80,18224,6,0,B|432:96|432:176|384:192,2,140,0|8|0
256,136,19675,1,2
125,191,20159,2,0,B|80:176|80:96|128:80,1,140,0|8
256,136,21127,2,0,B|301:151|301:231|254:246,1,140,0|2
136,328,22095,6,0,B|296:328,2,140,0|8|0
96,192,23546,1,2
240,192,24030,2,0,B|392:192,1,140,0|8
328,320,24998,5,0
184,320,25482,1,2
88,224,25966,2,0,B|88:144|208:144,1,140,0|8
328,148,26934,2,0,B|424:147|424:224,1,140,0|2
360,256,27659,2,0,B|144:256,1,210,0|8
80,256,28627,2,0,B|32:240|32:160|78:145,1,140,0|0
152,144,29353,2,0,B|224:144,2,70,2|0|0
152,288,30321,5,8
152,288,30563,2,0,B|224:288|288:232,1,140
280,168,31288,2,0,B|280:96,2,70,2|0|0
280,312,32256,1,8
136,312,32740,1,0
280,312,33224,1,2
424,312,33708,6,0,B|472:296|472:216|426:201,1,140,0|8
328,104,34675,1,0
184,104,35159,1,2
85,201,35643,2,0,B|40:216|40:296|88:312,1,140,0|8
168,200,36611,2,0,B|213:185|213:105|165:89,1,140,0|2
248,200,37579,2,0,B|200:215|200:295|245:310,2,140,0|8|0
392,200,39030,2,0,B|464:200,2,70,2|0|0
328,320,39998,5,8
256,200,40482,1,0
184,320,40966,1,2
256,200,41450,2,0,B|256:48,1,140,0|8
368,136,42417,2,0,B|368:288,1,140,0|2
368,344,43143,2,0,B|296:344|296:344|232:288,1,140
192,352,43869,2,0,B|288:248|288:248|288:160,1,210,8|0
288,112,44837,1,2
144,112,45321,6,0,B|56:112|56:200,1,140,0|8
56,264,46046,2,0,B|55:349|143:349,1,140
200,312,46772,2,0,B|200:240,2,70,2|0|0
312,232,47740,1,8
200,152,48224,1,0
312,72,48708,2,0,B|312:160,2,70,2|0|0
256,88,56934,6,0,B|312:88|352:128,2,104.999996870756,0|2|0
256,192,58385,1,0
256,296,58869,2,0,B|200:296|160:256,2,104.999996870756,0|2|0
360,296,60321,1,0
392,200,60804,6,0,B|440:192|464:112,2,104.999996870756,0|2|0
288,200,62256,2,0,B|216:200,2,52.4999984353781,2|0|4
112,88,63708,1,2
216,88,64192,1,2
256,184,64675,5,4
256,184,65038,1,4
256,184,65401,1,4
288,256,65643,6,0,B|208:256,1,70,0|2
216,328,66127,2,0,B|288:328,1,70,0|2
360,328,66611,2,0,B|440:328|440:224,2,140,4|2|8
256,240,68063,1,0
152,328,68546,2,0,B|72:328|72:224,2,140,0|2|8
256,240,69998,6,0,B|256:168,2,70
360,328,70966,1,2
464,240,71450,2,0,B|464:168|464:168|424:96,1,140,8|0
288,112,72417,1,2
288,112,72659,1,0
288,112,72901,2,0,B|254:171|254:171|254:243,2,140,2|8|2
400,200,74353,6,0,B|336:240|320:336,1,140,4|2
187,313,75321,2,0,B|176:240|112:200,1,140,8|2
160,152,76046,1,0
224,120,76288,2,0,B|224:40,1,70
296,48,76772,2,0,B|296:118,2,70,2|0|8
368,168,77740,5,0
368,304,78224,2,0,B|296:280|296:192,1,140,0|2
256,136,78950,1,0
215,195,79192,2,0,B|216:280|144:304,1,140,8|2
56,192,80159,2,0,B|55:107|127:83,1,140,0|2
215,192,81127,2,0,B|215:276|287:300,2,140,8|0|0
152,104,89837,6,0,B|256:104,2,104.999996870756,0|2|0
168,208,91288,2,0,B|216:240,1,52.4999984353781,2|0
200,288,91772,2,0,B|88:288,2,104.999996870756,0|2|0
360,104,93708,6,0,B|256:104,2,104.999996870756,0|2|0
344,208,95159,2,0,B|296:240,1,52.4999984353781,2|0
312,288,95643,2,0,B|408:288,2,78.7499976530672
200,288,96853,1,0
211,237,97095,2,0,B|168:208,2,52.4999984353781
384,64,99514,6,0,B|431:79|431:159|386:174,1,140,0|8
256,112,100482,1,0
256,248,100966,1,2
125,174,101450,2,0,B|80:159|80:79|128:64,1,140,0|8
256,112,102417,2,0,B|303:127|303:207|258:222,1,140,0|2
128,176,103385,6,0,B|81:191|81:271|128:286,2,140,0|8|0
272,176,104837,1,2
272,320,105321,1,0
400,256,105804,1,8
272,320,106288,6,0,B|192:320|144:256,1,140,0|2
149,121,107256,2,0,B|192:64|272:64,1,140,0|8
392,128,108224,2,0,B|440:192|392:256,1,140,0|2
328,296,108949,2,0,B|328:56,1,210,0|8
264,128,109917,2,0,B|216:192|264:256,1,140
328,296,110643,2,0,B|408:296,2,70,2|0|0
184,296,111611,5,8
184,296,111853,2,0,B|104:296|104:200,1,140
104,136,112578,2,0,B|16:136,2,70,2|0|0
248,136,113546,1,8
184,264,114030,1,0
328,264,114514,1,2
184,264,114998,6,0,B|128:232|128:136,1,140,0|8
256,80,115966,1,0
256,224,116450,1,2
368,312,116934,2,0,B|424:280|424:184,1,140,0|8
400,56,117901,2,0,B|344:88|344:184,1,140,0|2
296,312,118869,2,0,B|240:280|240:184,2,140,0|8|0
360,192,120320,2,0,B|360:120,2,70,2|0|0
296,312,121288,5,8
256,176,121772,1,0
216,312,122256,1,2
176,176,122740,2,0,B|176:24,1,140,0|8
56,112,123708,2,0,B|56:256,1,140,0|2
104,304,124433,2,0,B|176:272|176:272|208:184,1,140
128,200,125159,2,0,B|258:226|258:226|336:296,1,210,8|0
352,336,126127,1,2
408,208,126611,6,0,B|455:192|455:112|408:97,1,140,0|8
336,96,127337,2,0,B|184:96,1,140
168,160,128062,2,0,B|240:160,2,70,2|0|0
48,232,129030,1,8
168,304,129514,1,0
168,160,129998,2,0,B|168:80,2,70,2|0|0
136,120,138224,6,0,B|184:120|240:64,2,104.999996870756,0|2|0
56,192,139675,1,0
136,264,140159,2,0,B|184:264|228:308,2,104.999996870756,0|2|0
216,192,141611,1,0
320,192,142094,6,0,B|368:192|408:128,2,104.999996870756,0|2|0
216,192,143546,2,0,B|160:192,2,52.4999984353781,2|0|4
352,352,144998,1,2
248,304,145482,1,2
144,256,145966,5,4
144,256,146329,1,4
144,256,146692,1,4
112,184,146934,6,0,B|112:104,1,70,0|2
184,112,147418,2,0,B|184:184,1,70,0|2
256,184,147902,2,0,B|336:184|336:40,2,140,4|2|8
256,40,149354,1,0
256,184,149837,2,0,B|176:184|176:328,2,140,0|2|8
256,328,151289,6,0,B|256:256,2,70
136,264,152257,1,2
256,184,152740,2,0,B|302:168|302:88|256:73,1,140,8|0
128,128,153708,1,2
128,128,153950,1,0
128,128,154192,2,0,B|81:142|81:222|128:238,2,140,2|8|2
256,72,155644,6,0,B|256:224,1,140,4|2
328,328,156611,2,0,B|374:313|374:233|327:217,1,140,8|2
256,208,157337,1,0
184,208,157579,2,0,B|112:208,1,70
112,136,158063,2,0,B|184:136,2,70,2|0|8
112,280,159031,5,0
248,288,159515,2,0,B|320:248|320:152,1,140,0|2
248,160,160240,1,0
178,175,160482,2,0,B|177:248|248:288,1,140,8|2
318,289,161208,1,0
392,288,161450,2,0,B|462:248|461:175,1,140,0|2
360,80,162417,1,0
256,176,162901,2,0,B|256:256,2,70,2|0|4
152,80,163869,5,2
48,176,164353,2,0,B|48:256|48:256|96:328,1,140,8|0
128,256,165079,1,0
176,200,165321,2,0,B|209:249|209:249|209:329,2,140,0|2|8
72,104,166772,6,0,B|72:24,1,70
144,48,167256,2,0,B|144:120|144:120|96:208,1,140,0|2
192,296,168224,1,8
280,184,168708,2,0,B|248:120,1,70
248,48,169192,2,0,B|320:48,2,70,2|0|2
104,48,170159,6,0,B|57:63|57:143|103:158,1,140,8|2
176,160,170885,1,0
248,160,171127,2,0,B|294:175|294:255|248:270,2,140,4|2|8
104,160,172579,1,2
104,296,173063,2,0,B|176:296,1,70
208,232,173546,2,0,B|304:232,2,70,2|0|8
64,232,174514,5,2
64,232,174756,1,0
64,232,174998,2,0,B|64:168|64:168|104:104,1,140,0|2
160,152,175724,1,0
208,104,175966,2,0,B|352:104,2,140,8|0|4
256,192,177175,12,0,178869
122,96,186611,6,0,B|248:96,1,104.999996870756,0|2
112,208,187821,2,0,B|56:208,1,52.4999984353781,0|2
112,296,188546,2,0,B|240:296,1,104.999996870756,0|2
376,296,189756,6,0,B|440:296,2,52.4999984353781,2|0|2
320,296,190482,2,0,B|216:296,1,104.999996870756,0|2
144,224,191450,1,0
116,176,191692,1,0
172,176,191934,1,2
256,108,192417,2,0,B|320:164,2,78.7499976530672,0|0|0
172,176,193627,1,2
256,240,194111,2,0,B|256:304,1,52.4999984353781,2|0
