osu file format v5

[General]
AudioFilename: Pure Pwnage - teh n00b song.mp3
AudioLeadIn: 0
PreviewTime: -1
Countdown: 1
SampleSet: Normal
EditorBookmarks: 28551

[Metadata]
Title:teh n00b song
Artist:Pure Pwnage
Creator:Pokebis
Version:N0rm41

[Difficulty]
HPDrainRate:6
CircleSize:5
OverallDifficulty:5
SliderMultiplier:1.1
SliderTickRate:1

[Events]
//Background and Video events
0,0,"strats1024x768.jpg"
//Break Periods
2,70112,75248
2,93684,97534
2,119612,125712
//Storyboard Layer 0 (Background)
//Storyboard Layer 1 (Failing)
//Storyboard Layer 2 (Passing)
//Storyboard Layer 3 (Foreground)
//Storyboard Sound Samples
//Background Colour Transformations
3,100,163,162,255

[TimingPoints]
1090,481.772924361651,4,1,0,100
61021,428.571428571429,4,2,0,100
63163,428.571428571429,4,1,0,100

[HitObjects]
256,64,28551,2,0,B|337:107|288:128,1,82.5
256,192,30116,6,0,B|320:192,3,55
384,192,31200,6,0,B|384:256,2,55
352,96,32043,1,0
288,96,32284,2,0,C|224:96|228:267|224:288,1,247.5
288,96,35054,5,0
288,96,35295,1,0
256,160,35416,1,0
256,160,35777,2,0,C|160:160|224:32,1,220
352,96,36982,5,0
288,192,37463,1,0
224,256,37945,2,0,C|160:224,2,55
192,192,38668,1,0
192,160,38909,2,0,C|224:64|332:70|352:256,1,385
192,160,42642,5,0
224,160,42763,1,0
256,160,43004,1,0
288,160,43245,1,0
320,160,43486,1,0
320,192,43606,2,0,C|288:224|224:192,1,110
320,64,46135,5,0
288,64,46256,1,0
308,151,46737,2,0,C|288:160|224:160|224:128,1,110
192,64,47580,2,0,C|128:64,1,55
288,64,48545,5,0
320,160,49026,1,0
256,192,49387,2,0,C|160:192|160:64,1,220
320,96,51194,5,0
320,192,51556,1,0
224,224,52038,1,0
128,192,52519,1,0
160,128,52880,2,0,C|480:128,1,302.5
160,128,55530,5,0
224,160,55891,1,0
288,192,56373,1,0
288,192,56614,2,0,C|352:256|448:192,1,192.5
448,96,57818,5,0
448,96,58059,2,0,C|384:96,2,55
448,96,58902,2,0,C|512:96,2,55
448,96,59625,2,0,C|448:160,2,55
128,128,61449,5,2
160,160,61663,1,2
128,192,61878,1,2
160,224,62092,1,2
128,256,62306,1,2
192,320,62735,1,2
256,224,63270,6,0,C|288:192|256:160|288:128|288:96|384:96,1,247.5
256,64,64770,5,0
256,96,64984,1,0
256,128,65198,1,0
256,160,65413,1,0
256,256,65841,1,0
320,256,66163,1,0
384,256,67127,1,0
384,192,67448,1,0
384,96,67877,2,0,C|320:96|288:128,1,110
192,192,68841,1,0
192,288,69270,2,0,C|256:288,3,55
256,32,76341,6,0,C|320:96,1,82.5
416,128,77198,2,0,C|448:128|448:288,1,192.5
224,128,80198,2,0,C|160:128|160:192,1,110
256,192,82448,12,0,84270
128,96,85877,2,4,C|224:96|160:192|160:320|160:320|96:96,1,605
320,64,91127,6,4,C|416:64|352:160|352:288|352:288|288:64,1,605
192,64,98627,5,0
224,96,98841,1,0
192,128,99055,1,0
224,160,99270,1,0
192,192,99484,1,0
224,224,99698,1,0
288,224,100020,1,0
384,224,102055,5,0
416,192,102270,1,0
384,160,102484,1,0
416,128,102698,1,0
384,96,102913,1,0
416,64,103127,1,0
352,64,103448,1,0
128,128,104520,5,0
160,128,104734,1,0
192,128,104948,1,0
224,128,105162,1,0
224,160,105377,1,0
224,160,105591,1,0
224,224,105805,1,0
224,288,106127,1,0
352,96,107413,6,0,C|352:160,2,55
352,96,108056,6,0,C|288:96,2,55
352,96,108699,6,0,C|448:96|352:288,1,302.5
256,96,112341,6,0,C|288:128|224:160,2,110
160,96,114055,6,0,C|128:128|192:160,2,110
256,192,115555,6,0,C|224:256|256:256,2,82.5
256,192,116734,12,0,119412
256,128,126805,2,0,B|256:192,6,55
384,160,130341,5,0
288,160,130770,1,0
352,224,131198,1,0
352,224,131413,1,0
320,288,131734,2,0,C|256:288|192:224,1,137.5
256,192,133020,12,4,139234
