osu file format v13

[General]
AudioFilename: Nightcore - Cambodia.mp3
AudioLeadIn: 0
PreviewTime: 117892
Countdown: 0
SampleSet: Soft
StackLeniency: 0.7
Mode: 0
LetterboxInBreaks: 1
StoryFireInFront: 0
WidescreenStoryboard: 1

[Editor]
DistanceSpacing: 1.1
BeatDivisor: 4
GridSize: 4
TimelineZoom: 3.399999

[Metadata]
Title:Cambodia (Nightcore Mix)
TitleUnicode:Cambodia (Nightcore Mix)
Artist:PulseDriver
ArtistUnicode:PulseDriver
Creator:emperor46
Version:Normal
Source:
Tags:CJ Stone Remix
BeatmapID:498038
BeatmapSetID:198271

[Difficulty]
HPDrainRate:4
CircleSize:3.5
OverallDifficulty:4
ApproachRate:4
SliderMultiplier:1.1
SliderTickRate:1

[Events]
//Background and Video events
0,0,"BG.jpg",0,0
//Break Periods
2,8066,12163
2,39058,49937
//Storyboard Layer 0 (Background)
//Storyboard Layer 1 (Fail)
//Storyboard Layer 2 (Pass)
//Storyboard Layer 3 (Foreground)
//Storyboard Sound Samples
//Background Colour Transformations
3,100,163,162,255

[TimingPoints]
118,387.416705408337,4,2,0,30,1,0
505,-100,4,2,0,30,0,0
12515,-125,4,2,0,40,0,0
26462,-111.111111111111,4,2,0,40,0,0
37310,-133.333333333333,4,2,0,40,0,0
38084,-90.9090909090909,4,2,0,60,0,0
38859,-90.9090909090909,4,1,1,60,0,0
45058,-111.111111111111,4,1,1,60,0,0
54356,-100,4,1,1,60,0,0
57455,-86.9565217391304,4,1,1,60,0,0
60555,-76.9230769230769,4,1,1,60,0,0
63654,-100,4,1,1,60,0,1
74502,-100,4,1,1,60,0,0
76051,-86.9565217391304,4,1,1,60,0,1
88449,-86.9565217391304,4,2,0,60,0,0
89223,-90.9090909090909,4,2,0,50,0,0
89998,-111.111111111111,4,2,0,40,0,0
90773,-142.857142857143,4,2,0,30,0,0
91548,-200,4,2,0,20,0,0
92323,-200,4,2,0,10,0,0
92710,-200,4,2,0,5,0,0
93098,-200,4,2,0,15,0,0
93485,-200,4,2,0,30,0,0
93872,-125,4,2,0,30,0,0
107045,-111.111111111111,4,2,0,40,0,0
118667,-100,4,2,0,40,0,0
119054,-100,4,1,1,60,0,0
119442,-100,4,1,1,60,0,1
130290,-100,4,1,1,60,0,0
131839,-86.9565217391304,4,1,1,60,0,1
142687,-86.9565217391304,4,1,1,60,0,0
144237,-76.9230769230769,4,1,1,60,0,1
156634,-76.9230769230769,4,1,1,60,0,0
156828,-76.9230769230769,4,1,1,5,0,0

[Colours]
Combo1 : 145,255,145
Combo2 : 255,128,128
Combo3 : 255,255,176
Combo4 : 155,255,255

[HitObjects]
104,276,1086,6,0,L|64:208,2,55,2|2|2,0:0|0:0|0:0,0:0:0:0:
152,300,1667,2,0,P|216:316|260:296,1,110,6|0,0:0|0:0,0:0:0:0:
304,276,2248,1,2,0:0:0:0:
400,220,2636,2,0,L|376:280,2,55,2|2|2,0:0|0:0|0:0,0:0:0:0:
448,192,3217,2,0,P|400:152|348:148,1,110,6|0,0:0|0:0,0:0:0:0:
308,156,3798,1,2,0:0:0:0:
236,72,4185,6,0,L|252:16,2,55,2|2|2,0:0|0:0|0:0,0:0:0:0:
180,80,4767,2,0,P|144:128|152:192,1,110,6|0,0:0|0:0,0:0:0:0:
168,224,5348,1,2,0:0:0:0:
256,288,5735,2,0,L|256:344,2,55,2|2|2,0:0|0:0|0:0,0:0:0:0:
296,244,6316,2,0,P|300:208|292:172,3,55,2|0|2|0,0:0|0:0|0:0|0:0,0:0:0:0:
240,176,7091,2,0,P|236:140|244:104,3,55,2|0|2|0,0:0|0:0|0:0|0:0,0:0:0:0:
284,84,7866,5,2,0:0:0:0:
328,96,13483,6,0,L|372:64,2,44,2|2|2,0:0|0:0|0:0,0:0:0:0:
280,128,14065,2,0,P|236:144|192:140,1,88,2|0,0:0|0:0,0:0:0:0:
148,112,14646,1,2,0:0:0:0:
60,40,15033,1,0,0:0:0:0:
24,84,15227,2,0,L|36:136,1,44,2|0,0:0|0:0,0:0:0:0:
20,184,15614,2,0,P|40:232|80:252,1,88,2|2,0:0|0:0,0:0:0:0:
124,272,16195,1,2,0:0:0:0:
240,268,16583,6,0,L|280:228,2,44,0|2|0,0:0|0:0|0:0,0:0:0:0:
208,316,17164,2,0,P|252:328|308:324,1,88,2|0,0:0|0:0,0:0:0:0:
294,326,17745,1,2,0:0:0:0:
408,320,18132,2,0,L|444:348,2,44,0|2|0,0:0|0:0|0:0,0:0:0:0:
424,264,18714,2,0,L|476:252,2,44,2|0|2,0:0|0:0|0:0,0:0:0:0:
384,224,19295,2,0,P|344:212|292:228,1,88,2|0,0:0|0:0,0:0:0:0:
268,260,19876,2,0,L|228:304,1,44,2|0,0:0|0:0,0:0:0:0:
196,268,20263,6,0,P|176:224|184:180,1,88,2|0,0:0|0:0,0:0:0:0:
204,132,20844,1,2,0:0:0:0:
312,96,21232,2,0,L|368:80,2,44,0|2|0,0:0|0:0|0:0,0:0:0:0:
292,148,21813,2,0,P|292:192|332:232,1,88,2|0,0:0|0:0,0:0:0:0:
318,225,22394,1,2,0:0:0:0:
432,228,22781,6,0,L|396:280,1,44,0|2,0:0|0:0,0:0:0:0:
456,292,23169,2,0,L|420:344,1,44,0|2,0:0|0:0,0:0:0:0:
336,300,23750,2,0,L|312:344,1,44,2|2,0:0|0:0,0:0:0:0:
200,336,24331,2,0,L|156:292,1,44,0|2,0:0|0:0,0:0:0:0:
128,264,24718,1,0,0:0:0:0:
88,224,24912,2,0,P|148:232|180:220,1,88,2|2,0:0|0:0,0:0:0:0:
220,192,25493,1,2,0:0:0:0:
312,124,25881,6,0,L|312:64,2,44,0|2|0,0:0|0:0|0:0,0:0:0:0:
352,176,26462,2,0,P|416:192|456:180,1,98.9999969787599,6|2,0:0|0:0,0:0:0:0:
496,140,27043,2,0,L|456:240,1,98.9999969787599,2|0,0:0|0:0,0:0:0:0:
412,276,27624,2,0,P|372:288|348:288,1,49.4999984893799,2|0,0:0|0:0,0:0:0:0:
304,264,28012,2,0,P|256:252|192:276,1,98.9999969787599,6|2,0:0|0:0,0:0:0:0:
152,292,28593,1,2,0:0:0:0:
72,192,28980,6,0,L|40:144,2,49.4999984893799,0|2|0,0:0|0:0|0:0,0:0:0:0:
72,192,29561,2,0,P|104:148|104:96,1,98.9999969787599,6|2,0:0|0:0,0:0:0:0:
48,72,30142,2,0,L|96:56,1,49.4999984893799,2|0,0:0|0:0,0:0:0:0:
156,76,30530,2,0,L|204:60,1,49.4999984893799,0|2,0:0|0:0,0:0:0:0:
264,80,30917,1,0,0:0:0:0:
264,80,31111,2,0,P|296:112|300:172,1,98.9999969787599,6|2,0:0|0:0,0:0:0:0:
264,216,31692,1,2,0:0:0:0:
160,288,32079,6,0,L|116:236,2,49.4999984893799,0|2|0,0:0|0:0|0:0,0:0:0:0:
200,340,32661,2,0,P|264:352|304:336,1,98.9999969787599,6|2,0:0|0:0,0:0:0:0:
294,341,33242,1,2,0:0:0:0:
420,324,33629,2,0,L|460:268,1,49.4999984893799,0|2,0:0|0:0,0:0:0:0:
432,220,34016,1,0,0:0:0:0:
480,176,34210,2,0,P|416:184|380:172,1,98.9999969787599,6|0,0:0|0:0,0:0:0:0:
384,173,34791,1,2,0:0:0:0:
304,72,35179,6,0,L|360:48,2,49.4999984893799,0|2|0,0:0|0:0|0:0,0:0:0:0:
256,112,35760,2,0,L|256:232,1,98.9999969787599,6|0,0:0|0:0,0:0:0:0:
204,252,36341,2,0,B|244:276|256:304|256:304|272:272|308:252,1,148.49999546814,2|0,0:0|0:0,0:0:0:0:
412,244,37310,6,0,L|420:184,1,41.2500015735627,2|0,0:0|0:0,0:0:0:0:
404,168,37697,2,0,L|416:112,1,41.2500015735627,2|0,0:0|0:0,0:0:0:0:
432,96,38084,2,0,B|344:32|300:160|196:84,1,242.000007385254,2|4,0:0|0:0,0:0:0:0:
68,248,51257,6,0,L|112:288,1,49.4999984893799,6|0,0:0|0:0,0:0:0:0:
160,248,51644,2,0,L|204:288,1,49.4999984893799,2|0,0:0|0:0,0:0:0:0:
164,336,52031,2,0,P|224:352|268:320,1,98.9999969787599,6|6,0:0|0:0,0:0:0:0:
364,268,52806,6,0,L|404:216,1,49.4999984893799,6|0,0:0|0:0,0:0:0:0:
456,212,53194,2,0,L|496:160,1,49.4999984893799,2|0,0:0|0:0,0:0:0:0:
448,124,53581,2,0,B|396:124|396:124|340:92,1,98.9999969787599,6|6,0:0|0:0,0:0:0:0:
224,48,54356,6,0,L|180:96,1,55,6|0,0:0|0:0,0:0:0:0:
186,88,54743,2,0,L|224:132,1,55,2|0,0:0|0:0,0:0:0:0:
222,130,55131,2,0,P|204:184|224:232,1,110,6|0,0:0|0:0,0:0:0:0:
348,304,55906,6,0,L|392:252,1,55
448,268,56293,2,0,L|492:216,1,55,2|0,0:0|0:0,0:0:0:0:
480,160,56680,2,0,P|428:148|360:164,1,110,6|6,0:0|0:0,0:0:0:0:
256,192,57455,12,8,63266,0:0:0:0:
308,288,63654,6,0,P|248:300|192:280,1,110,6|0,0:0|0:0,0:0:0:0:
256,236,64235,1,2,0:0:0:0:
312,188,64429,2,0,P|364:174|417:186,1,110,2|0,0:0|0:0,0:0:0:0:
464,240,65010,1,2,0:0:0:0:
500,304,65204,2,0,P|440:316|384:296,1,110,2|0,0:0|0:0,0:0:0:0:
336,264,65785,1,0,0:0:0:0:
268,240,65978,2,0,L|208:284,1,55,2|0,0:0|0:0,0:0:0:0:
156,252,66366,2,0,L|96:296,1,55,2|0,0:0|0:0,0:0:0:0:
68,340,66753,6,0,P|28:300|28:240,1,110,6|0,0:0|0:0,0:0:0:0:
84,204,67334,1,2,0:0:0:0:
140,160,67528,2,0,P|135:106|96:69,2,110,2|0|2,0:0|0:0|0:0,0:0:0:0:
172,224,68497,1,0,0:0:0:0:
236,252,68690,2,0,L|236:312,2,55,2|0|2,0:0|0:0|0:0,0:0:0:0:
304,224,69271,1,0,0:0:0:0:
360,180,69465,2,0,L|400:136,1,55,10|8,0:0|0:0,0:0:0:0:
456,100,69853,6,0,P|396:112|336:84,1,110,6|0,0:0|0:0,0:0:0:0:
296,52,70434,1,2,0:0:0:0:
228,80,70627,2,0,L|188:208,1,110,2|0,0:0|0:0,0:0:0:0:
124,180,71208,1,2,0:0:0:0:
136,108,71402,2,0,B|168:112|168:112|184:132|184:132|260:152,1,110,2|0,0:0|0:0,0:0:0:0:
304,148,71983,2,0,L|364:120,2,55,0|2|0,0:0|0:0|0:0,0:0:0:0:
256,200,72564,2,0,P|276:220|312:240,1,55,2|0,0:0|0:0,0:0:0:0:
368,244,72952,6,0,P|324:280|308:340,1,110,6|0,0:0|0:0,0:0:0:0:
256,380,73533,1,2,0:0:0:0:
204,329,73727,2,0,P|186:277|144:244,2,110,2|0|2,0:0|0:0|0:0,0:0:0:0:
256,380,74695,1,0,0:0:0:0:
312,332,74889,2,0,L|368:332,1,55,2|0,0:0|0:0,0:0:0:0:
404,268,75276,1,2,0:0:0:0:
444,208,75470,2,0,L|500:208,2,55,0|10|8,0:0|0:0|0:0,0:0:0:0:
388,148,76051,6,0,P|312:160|252:136,1,126.500002412796,6|0,0:0|0:0,0:0:0:0:
216,88,76632,1,2,0:0:0:0:
156,40,76826,2,0,L|64:156,1,126.500002412796,2|0,0:0|0:0,0:0:0:0:
92,212,77407,1,2,0:0:0:0:
20,236,77601,2,0,P|80:276|108:328,1,126.500002412796,2|0,0:0|0:0,0:0:0:0:
180,340,78182,1,0,0:0:0:0:
248,308,78376,2,0,L|316:284,1,63.250001206398,2|0,0:0|0:0,0:0:0:0:
260,228,78763,2,0,L|328:204,1,63.250001206398,2|0,0:0|0:0,0:0:0:0:
396,216,79151,6,0,L|396:64,1,126.500002412796,6|0,0:0|0:0,0:0:0:0:
396,89,79732,1,2,0:0:0:0:
336,132,79925,2,0,P|400:148|464:128,2,126.500002412796,2|0|2,0:0|0:0|0:0,0:0:0:0:
264,108,80894,1,0,0:0:0:0:
196,72,81088,2,0,L|148:124,1,63.250001206398,2|0,0:0|0:0,0:0:0:0:
88,160,81475,1,2,0:0:0:0:
88,160,81669,1,0,0:0:0:0:
40,220,81862,2,0,L|88:268,1,63.250001206398,10|8,0:0|0:0,0:0:0:0:
24,312,82250,6,0,P|84:340|140:304,1,126.500002412796,6|0,0:0|0:0,0:0:0:0:
164,244,82831,1,2,0:0:0:0:
200,312,83025,2,0,P|260:340|316:304,1,126.500002412796,2|0,0:0|0:0,0:0:0:0:
348,244,83606,1,2,0:0:0:0:
378,314,83800,2,0,P|433:340|488:312,1,126.500002412796,2|0,0:0|0:0,0:0:0:0:
432,260,84381,1,0,0:0:0:0:
460,192,84574,2,0,L|476:124,1,63.250001206398,2|0,0:0|0:0,0:0:0:0:
400,148,84962,2,0,L|384:76,1,63.250001206398,2|0,0:0|0:0,0:0:0:0:
444,40,85349,6,0,P|380:56|316:32,1,126.500002412796,6|0,0:0|0:0,0:0:0:0:
256,76,85930,1,2,0:0:0:0:
192,120,86124,2,0,L|60:140,2,126.500002412796,2|0|2,0:0|0:0|0:0,0:0:0:0:
252,168,87093,1,0,0:0:0:0:
308,220,87286,2,0,L|236:240,1,63.250001206398,2|0,0:0|0:0,0:0:0:0:
292,296,87674,2,0,L|220:316,1,63.250001206398,2|0,0:0|0:0,0:0:0:0:
184,372,88061,2,0,P|164:348|148:296,2,63.250001206398,2|0|2,0:0|0:0|0:0,0:0:0:0:
256,192,88642,12,0,91548,0:0:0:0:
100,120,94066,6,0,L|100:68,2,44,2|2|2,0:0|0:0|0:0,0:0:0:0:
120,176,94647,2,0,P|176:188|208:188,1,88,6|2,0:0|0:0,0:0:0:0:
206,188,95228,1,2,0:0:0:0:
256,84,95616,1,0,0:0:0:0:
300,48,95809,2,0,L|340:92,1,44,2|0,0:0|0:0,0:0:0:0:
384,100,96197,2,0,P|368:144|372:192,1,88,2|2,0:0|0:0,0:0:0:0:
369,184,96778,1,2,0:0:0:0:
372,300,97165,5,0,0:0:0:0:
308,320,97359,2,0,L|252:324,1,44,2|0,0:0|0:0,0:0:0:0:
204,292,97747,2,0,P|236:240|240:200,1,88,2|2,0:0|0:0,0:0:0:0:
240,214,98328,1,2,0:0:0:0:
212,104,98715,2,0,L|212:44,2,44,0|2|0,0:0|0:0|0:0,0:0:0:0:
212,104,99296,2,0,P|260:112|300:104,1,88,2|2,0:0|0:0,0:0:0:0:
348,76,99877,1,2,0:0:0:0:
448,132,100265,5,0,0:0:0:0:
480,180,100458,2,0,L|456:232,1,44,2|0,0:0|0:0,0:0:0:0:
408,240,100846,2,0,P|412:284|448:332,1,88,2|2,0:0|0:0,0:0:0:0:
434,320,101427,1,2,0:0:0:0:
324,292,101814,2,0,L|304:240,2,44,0|2|0,0:0|0:0|0:0,0:0:0:0:
284,332,102396,2,0,B|244:316|244:316|188:316,1,88,2|2,0:0|0:0,0:0:0:0:
140,316,102977,1,2,0:0:0:0:
76,220,103364,5,0,0:0:0:0:
56,156,103558,2,0,L|56:92,1,44,2|0,0:0|0:0,0:0:0:0:
100,60,103945,2,0,B|148:60|148:60|176:84|176:84|232:84,1,132,2|2,0:0|0:0,0:0:0:0:
336,104,104914,1,0,0:0:0:0:
384,132,105107,2,0,L|384:192,1,44,2|0,0:0|0:0,0:0:0:0:
420,220,105495,2,0,B|372:220|372:220|344:244|344:244|288:244,1,132,2|2,0:0|0:0,0:0:0:0:
192,196,106463,6,0,L|192:144,2,44,0|2|0,0:0|0:0|0:0,0:0:0:0:
196,260,107045,2,0,P|252:272|296:260,1,98.9999969787599,6|2,0:0|0:0,0:0:0:0:
352,236,107626,1,2,0:0:0:0:
412,212,107819,2,0,L|412:148,1,49.4999984893799
476,180,108207,2,0,L|476:116,1,49.4999984893799,2|0,0:0|0:0,0:0:0:0:
416,104,108594,2,0,B|368:104|368:104|320:64,1,98.9999969787599,6|2,0:0|0:0,0:0:0:0:
328,71,109175,1,2,0:0:0:0:
208,116,109563,6,0,L|160:148,2,49.4999984893799,0|2|0,0:0|0:0|0:0,0:0:0:0:
256,160,110144,2,0,L|256:260,1,98.9999969787599,6|2,0:0|0:0,0:0:0:0:
304,300,110725,2,0,P|264:312|204:296,1,98.9999969787599,2|0,0:0|0:0,0:0:0:0:
160,256,111306,2,0,L|96:256,1,49.4999984893799,2|0,0:0|0:0,0:0:0:0:
76,200,111694,2,0,L|26:200,2,49.4999984893799,6|0|2,0:0|0:0|0:0,0:0:0:0:
124,156,112275,1,2,0:0:0:0:
232,88,112662,6,0,L|292:104,1,49.4999984893799,0|2,0:0|0:0,0:0:0:0:
340,120,113049,1,0,0:0:0:0:
284,148,113243,2,0,P|264:204|280:260,1,98.9999969787599,6|2,0:0|0:0,0:0:0:0:
320,284,113824,2,0,P|372:276|424:284,1,98.9999969787599,2|0,0:0|0:0,0:0:0:0:
480,260,114405,2,0,L|500:324,1,49.4999984893799,2|0,0:0|0:0,0:0:0:0:
460,364,114793,2,0,P|408:372|356:364,1,98.9999969787599,6|2,0:0|0:0,0:0:0:0:
304,340,115374,1,2,0:0:0:0:
184,296,115761,6,0,L|120:296,2,49.4999984893799,0|2|0,0:0|0:0|0:0,0:0:0:0:
256,192,116343,12,0,117505,0:0:0:0:
256,160,117892,6,0,L|308:200,2,49.4999984893799,2|0|2,0:0|0:0|0:0,0:0:0:0:
180,152,118473,2,0,L|128:112,2,49.4999984893799,0|2|0,0:0|0:0|0:0,0:0:0:0:
164,228,119054,2,0,L|116:276,1,55,10|8,0:0|0:0,0:0:0:0:
100,332,119442,6,0,B|164:332|164:332|228:300,1,110,6|0,0:0|0:0,0:0:0:0:
256,260,120023,1,2,0:0:0:0:
306,311,120217,2,0,B|348:332|348:332|412:332,1,110,2|0,0:0|0:0,0:0:0:0:
456,276,120798,1,2,0:0:0:0:
488,212,120992,2,0,L|488:88,1,110,2|0,0:0|0:0,0:0:0:0:
428,60,121573,1,0,0:0:0:0:
364,92,121766,2,0,L|364:156,1,55,2|0,0:0|0:0,0:0:0:0:
296,128,122154,2,0,L|296:208,1,55,2|0,0:0|0:0,0:0:0:0:
348,232,122541,6,0,P|296:248|232:220,1,110,6|0,0:0|0:0,0:0:0:0:
196,180,123122,1,2,0:0:0:0:
152,124,123316,2,0,P|100:107|48:123,2,110,2|0|2,0:0|0:0|0:0,0:0:0:0:
196,180,124285,1,0,0:0:0:0:
256,220,124478,2,0,L|280:160,2,55,2|0|2,0:0|0:0|0:0,0:0:0:0:
208,272,125059,1,0,0:0:0:0:
144,308,125253,2,0,L|64:320,1,55,10|8,0:0|0:0,0:0:0:0:
16,312,125641,6,0,P|48:252|48:196,1,110,6|0,0:0|0:0,0:0:0:0:
40,140,126222,1,2,0:0:0:0:
104,168,126415,2,0,P|176:184|220:212,1,110,2|0,0:0|0:0,0:0:0:0:
256,256,126996,1,2,0:0:0:0:
305,201,127190,2,0,P|353:177|408:168,1,110,2|0,0:0|0:0,0:0:0:0:
476,192,127771,1,0,0:0:0:0:
440,252,127965,2,0,L|440:320,1,55,2|0,0:0|0:0,0:0:0:0:
372,284,128352,2,0,L|372:356,1,55,2|0,0:0|0:0,0:0:0:0:
308,308,128740,6,0,P|252:324|200:300,1,110,6|0,0:0|0:0,0:0:0:0:
256,256,129321,1,2,0:0:0:0:
256,184,129515,2,0,L|256:64,2,110,2|0|2,0:0|0:0|0:0,0:0:0:0:
192,216,130483,1,0,0:0:0:0:
144,160,130677,2,0,L|76:160,2,55,2|0|2,0:0|0:0|0:0,0:0:0:0:
192,108,131258,2,0,L|192:40,2,55,0|10|8,0:0|0:0|0:0,0:0:0:0:
256,160,131839,6,0,B|316:128|344:180|396:152,1,126.500002412796,6|0,0:0|0:0,0:0:0:0:
456,192,132420,1,2,0:0:0:0:
412,260,132614,2,0,B|352:292|324:240|272:268,1,126.500002412796,2|0,0:0|0:0,0:0:0:0:
220,304,133195,1,2,0:0:0:0:
160,360,133389,2,0,P|136:300|164:240,1,126.500002412796,2|0,0:0|0:0,0:0:0:0:
232,196,133970,1,0,0:0:0:0:
292,252,134164,2,0,L|340:188,2,63.250001206398,2|0|2,0:0|0:0|0:0,0:0:0:0:
232,196,134745,1,0,0:0:0:0:
176,136,134939,6,0,P|112:124|40:144,1,126.500002412796,6|0,0:0|0:0,0:0:0:0:
36,220,135520,1,2,0:0:0:0:
64,296,135713,2,0,B|116:260|116:260|116:196,2,126.500002412796,2|0|2,0:0|0:0|0:0,0:0:0:0:
124,352,136682,1,0,0:0:0:0:
200,324,136876,2,0,L|200:252,1,63.250001206398,2|0,0:0|0:0,0:0:0:0:
268,308,137263,2,0,L|268:232,1,63.250001206398,2|0,0:0|0:0,0:0:0:0:
336,292,137650,2,0,L|336:216,1,63.250001206398,10|8,0:0|0:0,0:0:0:0:
404,276,138038,6,0,L|404:136,1,126.500002412796,6|0,0:0|0:0,0:0:0:0:
348,88,138619,1,2,0:0:0:0:
308,160,138813,2,0,P|240:188|204:160,1,126.500002412796,2|0,0:0|0:0,0:0:0:0:
164,88,139394,1,2,0:0:0:0:
108,149,139588,2,0,L|108:276,1,126.500002412796,2|0,0:0|0:0,0:0:0:0:
164,336,140169,1,0,0:0:0:0:
228,284,140362,2,0,P|272:308|304:308,1,63.250001206398,2|0,0:0|0:0,0:0:0:0:
348,260,140750,2,0,P|304:236|272:236,1,63.250001206398,2|0,0:0|0:0,0:0:0:0:
212,212,141137,6,0,P|192:152|216:88,1,126.500002412796,6|0,0:0|0:0,0:0:0:0:
256,24,141718,1,2,0:0:0:0:
300,93,141912,2,0,P|319:153|300:212,2,126.500002412796,2|0|2,0:0|0:0|0:0,0:0:0:0:
256,24,142881,1,0,0:0:0:0:
216,96,143074,2,0,L|216:176,1,63.250001206398,2|0,0:0|0:0,0:0:0:0:
300,160,143462,2,0,L|300:96,1,63.250001206398,2|0,0:0|0:0,0:0:0:0:
356,40,143849,1,10,0:0:0:0:
436,64,144043,1,8,0:0:0:0:
480,132,144237,6,0,B|480:196|480:196|464:244|392:236,1,142.99999345398,6|0,0:0|0:0,0:0:0:0:
364,180,144818,1,2,0:0:0:0:
324,112,145011,2,0,P|252:92|184:116,1,142.99999345398,2|0,0:0|0:0,0:0:0:0:
148,180,145592,1,2,0:0:0:0:
93,236,145786,2,0,B|48:244|32:196|32:196|32:132,1,142.99999345398,2|0,0:0|0:0,0:0:0:0:
88,80,146367,1,0,0:0:0:0:
160,48,146561,2,0,L|240:48,1,71.4999967269899,2|0,0:0|0:0,0:0:0:0:
200,120,146948,2,0,L|304:120,1,71.4999967269899,2|0,0:0|0:0,0:0:0:0:
344,88,147336,6,0,L|344:240,1,142.99999345398,6|0,0:0|0:0,0:0:0:0:
344,231,147917,1,2,0:0:0:0:
276,192,148111,2,0,P|352:176|416:192,2,142.99999345398,2|0|2,0:0|0:0|0:0,0:0:0:0:
204,228,149079,2,0,L|128:228,1,71.4999967269899,0|2,0:0|0:0,0:0:0:0:
72,280,149467,1,0,0:0:0:0:
40,208,149660,2,0,P|32:164|44:124,3,71.4999967269899,2|0|10|8,0:0|0:0|0:0|0:0,0:0:0:0:
96,84,150435,6,0,P|176:68|236:92,1,142.99999345398,6|0,0:0|0:0,0:0:0:0:
256,164,151016,1,2,0:0:0:0:
292,232,151210,2,0,L|432:184,1,142.99999345398,2|0,0:0|0:0,0:0:0:0:
372,128,151791,1,2,0:0:0:0:
300,92,151985,2,0,B|228:100|276:176|200:200,1,142.99999345398,2|0,0:0|0:0,0:0:0:0:
136,196,152566,1,0,0:0:0:0:
56,196,152760,2,0,L|56:108,1,71.4999967269899,2|0,0:0|0:0,0:0:0:0:
104,60,153147,1,2,0:0:0:0:
180,36,153341,1,0,0:0:0:0:
256,52,153535,6,0,L|256:212,1,142.99999345398,6|0,0:0|0:0,0:0:0:0:
256,272,154116,1,2,0:0:0:0:
196,320,154309,2,0,P|264:352|328:304,2,142.99999345398,2|0|2,0:0|0:0|0:0,0:0:0:0:
136,280,155278,1,0,0:0:0:0:
76,244,155472,2,0,L|76:152,1,71.4999967269899,2|0,0:0|0:0,0:0:0:0:
80,100,155859,1,2,0:0:0:0:
136,52,156053,1,0,0:0:0:0:
208,64,156246,2,0,P|240:92|256:128,1,71.4999967269899,2|0,0:0|0:0,0:0:0:0:
256,192,156634,5,6,0:0:0:0:
256,192,156828,12,0,158184,0:0:0:0:
