osu file format v13

[General]
AudioFilename: Nightcore - Cambodia.mp3
AudioLeadIn: 0
PreviewTime: 117892
Countdown: 0
SampleSet: Soft
StackLeniency: 0.7
Mode: 0
LetterboxInBreaks: 1
StoryFireInFront: 0
WidescreenStoryboard: 0

[Editor]
DistanceSpacing: 1.1
BeatDivisor: 4
GridSize: 4
TimelineZoom: 3.399999

[Metadata]
Title:Cambodia (Nightcore Mix)
TitleUnicode:Cambodia (Nightcore Mix)
Artist:PulseDriver
ArtistUnicode:PulseDriver
Creator:emperor46
Version:Cambodia
Source:
Tags:CJ Stone Remix
BeatmapID:470284
BeatmapSetID:198271

[Difficulty]
HPDrainRate:6
CircleSize:4
OverallDifficulty:7
ApproachRate:8.7
SliderMultiplier:1.7
SliderTickRate:1

[Events]
//Background and Video events
0,0,"BG.jpg",0,0
//Break Periods
2,42159,44413
//Storyboard Layer 0 (Background)
//Storyboard Layer 1 (Fail)
//Storyboard Layer 2 (Pass)
//Storyboard Layer 3 (Foreground)
//Storyboard Sound Samples
//Background Colour Transformations
3,100,163,162,255

[TimingPoints]
118,387.416705408337,4,2,0,30,1,0
505,-100,4,2,0,30,0,0
12515,-125,4,2,0,40,0,0
26462,-111.111111111111,4,2,0,40,0,0
37310,-133.333333333333,4,2,0,40,0,0
38084,-90.9090909090909,4,2,0,60,0,0
38859,-90.9090909090909,4,1,1,60,0,0
45058,-111.111111111111,4,1,1,60,0,0
54356,-100,4,1,1,60,0,0
57455,-86.9565217391304,4,1,1,60,0,0
60555,-76.9230769230769,4,1,1,60,0,0
63654,-100,4,1,1,60,0,1
74502,-100,4,1,1,60,0,0
76051,-86.9565217391304,4,1,1,60,0,1
88449,-86.9565217391304,4,2,0,60,0,0
89223,-90.9090909090909,4,2,0,50,0,0
89998,-111.111111111111,4,2,0,40,0,0
90773,-142.857142857143,4,2,0,30,0,0
91548,-200,4,2,0,20,0,0
92323,-200,4,2,0,10,0,0
92710,-200,4,2,0,5,0,0
93098,-200,4,2,0,15,0,0
93485,-200,4,2,0,30,0,0
93872,-125,4,2,0,30,0,0
107045,-111.111111111111,4,2,0,40,0,0
118667,-100,4,2,0,40,0,0
119054,-100,4,1,1,60,0,0
119442,-100,4,1,1,60,0,1
130290,-100,4,1,1,60,0,0
131839,-86.9565217391304,4,1,1,60,0,1
142687,-86.9565217391304,4,1,1,60,0,0
144237,-76.9230769230769,4,1,1,60,0,1
156634,-76.9230769230769,4,1,1,60,0,0
156828,-76.9230769230769,4,1,1,5,0,0

[Colours]
Combo1 : 145,255,145
Combo2 : 255,128,128
Combo3 : 255,255,176
Combo4 : 155,255,255

[HitObjects]
224,64,1086,5,2,0:0:0:0:
108,120,1280,1,2,0:0:0:0:
224,172,1473,1,2,0:0:0:0:
108,228,1667,2,0,P|96:276|216:328,1,170,6|0,0:0|0:0,0:0:0:0:
264,248,2248,2,0,B|304:272|312:360|312:360|336:312,1,170,2|2,0:0|0:0,0:0:0:0:
412,220,2829,1,2,0:0:0:0:
460,336,3023,1,2,0:0:0:0:
332,320,3217,2,0,P|236:252|208:180,1,170,6|0,0:0|0:0,0:0:0:0:
288,104,3798,2,0,B|332:96|368:72|368:72|364:128|384:188,1,170,2|2,0:0|0:0,0:0:0:0:
404,280,4379,5,2,0:0:0:0:
376,156,4573,1,2,0:0:0:0:
264,220,4767,2,0,B|232:212|188:196|188:196|132:216|56:204,1,170,6|0,0:0|0:0,0:0:0:0:
36,96,5348,1,2,0:0:0:0:
40,352,5735,1,2,0:0:0:0:
168,344,5929,1,2,0:0:0:0:
292,312,6122,1,2,0:0:0:0:
404,252,6316,2,0,P|424:204|420:156,1,85,2|0,0:0|0:0,0:0:0:0:
332,84,6704,2,0,P|312:132|316:180,1,85,2|0,0:0|0:0,0:0:0:0:
204,232,7091,2,0,P|256:212|296:212,1,85,2|0,0:0|0:0,0:0:0:0:
360,312,7478,2,0,P|308:332|268:332,1,85,2|0,0:0|0:0,0:0:0:0:
112,300,7866,1,2,0:0:0:0:
256,192,8060,12,0,10578,0:0:0:0:
256,192,10965,12,0,13289,0:0:0:0:
160,72,13483,5,2,0:0:0:0:
80,136,13677,1,2,0:0:0:0:
176,164,13871,1,2,0:0:0:0:
92,220,14065,2,0,L|152:264,1,68,6|0,0:0|0:0,0:0:0:0:
272,208,14452,1,2,0:0:0:0:
224,336,14646,2,0,P|264:344|300:344,1,68,2|0,0:0|0:0,0:0:0:0:
380,240,15033,5,0,0:0:0:0:
452,312,15227,1,2,0:0:0:0:
480,180,15420,1,0,0:0:0:0:
396,124,15614,2,0,L|312:124,1,68,2|0,0:0|0:0,0:0:0:0:
208,188,16002,1,2,0:0:0:0:
176,56,16195,2,0,B|120:40|80:16|80:16|80:52,1,136,2|0,0:0|0:0,0:0:0:0:
116,144,16776,5,2,0:0:0:0:
48,260,16970,1,0,0:0:0:0:
116,336,17164,2,0,L|192:344,1,68,2|0,0:0|0:0,0:0:0:0:
280,244,17551,1,2,0:0:0:0:
180,268,17745,2,0,P|164:220|172:180,1,68,2|0,0:0|0:0,0:0:0:0:
284,140,18132,5,0,0:0:0:0:
176,60,18326,1,2,0:0:0:0:
284,140,18520,1,0,0:0:0:0:
384,44,18714,2,0,P|424:80|432:120,1,68,2|0,0:0|0:0,0:0:0:0:
448,124,19004,1,0,0:0:0:0:
456,156,19101,1,2,0:0:0:0:
400,244,19295,6,0,P|348:208|340:176,1,68,2|0,0:0|0:0,0:0:0:0:
484,240,19682,2,0,P|496:280|488:320,1,68,0|2,0:0|0:0,0:0:0:0:
364,348,20069,1,0,0:0:0:0:
364,348,20263,6,0,P|324:300|320:276,1,68,2|0,0:0|0:0,0:0:0:0:
352,200,20651,1,2,0:0:0:0:
256,172,20844,2,0,L|308:120,2,68,2|0|0,0:0|0:0|0:0,0:0:0:0:
156,264,21425,1,2,0:0:0:0:
80,152,21619,1,0,0:0:0:0:
176,56,21813,6,0,P|244:60|268:68,1,68,2|0,0:0|0:0,0:0:0:0:
276,72,22103,1,0,0:0:0:0:
304,88,22200,1,2,0:0:0:0:
372,164,22394,2,0,P|432:168|460:164,1,68,2|0,0:0|0:0,0:0:0:0:
480,260,22781,6,0,P|444:312|436:336,1,68,0|2,0:0|0:0,0:0:0:0:
320,256,23169,1,0,0:0:0:0:
188,236,23363,2,0,L|136:172,2,68,2|0|2,0:0|0:0|0:0,0:0:0:0:
188,236,23944,1,2,0:0:0:0:
352,124,24331,6,0,P|316:176|308:200,1,68,0|2,0:0|0:0,0:0:0:0:
192,120,24718,1,0,0:0:0:0:
56,100,24912,2,0,L|4:36,2,68,2|0|2,0:0|0:0|0:0,0:0:0:0:
56,100,25493,1,2,0:0:0:0:
108,296,25881,1,0,0:0:0:0:
140,312,25978,1,0,0:0:0:0:
172,324,26074,1,2,0:0:0:0:
256,216,26268,1,0,0:0:0:0:
316,312,26462,6,0,P|384:328|420:316,1,76.4999976654053,6|0,0:0|0:0,0:0:0:0:
380,212,26849,2,0,L|292:228,1,76.4999976654053,2|2,0:0|0:0,0:0:0:0:
188,224,27237,1,0,0:0:0:0:
124,128,27430,1,0,0:0:0:0:
260,56,27624,1,2,0:0:0:0:
408,92,27818,1,0,0:0:0:0:
444,240,28012,6,0,L|348:264,1,76.4999976654053,6|0,0:0|0:0,0:0:0:0:
296,344,28399,2,0,L|200:324,1,76.4999976654053,2|2,0:0|0:0,0:0:0:0:
268,224,28786,2,0,L|320:148,2,76.4999976654053,0|0|2,0:0|0:0|0:0,0:0:0:0:
268,224,29367,1,0,0:0:0:0:
200,132,29561,6,0,L|292:104,1,76.4999976654053,6|0,0:0|0:0,0:0:0:0:
144,196,29949,2,0,P|120:120|120:92,1,76.4999976654053,2|2,0:0|0:0,0:0:0:0:
256,48,30336,1,0,0:0:0:0:
356,104,30530,1,0,0:0:0:0:
256,48,30723,1,2,0:0:0:0:
304,192,30917,1,0,0:0:0:0:
444,128,31111,6,0,P|460:184|460:212,1,76.4999976654053,6|0,0:0|0:0,0:0:0:0:
456,240,31401,1,0,0:0:0:0:
444,276,31498,1,2,0:0:0:0:
296,312,31692,2,0,L|364:252,1,76.4999976654053,2|0,0:0|0:0,0:0:0:0:
364,148,32079,1,0,0:0:0:0:
212,128,32273,1,2,0:0:0:0:
84,212,32467,1,0,0:0:0:0:
168,340,32661,6,0,P|176:244|160:176,1,152.999995330811,6|2,0:0|0:0,0:0:0:0:
76,88,33242,1,2,0:0:0:0:
384,104,33629,2,0,L|460:56,2,76.4999976654053,0|2|0,0:0|0:0|0:0,0:0:0:0:
308,192,34210,2,0,B|324:252|360:300|360:300|376:268,1,152.999995330811,6|2,0:0|0:0,0:0:0:0:
480,224,34791,1,2,0:0:0:0:
192,324,35179,5,0,0:0:0:0:
56,252,35372,1,2,0:0:0:0:
60,100,35566,1,0,0:0:0:0:
200,32,35760,2,0,P|268:40|292:52,1,76.4999976654053,6|0,0:0|0:0,0:0:0:0:
224,188,36147,2,0,P|156:180|132:168,1,76.4999976654053,2|2,0:0|0:0,0:0:0:0:
124,36,36535,2,0,P|113:72|113:110,1,76.4999976654053,6|0,0:0|0:0,0:0:0:0:
300,180,36922,2,0,P|310:143|310:105,1,76.4999976654053,2|2,0:0|0:0,0:0:0:0:
188,140,37310,6,0,P|148:204|148:208,1,63.7500024318696,6|0,0:0|0:0,0:0:0:0:
52,268,37697,2,0,P|64:208|76:188,1,63.7500024318696,2|0,0:0|0:0,0:0:0:0:
176,356,38084,2,0,P|276:316|348:380,2,187.000005706787,2|2|6,0:0|0:0|0:0,0:0:0:0:
256,192,38956,12,0,41959,0:0:0:0:
200,84,45058,6,0,L|144:152,1,76.4999976654053,6|0,0:0|0:0,0:0:0:0:
256,188,45445,2,0,L|256:76,1,76.4999976654053,2|0,0:0|0:0,0:0:0:0:
368,88,45833,1,2,0:0:0:0:
368,88,46026,1,0,0:0:0:0:
460,160,46220,1,2,0:0:0:0:
460,160,46414,1,0,0:0:0:0:
384,248,46608,6,0,P|444:272|468:308,1,76.4999976654053,2|0,0:0|0:0,0:0:0:0:
356,344,46995,2,0,P|316:296|316:248,1,76.4999976654053,2|0,0:0|0:0,0:0:0:0:
252,144,47382,2,0,P|288:200|284:236,1,76.4999976654053,2|0,0:0|0:0,0:0:0:0:
216,296,47770,1,2,0:0:0:0:
104,328,47963,1,0,0:0:0:0:
32,192,48157,6,0,L|32:28,1,152.999995330811,2|0,0:0|0:0,0:0:0:0:
112,128,48738,1,2,0:0:0:0:
184,236,48932,2,0,L|184:72,1,152.999995330811,2|0,0:0|0:0,0:0:0:0:
256,172,49513,1,2,0:0:0:0:
328,276,49707,2,0,L|328:188,1,76.4999976654053,2|0,0:0|0:0,0:0:0:0:
388,56,50094,2,0,L|388:144,1,76.4999976654053,2|0,0:0|0:0,0:0:0:0:
444,276,50482,1,2,0:0:0:0:
356,204,50675,1,0,0:0:0:0:
464,196,50869,1,2,0:0:0:0:
340,288,51063,1,0,0:0:0:0:
188,276,51257,5,6,0:0:0:0:
76,248,51450,1,2,0:0:0:0:
188,216,51644,1,2,0:0:0:0:
76,188,51838,1,0,0:0:0:0:
188,156,52031,1,6,0:0:0:0:
76,128,52225,1,0,0:0:0:0:
188,100,52419,1,6,0:0:0:0:
76,72,52612,1,0,0:0:0:0:
188,44,52806,6,0,P|240:48|264:64,1,76.4999976654053,6|2,0:0|0:0,0:0:0:0:
372,36,53194,2,0,P|368:88|352:112,1,76.4999976654053,2|0,0:0|0:0,0:0:0:0:
372,220,53581,2,0,P|320:216|296:200,1,76.4999976654053,6|0,0:0|0:0,0:0:0:0:
184,216,53968,2,0,P|188:164|204:140,1,76.4999976654053,6|0,0:0|0:0,0:0:0:0:
288,76,54356,5,6,0:0:0:0:
400,68,54550,1,2,0:0:0:0:
492,132,54743,1,2,0:0:0:0:
496,244,54937,1,0,0:0:0:0:
428,332,55131,1,4,0:0:0:0:
324,364,55324,1,0,0:0:0:0:
212,356,55518,1,4,0:0:0:0:
104,324,55712,1,0,0:0:0:0:
212,308,55906,5,6,0:0:0:0:
308,252,56099,1,2,0:0:0:0:
352,152,56293,1,2,0:0:0:0:
308,52,56487,1,0,0:0:0:0:
204,8,56680,1,6,0:0:0:0:
96,24,56874,1,0,0:0:0:0:
32,116,57068,1,6,0:0:0:0:
28,228,57261,1,0,0:0:0:0:
104,320,57455,5,0,0:0:0:0:
156,332,57552,1,0,0:0:0:0:
208,332,57649,1,0,0:0:0:0:
260,320,57746,1,0,0:0:0:0:
312,304,57843,1,0,0:0:0:0:
356,276,57939,1,0,0:0:0:0:
392,236,58036,1,0,0:0:0:0:
416,188,58133,1,0,0:0:0:0:
404,136,58230,2,0,L|384:88,7,48.8750009322167,0|0|0|0|0|0|0|0,0:0|0:0|0:0|0:0|0:0|0:0|0:0|0:0,0:0:0:0:
356,44,59005,5,0,0:0:0:0:
304,28,59102,1,0,0:0:0:0:
252,36,59199,1,0,0:0:0:0:
204,60,59295,1,0,0:0:0:0:
164,96,59392,1,0,0:0:0:0:
216,112,59489,1,0,0:0:0:0:
256,148,59586,1,0,0:0:0:0:
288,192,59683,1,0,0:0:0:0:
284,244,59780,1,0,0:0:0:0:
256,292,59877,1,0,0:0:0:0:
204,304,59973,1,0,0:0:0:0:
152,292,60070,1,0,0:0:0:0:
104,264,60167,1,0,0:0:0:0:
72,220,60264,1,0,0:0:0:0:
60,168,60361,1,0,0:0:0:0:
76,116,60458,1,0,0:0:0:0:
128,84,60555,6,0,L|172:160,1,55.2499974708558
204,96,60748,2,0,L|192:184,1,55.2499974708558
256,148,60942,2,0,L|212:216,1,55.2499974708558
284,208,61136,2,0,L|228:244,1,55.2499974708558
276,284,61329,1,0,0:0:0:0:
316,328,61426,1,0,0:0:0:0:
376,328,61523,1,0,0:0:0:0:
432,300,61620,1,0,0:0:0:0:
472,256,61717,2,0,L|492:188,3,55.2499974708558,0|0|0|0,0:0|0:0|0:0|0:0,0:0:0:0:
492,144,62104,6,0,L|420:108,1,55.2499974708558
420,60,62298,2,0,L|364:76,1,55.2499974708558
312,52,62492,2,0,L|280:112,1,55.2499974708558
236,136,62685,2,0,L|292:184,1,55.2499974708558
300,232,62879,1,0,0:0:0:0:
244,264,62976,1,0,0:0:0:0:
176,268,63073,1,0,0:0:0:0:
116,236,63170,1,0,0:0:0:0:
80,180,63266,5,4,0:0:0:0:
164,80,63460,1,4,0:0:0:0:
292,136,63654,6,0,P|400:172|468:148,1,170,6|0,0:0|0:0,0:0:0:0:
376,56,64235,1,2,0:0:0:0:
488,184,64429,2,0,P|404:248|328:256,1,170,2|0,0:0|0:0,0:0:0:0:
216,256,65010,1,2,0:0:0:0:
176,92,65204,2,0,B|200:56|200:56|224:148|252:188,1,170,2|0,0:0|0:0,0:0:0:0:
316,280,65785,1,0,0:0:0:0:
480,232,65978,5,2,0:0:0:0:
364,356,66172,1,0,0:0:0:0:
408,192,66366,1,2,0:0:0:0:
456,356,66559,1,0,0:0:0:0:
344,224,66753,6,0,P|284:156|188:132,1,170,6|0,0:0|0:0,0:0:0:0:
188,256,67334,1,2,0:0:0:0:
72,208,67528,2,0,P|32:136|72:64,2,170,2|0|2,0:0|0:0|0:0,0:0:0:0:
184,148,68497,5,0,0:0:0:0:
64,268,68690,1,2,0:0:0:0:
224,212,68884,1,0,0:0:0:0:
88,312,69078,1,2,0:0:0:0:
256,344,69271,1,0,0:0:0:0:
420,304,69465,1,10,0:0:0:0:
480,144,69659,1,8,0:0:0:0:
332,228,69853,6,0,P|256:172|248:92,1,170,6|0,0:0|0:0,0:0:0:0:
372,120,70434,1,2,0:0:0:0:
476,252,70627,2,0,P|416:328|332:344,1,170,2|0,0:0|0:0,0:0:0:0:
256,256,71208,1,2,0:0:0:0:
36,252,71402,2,0,P|96:328|180:344,1,170,2|0,0:0|0:0,0:0:0:0:
256,256,71983,6,0,L|256:168,1,85,0|2,0:0|0:0,0:0:0:0:
352,256,72371,1,0,0:0:0:0:
256,116,72564,1,2,0:0:0:0:
160,256,72758,1,0,0:0:0:0:
256,116,72952,6,0,B|296:48|344:168|420:88,1,170,6|0,0:0|0:0,0:0:0:0:
480,204,73533,1,2,0:0:0:0:
356,324,73727,2,0,B|300:252|320:216|320:216|268:192,2,170,2|0|2,0:0|0:0|0:0,0:0:0:0:
244,260,74695,1,0,0:0:0:0:
124,304,74889,1,2,0:0:0:0:
148,180,75083,1,0,0:0:0:0:
224,332,75276,1,2,0:0:0:0:
88,232,75470,1,0,0:0:0:0:
248,176,75664,1,10,0:0:0:0:
136,304,75857,1,8,0:0:0:0:
152,108,76051,6,0,B|244:48|292:164|368:96,1,195.500003728867,6|0,0:0|0:0,0:0:0:0:
248,228,76632,1,2,0:0:0:0:
304,40,76826,2,0,P|400:52|404:176,1,195.500003728867,2|0,0:0|0:0,0:0:0:0:
388,276,77407,1,2,0:0:0:0:
248,140,77601,2,0,P|164:184|192:300,1,195.500003728867,2|0,0:0|0:0,0:0:0:0:
300,332,78182,1,0,0:0:0:0:
444,204,78376,5,2,0:0:0:0:
416,348,78569,1,0,0:0:0:0:
264,228,78763,1,2,0:0:0:0:
420,108,78957,1,0,0:0:0:0:
224,84,79151,6,0,B|152:80|152:80|88:120|20:128,1,195.500003728867,6|0,0:0|0:0,0:0:0:0:
180,156,79732,1,2,0:0:0:0:
284,24,79925,2,0,P|324:80|248:164,2,195.500003728867,2|0|2,0:0|0:0|0:0,0:0:0:0:
140,44,80894,6,0,L|72:128,1,97.7500018644333,0|2,0:0|0:0,0:0:0:0:
164,240,81281,1,0,0:0:0:0:
304,284,81475,2,0,L|256:176,1,97.7500018644333,2|0,0:0|0:0,0:0:0:0:
332,64,81862,1,10,0:0:0:0:
364,88,82056,1,8,0:0:0:0:
400,116,82250,6,0,P|460:188|440:300,1,195.500003728867,6|0,0:0|0:0,0:0:0:0:
260,336,82831,1,2,0:0:0:0:
324,152,83025,2,0,P|376:208|356:320,1,195.500003728867,2|0,0:0|0:0,0:0:0:0:
216,184,83606,1,2,0:0:0:0:
288,364,83800,2,0,P|311:272|254:197,1,195.500003728867,2|0,0:0|0:0,0:0:0:0:
144,292,84381,1,0,0:0:0:0:
36,196,84574,5,2,0:0:0:0:
136,88,84768,1,0,0:0:0:0:
232,256,84962,1,2,0:0:0:0:
376,124,85155,1,0,0:0:0:0:
340,316,85349,6,0,B|440:276|440:276|380:192,1,195.500003728867,6|0,0:0|0:0,0:0:0:0:
244,204,85930,1,2,0:0:0:0:
148,96,86124,2,0,B|48:136|48:136|108:220,2,195.500003728867,2|0|2,0:0|0:0|0:0,0:0:0:0:
276,172,87093,5,0,0:0:0:0:
164,264,87286,2,0,P|220:308|272:308,1,97.7500018644333,2|0,0:0|0:0,0:0:0:0:
348,144,87674,2,0,P|352:232|336:280,1,97.7500018644333,2|0,0:0|0:0,0:0:0:0:
232,84,88061,1,10,0:0:0:0:
420,36,88255,1,8,0:0:0:0:
232,84,88449,6,0,L|328:156,1,97.7500018644333,2|0,0:0|0:0,0:0:0:0:
468,260,88836,2,0,L|372:188,1,97.7500018644333,2|0,0:0|0:0,0:0:0:0:
252,120,89223,6,0,L|324:180,1,93.5000028533936,2|0,0:0|0:0,0:0:0:0:
424,264,89611,2,0,L|352:204,1,93.5000028533936,2|0,0:0|0:0,0:0:0:0:
264,160,89998,6,0,L|328:212,1,76.4999976654053,2|0,0:0|0:0,0:0:0:0:
384,256,90386,2,0,L|320:204,1,76.4999976654053,2|0,0:0|0:0,0:0:0:0:
264,200,90773,6,0,L|316:240,1,59.4999981842042,2|0,0:0|0:0,0:0:0:0:
348,264,91160,2,0,L|296:224,1,59.4999981842042,2|0,0:0|0:0,0:0:0:0:
256,240,91548,6,0,L|292:268,1,42.5,2|0,0:0|0:0,0:0:0:0:
308,284,91935,2,0,L|272:256,1,42.5,2|0,0:0|0:0,0:0:0:0:
264,280,92323,5,2,0:0:0:0:
252,292,92710,1,2,0:0:0:0:
240,304,93098,1,2,0:0:0:0:
228,316,93485,1,2,0:0:0:0:
216,328,93872,1,2,0:0:0:0:
152,352,94066,6,0,L|76:344,2,68,2|2|2,0:0|0:0|0:0,0:0:0:0:
176,252,94647,2,0,P|188:172|168:112,1,136,6|2,0:0|0:0,0:0:0:0:
96,188,95228,1,2,0:0:0:0:
144,60,95422,1,2,0:0:0:0:
280,56,95616,2,0,L|352:104,2,68,0|2|0,0:0|0:0|0:0,0:0:0:0:
224,180,96197,2,0,B|248:248|248:280|248:280|276:252,1,136,2|2,0:0|0:0,0:0:0:0:
368,164,96778,1,2,0:0:0:0:
500,200,96972,1,2,0:0:0:0:
468,316,97165,5,0,0:0:0:0:
436,328,97359,1,2,0:0:0:0:
404,344,97553,1,0,0:0:0:0:
372,360,97747,2,0,B|300:372|256:384|256:384|276:352,1,136,2|2,0:0|0:0,0:0:0:0:
332,292,98328,1,2,0:0:0:0:
256,180,98521,1,2,0:0:0:0:
344,88,98715,2,0,P|272:64|248:64,2,68,0|2|0,0:0|0:0|0:0,0:0:0:0:
416,160,99296,2,0,P|368:168|328:196,1,68,2|0,0:0|0:0,0:0:0:0:
324,196,99587,1,0,0:0:0:0:
300,220,99684,1,2,0:0:0:0:
216,280,99877,2,0,P|180:232|184:196,2,68,2|0|0,0:0|0:0|0:0,0:0:0:0:
316,300,100458,2,0,P|352:348|348:384,1,68,2|0,0:0|0:0,0:0:0:0:
440,248,100846,6,0,L|464:88,1,136,2|2,0:0|0:0,0:0:0:0:
460,113,101427,1,2,0:0:0:0:
320,344,101814,1,0,0:0:0:0:
220,364,102008,1,2,0:0:0:0:
168,276,102202,1,0,0:0:0:0:
268,248,102396,2,0,L|292:88,1,136,2|2,0:0|0:0,0:0:0:0:
288,113,102977,1,2,0:0:0:0:
28,196,103364,6,0,L|36:296,2,68,2|2|2,0:0|0:0|0:0,0:0:0:0:
104,84,103945,2,0,P|196:60|256:76,1,136,2|2,0:0|0:0,0:0:0:0:
164,184,104526,1,2,0:0:0:0:
234,67,104720,1,0,0:0:0:0:
260,288,104914,2,0,L|268:388,2,68,0|2|0,0:0|0:0|0:0,0:0:0:0:
336,176,105495,2,0,P|428:152|488:168,1,136,2|2,0:0|0:0,0:0:0:0:
396,276,106076,1,2,0:0:0:0:
140,188,106463,5,0,0:0:0:0:
112,172,106560,1,0,0:0:0:0:
84,152,106657,1,2,0:0:0:0:
172,48,106851,1,0,0:0:0:0:
264,116,107045,6,0,L|340:96,2,76.4999976654053,6|0|2,0:0|0:0|0:0,0:0:0:0:
244,228,107626,2,0,L|344:204,1,76.4999976654053,2|0,0:0|0:0,0:0:0:0:
228,280,108013,2,0,L|328:256,1,76.4999976654053,0|2,0:0|0:0,0:0:0:0:
208,328,108400,1,0,0:0:0:0:
108,272,108594,6,0,P|84:216|84:176,1,76.4999976654053,6|0,0:0|0:0,0:0:0:0:
196,208,108982,2,0,P|132:184|112:152,1,76.4999976654053,2|2,0:0|0:0,0:0:0:0:
204,92,109369,2,0,P|144:116|124:140,1,76.4999976654053
124,8,109756,2,0,P|100:56|96:100,1,76.4999976654053,2|0,0:0|0:0,0:0:0:0:
232,152,110144,6,0,L|328:188,1,76.4999976654053,6|0,0:0|0:0,0:0:0:0:
412,212,110531,1,2,0:0:0:0:
332,340,110725,2,0,B|408:344|408:344|452:324|492:308,1,152.999995330811,2|0,0:0|0:0,0:0:0:0:
372,268,111306,2,0,P|324:252|288:216,1,76.4999976654053,2|0,0:0|0:0,0:0:0:0:
200,124,111694,6,0,L|312:112,1,76.4999976654053,6|0,0:0|0:0,0:0:0:0:
316,112,111984,1,0,0:0:0:0:
356,108,112081,1,2,0:0:0:0:
240,208,112275,2,0,L|324:188,1,76.4999976654053,2|0,0:0|0:0,0:0:0:0:
196,288,112662,2,0,L|284:248,1,76.4999976654053,0|2,0:0|0:0,0:0:0:0:
116,280,113049,1,0,0:0:0:0:
88,144,113243,6,0,L|176:120,1,76.4999976654053,6|0,0:0|0:0,0:0:0:0:
256,60,113631,1,2,0:0:0:0:
424,144,113824,2,0,L|336:120,1,76.4999976654053,2|0,0:0|0:0,0:0:0:0:
256,192,114212,1,0,0:0:0:0:
256,308,114405,2,0,L|256:224,1,76.4999976654053,2|0,0:0|0:0,0:0:0:0:
372,332,114793,5,6,0:0:0:0:
432,232,114987,1,0,0:0:0:0:
468,316,115180,1,2,0:0:0:0:
316,236,115374,2,0,P|220:224|152:244,1,152.999995330811,2|0,0:0|0:0,0:0:0:0:
88,292,115955,1,0,0:0:0:0:
56,180,116149,6,0,L|72:80,2,76.4999976654053,2|6|0,0:0|0:0|0:0,0:0:0:0:
160,132,116730,1,2,0:0:0:0:
252,40,116924,2,0,L|328:52,1,76.4999976654053,2|2,0:0|0:0,0:0:0:0:
380,172,117311,2,0,P|324:144|288:140,1,76.4999976654053,0|2,0:0|0:0,0:0:0:0:
456,88,117698,1,0,0:0:0:0:
452,240,117892,6,0,L|392:312,1,76.4999976654053,2|2,0:0|0:0,0:0:0:0:
256,340,118280,1,2,0:0:0:0:
256,188,118473,1,2,0:0:0:0:
336,40,118667,2,0,P|248:68|180:40,1,170,2|10,0:0|0:0,0:0:0:0:
92,188,119248,1,8,0:0:0:0:
260,224,119442,6,0,P|368:240|420:292,1,170,6|0,0:0|0:0,0:0:0:0:
472,164,120023,1,2,0:0:0:0:
484,292,120217,2,0,P|444:376|368:368,1,170,2|0,0:0|0:0,0:0:0:0:
352,248,120798,1,2,0:0:0:0:
336,120,120992,2,0,B|280:104|212:44|212:44|216:96,1,170,2|0,0:0|0:0,0:0:0:0:
236,192,121573,1,0,0:0:0:0:
132,120,121766,5,2,0:0:0:0:
148,248,121960,1,0,0:0:0:0:
220,104,122154,1,2,0:0:0:0:
80,200,122347,1,0,0:0:0:0:
168,344,122541,6,0,B|212:316|224:280|224:280|272:272|340:264,1,170,2|0,0:0|0:0,0:0:0:0:
408,348,123122,1,2,0:0:0:0:
420,220,123316,2,0,P|404:128|460:64,2,170,2|0|2,0:0|0:0|0:0,0:0:0:0:
480,332,124285,5,0,0:0:0:0:
364,280,124478,1,2,0:0:0:0:
248,332,124672,1,0,0:0:0:0:
132,280,124866,1,2,0:0:0:0:
236,208,125059,1,0,0:0:0:0:
248,332,125253,1,10,0:0:0:0:
140,200,125447,1,8,0:0:0:0:
296,268,125641,6,0,P|376:236|400:160,1,170,6|0,0:0|0:0,0:0:0:0:
272,168,126222,1,2,0:0:0:0:
364,80,126415,2,0,B|276:80|276:80|196:40,1,170,2|0,0:0|0:0,0:0:0:0:
128,144,126996,1,2,0:0:0:0:
204,44,127190,2,0,P|244:124|212:216,1,170,2|0,0:0|0:0,0:0:0:0:
120,268,127771,5,0,0:0:0:0:
228,332,127965,1,2,0:0:0:0:
120,268,128159,1,0,0:0:0:0:
292,256,128352,1,2,0:0:0:0:
120,268,128546,1,0,0:0:0:0:
248,156,128740,6,0,P|356:132|428:168,1,170,2|0,0:0|0:0,0:0:0:0:
420,280,129321,1,2,0:0:0:0:
296,316,129515,2,0,B|252:316|252:316|208:232|112:292,2,170,2|0|2,0:0|0:0|0:0,0:0:0:0:
376,220,130483,5,0,0:0:0:0:
392,92,130677,1,2,0:0:0:0:
276,144,130871,1,0,0:0:0:0:
420,156,131064,1,2,0:0:0:0:
320,52,131258,1,0,0:0:0:0:
264,184,131452,1,10,0:0:0:0:
400,84,131645,1,8,0:0:0:0:
296,248,131839,6,0,P|240:284|192:288,1,97.7500018644333,6|0,0:0|0:0,0:0:0:0:
160,300,132130,1,0,0:0:0:0:
112,292,132227,1,0,0:0:0:0:
200,180,132420,1,2,0:0:0:0:
76,104,132614,2,0,L|180:92,1,97.7500018644333,2|0,0:0|0:0,0:0:0:0:
336,204,133001,2,0,P|272:168|248:120,1,97.7500018644333,0|2,0:0|0:0,0:0:0:0:
432,56,133389,2,0,P|440:136|448:180,1,97.7500018644333,2|2,0:0|0:0,0:0:0:0:
456,200,133679,1,0,0:0:0:0:
468,248,133776,1,0,0:0:0:0:
364,340,133970,5,0,0:0:0:0:
248,252,134164,1,2,0:0:0:0:
144,356,134357,1,0,0:0:0:0:
324,276,134551,1,2,0:0:0:0:
140,204,134745,1,0,0:0:0:0:
36,36,134939,6,0,B|76:128|76:128|144:136|192:160,1,195.500003728867,2|0,0:0|0:0,0:0:0:0:
256,268,135520,1,2,0:0:0:0:
476,36,135713,2,0,B|436:128|436:128|368:136|320:160,1,195.500003728867,2|0,0:0|0:0,0:0:0:0:
88,292,136488,5,2,0:0:0:0:
164,168,136682,1,0,0:0:0:0:
240,292,136876,1,2,0:0:0:0:
64,204,137069,1,0,0:0:0:0:
260,204,137263,1,2,0:0:0:0:
164,372,137457,1,0,0:0:0:0:
212,184,137650,2,8,P|268:196|320:236,1,97.7500018644333,10|8,0:0|0:0,0:0:0:0:
440,268,138038,6,0,P|380:240|348:188,1,97.7500018644333,6|0,0:0|0:0,0:0:0:0:
336,176,138328,1,0,0:0:0:0:
324,128,138425,1,0,0:0:0:0:
484,36,138619,1,2,0:0:0:0:
336,48,138813,2,0,B|252:108|252:108|168:36,1,195.500003728867,2|0,0:0|0:0,0:0:0:0:
28,36,139394,1,2,0:0:0:0:
152,112,139588,2,0,L|144:216,1,97.7500018644333,2|2,0:0|0:0,0:0:0:0:
124,256,139878,1,0,0:0:0:0:
92,296,139975,1,0,0:0:0:0:
256,332,140169,5,0,0:0:0:0:
256,184,140362,1,2,0:0:0:0:
280,88,140556,1,0,0:0:0:0:
320,220,140750,1,2,0:0:0:0:
184,224,140943,1,0,0:0:0:0:
340,304,141137,6,0,P|436:264|436:144,1,195.500003728867,2|0,0:0|0:0,0:0:0:0:
424,44,141718,1,2,0:0:0:0:
300,124,141912,2,0,B|264:164|264:164|280:80|220:36|156:72,2,195.500003728867,2|0|2,0:0|0:0|0:0,0:0:0:0:
444,96,142881,1,0,0:0:0:0:
360,216,143074,1,2,0:0:0:0:
496,164,143268,1,0,0:0:0:0:
428,292,143462,1,2,0:0:0:0:
340,176,143655,1,0,0:0:0:0:
252,292,143849,1,10,0:0:0:0:
384,352,144043,1,8,0:0:0:0:
280,224,144237,6,0,P|172:172|48:216,1,220.999989883423,2|0,0:0|0:0,0:0:0:0:
176,328,144818,1,2,0:0:0:0:
340,320,145011,2,0,P|424:208|388:104,1,220.999989883423,2|0,0:0|0:0,0:0:0:0:
264,212,145592,1,2,0:0:0:0:
100,248,145786,2,0,P|56:140|156:80,1,220.999989883423,2|0,0:0|0:0,0:0:0:0:
256,180,146367,5,0,0:0:0:0:
288,148,146464,1,0,0:0:0:0:
320,116,146561,1,2,0:0:0:0:
192,268,146755,1,0,0:0:0:0:
144,108,146948,1,2,0:0:0:0:
368,276,147142,1,0,0:0:0:0:
396,112,147336,6,0,L|184:236,1,220.999989883423,2|0,0:0|0:0,0:0:0:0:
104,356,147917,1,2,0:0:0:0:
72,192,148111,2,0,P|40:88|120:16,2,220.999989883423,2|0|2,0:0|0:0|0:0,0:0:0:0:
224,264,149079,5,0,0:0:0:0:
372,336,149273,1,2,0:0:0:0:
476,208,149467,1,0,0:0:0:0:
312,236,149660,1,2,0:0:0:0:
404,96,149854,1,0,0:0:0:0:
416,140,149951,1,0,0:0:0:0:
432,192,150048,1,10,0:0:0:0:
288,112,150241,1,2,0:0:0:0:
212,260,150435,6,0,P|104:316|12:276,1,220.999989883423,6|0,0:0|0:0,0:0:0:0:
156,192,151016,1,2,0:0:0:0:
304,268,151210,2,0,P|284:184|392:92,1,220.999989883423,2|0,0:0|0:0,0:0:0:0:
456,236,151791,1,2,0:0:0:0:
376,92,151985,2,0,B|276:24|240:188|132:76,1,220.999989883423,2|0,0:0|0:0,0:0:0:0:
20,32,152566,5,0,0:0:0:0:
88,180,152760,1,2,0:0:0:0:
236,104,152953,1,0,0:0:0:0:
208,152,153050,1,0,0:0:0:0:
196,204,153147,1,2,0:0:0:0:
248,300,153341,1,0,0:0:0:0:
324,216,153535,6,0,B|352:264|352:312|352:312|448:204,1,220.999989883423,2|0,0:0|0:0,0:0:0:0:
452,112,154116,1,2,0:0:0:0:
236,56,154309,2,0,B|340:96|340:96|280:120|260:176,2,220.999989883423,2|0|2,0:0|0:0|0:0,0:0:0:0:
68,52,155278,5,0,0:0:0:0:
68,108,155375,1,0,0:0:0:0:
80,160,155472,1,2,0:0:0:0:
168,300,155665,1,0,0:0:0:0:
208,140,155859,1,2,0:0:0:0:
236,92,155956,1,0,0:0:0:0:
280,60,156053,1,0,0:0:0:0:
332,40,156150,1,0,0:0:0:0:
388,40,156246,1,2,0:0:0:0:
404,260,156440,1,0,0:0:0:0:
388,40,156634,5,6,0:0:0:0:
256,192,156828,12,0,158184,0:0:0:0:
