osu file format v5

[General]
AudioFilename: fe7f5d7e4aef93f9205dfd90ef367c84.mp3
AudioLeadIn: 0
PreviewTime: 41006
Countdown: 1
SampleSet: Normal
StackLeniency: 0.7
Mode: 0
EditorBookmarks: 18214,40822,73630,96514

[Metadata]
Title:K2G
Artist:Puffy Ami Yumi
Creator:P-Drogan
Version:Normal

[Difficulty]
HPDrainRate:3
CircleSize:4
OverallDifficulty:4
SliderMultiplier:1.6
SliderTickRate:2

[Events]
//Background and Video events
0,0,"puffy ami yumi.png"
//Break Periods
2,62895,73073
2,124284,129261
2,165455,174843
//Storyboard Layer 0 (Background)
//Storyboard Layer 1 (Failing)
//Storyboard Layer 2 (Passing)
//Storyboard Layer 3 (Foreground)
//Storyboard Sound Samples
//Background Colour Transformations
3,100,163,162,255

[TimingPoints]
615,367.602009557652,4,1,0,59

[HitObjects]
344,280,18626,5,0
256,280,18994,1,0
168,280,19361,1,0
168,192,19729,1,0
168,104,20097,1,0
256,104,20464,1,0
344,104,20832,1,0
344,192,21199,1,0
432,192,21567,6,0,L|432:288,4,80
344,192,22670,2,0,L|344:112,4,80
248,192,23773,2,0,L|248:272,4,80
184,120,24875,6,0,L|184:312,3,160
88,280,26346,1,0
88,368,26713,2,0,L|272:368,3,160
344,368,28184,1,0
344,272,28551,1,0
344,176,28919,1,0
248,176,29287,2,0,L|248:344,2,160
168,104,30389,5,0
256,104,30757,1,0
344,104,31125,1,0
344,192,31492,1,0
344,280,31860,1,0
256,280,32227,1,0
168,280,32595,1,0
168,192,32963,1,0
80,192,33330,6,0,L|80:96,4,80
168,192,34433,2,0,L|168:272,4,80
264,192,35536,2,0,L|264:112,4,80
328,264,36639,6,0,L|328:72,3,160
424,104,38109,1,0
424,16,38477,2,0,L|240:16,3,160
216,24,39763,1,0
216,72,39947,1,0
216,120,40131,1,0
168,208,40682,5,2
264,208,41050,2,2,L|264:40,2,160
360,208,42153,5,2
448,208,42520,1,0
408,288,42888,1,0
312,288,43255,1,0
216,288,43623,5,2
240,248,43807,1,2
192,248,43991,1,2
96,248,44358,5,0
96,152,44726,1,0
96,56,45093,1,0
176,104,45461,1,0
176,192,45829,1,0
256,144,46196,1,0
256,232,46564,5,2
256,232,46748,1,2
256,232,46931,1,2
256,320,47299,5,2
344,304,47667,1,0
392,224,48034,1,0
392,128,48402,1,0
392,32,48769,1,0
304,48,49137,5,2
304,96,49321,1,2
304,144,49505,1,2
304,232,49872,5,0
304,320,50240,1,0
208,320,50607,5,2
152,240,50975,1,2
152,144,51343,1,2
192,64,51710,1,2
280,32,52078,1,2
320,112,52445,1,2
248,176,52813,6,2,L|248:344,2,160
152,176,53916,5,0
64,176,54283,1,0
104,96,54651,1,0
200,96,55019,1,0
296,96,55386,5,2
272,136,55570,1,2
320,136,55754,1,2
416,136,56122,5,0
416,232,56489,1,0
416,328,56857,1,0
336,280,57224,1,0
336,192,57592,1,0
256,240,57960,1,0
256,144,58327,5,2
256,144,58511,1,2
256,144,58695,1,2
256,48,59062,5,2
176,88,59430,1,0
120,160,59798,1,0
120,256,60165,1,0
120,344,60533,1,0
208,336,60900,5,2
208,288,61084,1,2
208,240,61268,1,2
208,152,61636,5,0
208,64,62003,1,0
296,64,62371,1,4
256,192,74318,12,2,76340
88,80,77075,6,2,L|88:160|176:160,1,160
256,160,77810,2,2,L|256:80|344:80,1,160
424,88,78545,2,2,L|424:168|336:168,1,160
424,216,79280,6,2,L|424:296|336:296,1,160
256,296,80016,2,2,L|256:216|168:216,1,160
88,224,80751,2,2,L|88:304|176:304,1,160
216,352,81486,6,0,L|216:32,2,320
304,352,83324,1,0
304,256,83692,1,0
304,160,84059,1,0
224,208,84427,1,0
224,296,84794,1,0
136,256,85162,5,2
88,256,85346,1,2
40,256,85530,1,2
72,112,86081,5,0
72,112,86265,1,0
176,112,86632,1,0
272,112,87000,1,0
224,192,87368,1,0
224,280,87735,1,0
272,200,88103,1,0
176,200,88470,1,0
224,120,88838,1,0
296,64,89206,6,0,L|456:64,1,160
456,152,89941,2,0,L|296:152,1,160
296,240,90676,2,0,L|464:240,1,160
448,328,91411,2,0,L|280:328,1,160
192,328,92146,5,0
112,272,92514,1,0
56,200,92882,1,0
144,200,93249,1,0
232,200,93617,1,0
320,200,93985,1,0
264,272,94352,1,0
192,328,94720,2,0,L|192:144,1,160
296,72,95639,5,0
296,168,96006,1,0
296,304,96558,1,0
200,304,96925,5,0
200,208,97293,1,0
192,112,97661,6,0,L|352:112,1,160
368,200,98396,2,0,L|192:200,1,160
112,200,99131,1,0
112,104,99499,5,2
112,104,99682,1,2
112,104,99866,1,2
208,192,100234,5,0
288,288,100601,6,0,L|128:288,1,160
112,200,101337,2,0,L|288:200,1,160
368,200,102072,1,0
368,296,102439,5,2
368,296,102623,1,2
368,296,102807,1,2
272,296,103175,5,0
272,200,103542,5,0
272,104,103910,1,0
176,104,104277,1,0
176,200,104645,1,0
224,272,105013,1,2
224,272,105196,1,2
224,272,105380,1,2
312,272,105748,5,0
400,272,106115,1,0
400,176,106483,6,2,L|400:16,1,160
272,16,107218,6,4,L|272:176,1,160
144,176,107953,6,2,L|144:16,1,160
48,96,108689,5,0
48,224,109056,1,0
152,288,109424,6,0,L|312:288,1,160
312,208,110159,2,0,L|136:208,1,160
56,208,110894,1,0
56,304,111262,5,2
56,304,111446,1,2
56,304,111629,1,2
152,216,111997,5,0
216,112,112365,6,0,L|56:112,1,160
56,208,113100,2,0,L|232:208,1,160
312,208,113835,1,0
312,112,114203,5,2
312,112,114386,1,2
312,112,114570,1,2
216,112,114938,5,0
216,208,115305,1,0
216,304,115673,1,0
120,304,116041,1,0
120,208,116408,1,0
168,136,116776,5,2
168,136,116960,1,2
168,136,117143,1,2
256,136,117511,5,0
344,136,117879,1,0
432,136,118246,2,2,L|432:224,1,80
344,216,118798,5,0
344,312,119165,1,0
248,312,119533,1,0
152,312,119900,1,0
56,312,120268,1,0
56,224,120636,1,0
152,224,121003,1,0
248,224,121371,1,0
248,136,121738,1,0
152,136,122106,1,0
56,136,122474,1,0
112,64,122841,1,0
200,64,123209,1,0
288,64,123576,5,0
288,112,123760,1,4
288,160,123944,1,4
256,56,130745,5,0
136,192,131480,1,0
256,328,132215,1,0
376,192,132950,1,0
256,56,133686,1,2
256,144,134053,1,2
256,232,134421,1,2
256,48,135156,5,4
72,56,135891,6,0,L|72:216,1,160
160,216,136626,2,0,L|160:48,1,160
248,56,137362,2,0,L|248:224,1,160
344,216,138097,2,0,L|344:-8,1,160
432,56,138832,1,0
432,192,139383,1,0
432,192,139567,1,0
248,192,140302,5,4
248,328,140854,1,4
248,328,141038,1,4
152,328,141405,2,0,L|360:40,1,320
392,192,142508,5,0
256,312,143243,1,0
120,192,143978,1,0
256,72,144714,1,0
392,192,145449,1,2
304,192,145816,1,2
216,192,146184,1,2
400,192,146919,5,4
392,376,147654,6,0,L|232:376,1,160
232,288,148390,2,0,L|400:288,1,160
392,200,149125,2,0,L|224:200,1,160
232,104,149860,2,0,L|456:104,1,160
392,16,150595,1,0
256,16,151147,1,0
256,16,151330,1,0
256,200,152066,5,4
120,200,152617,1,2
120,200,152801,1,2
120,288,153168,5,4
168,288,153352,1,4
216,288,153536,1,4
352,288,154087,5,0
440,288,154455,1,0
440,192,154823,1,0
344,192,155190,1,0
248,192,155558,1,0
152,192,155925,1,0
56,192,156293,1,0
56,280,156661,5,0
144,280,157028,1,0
232,280,157396,1,0
320,280,157763,1,0
408,280,158131,1,0
408,184,158499,1,0
408,88,158866,1,0
312,88,159234,1,0
312,136,159418,5,0
256,56,159785,1,0
192,128,160153,1,0
120,192,160520,1,0
120,280,160888,1,0
208,280,161256,1,0
296,280,161623,1,0
384,280,161991,1,0
384,184,162358,1,0
320,128,162726,1,0
256,56,163094,1,0
256,144,163461,1,0
256,232,163829,1,0
160,232,164196,5,2
160,184,164380,1,2
160,136,164564,1,2
64,136,164932,5,4
64,184,165115,1,4
64,232,165299,1,4
256,56,176327,6,0,L|256:216,1,160
184,272,177063,6,0,L|120:248|184:232|120:208|184:200|120:184|184:176|120:160|184:152|120:144|184:128,1,640
256,136,178901,1,0
256,184,179084,1,2
256,232,179268,1,2
256,320,179636,1,0
328,272,180003,6,0,L|392:248|328:232|392:208|328:200|392:184|328:176|392:160|328:152|392:144|328:128,1,640
256,136,181841,1,0
256,184,182025,1,2
256,232,182209,1,2
256,320,182577,1,0
160,320,182944,5,0
112,320,183128,1,0
112,272,183312,1,0
64,272,183496,1,0
64,224,183679,1,0
64,128,184047,5,0
152,128,184415,1,0
232,128,184782,1,0
320,128,185150,5,0
368,128,185334,1,0
368,176,185517,1,0
416,176,185701,1,0
416,224,185885,1,0
416,320,186253,5,0
328,320,186620,1,0
248,320,186988,1,0
152,320,187355,2,0,L|152:144,1,160
256,192,188091,12,0,190296
296,32,191399,1,0
368,96,191767,1,0
296,160,192134,1,0
248,160,192318,1,0
200,160,192502,1,0
136,96,192869,1,0
200,32,193237,1,0
256,112,193605,5,0
256,160,193788,1,0
256,208,193972,1,0
216,288,194340,5,0
144,224,194707,1,0
216,160,195075,1,0
264,160,195259,1,0
312,160,195443,1,0
376,224,195810,1,0
312,288,196178,1,0
256,208,196545,5,0
256,160,196729,1,0
256,112,196913,1,0
200,40,197281,2,0,L|200:248,1,160
336,192,198200,5,0
336,104,198567,1,0
240,104,198935,1,0
144,104,199302,1,0
144,192,199670,1,0
144,280,200038,1,0
240,280,200405,1,0
328,280,200773,1,0
328,184,201140,1,0
328,88,201508,1,0
232,88,201876,1,0
136,88,202243,1,0
136,176,202611,1,0
224,176,202979,5,4
272,176,203162,1,4
248,216,203346,1,4
256,192,203714,12,0,209411
