osu file format v5

[General]
AudioFilename: fe7f5d7e4aef93f9205dfd90ef367c84.mp3
AudioLeadIn: 0
PreviewTime: 41006
Countdown: 1
SampleSet: Normal
StackLeniency: 0.7
Mode: 0
EditorBookmarks: 18214,40822,73630,96514,130106,153492,175640

[Metadata]
Title:K2G
Artist:Puffy Ami Yumi
Creator:P-Drogan
Version:Insane

[Difficulty]
HPDrainRate:6
CircleSize:6
OverallDifficulty:8
SliderMultiplier:1.6
SliderTickRate:2

[Events]
//Background and Video events
0,0,"puffy ami yumi.png"
//Break Periods
2,62895,73073
2,124284,129651
2,165455,174843
//Storyboard Layer 0 (Background)
//Storyboard Layer 1 (Failing)
//Storyboard Layer 2 (Passing)
//Storyboard Layer 3 (Foreground)
//Storyboard Sound Samples
//Background Colour Transformations
3,100,163,162,255

[TimingPoints]
615,367.602009557652,4,1,0,60

[HitObjects]
256,288,18442,1,0
192,288,18626,1,0
192,224,18810,1,0
256,224,18994,1,0
320,224,19178,1,0
320,160,19361,1,0
256,160,19545,1,0
192,160,19729,1,0
192,96,19913,1,0
256,96,20097,1,0
376,136,20464,1,0
376,264,20832,1,0
256,288,21383,5,0
320,288,21567,1,0
320,224,21751,1,0
256,224,21935,1,0
192,224,22118,1,0
192,160,22302,1,0
256,160,22486,1,0
320,160,22670,1,0
320,96,22854,1,0
256,96,23037,1,0
136,136,23405,1,0
136,264,23773,1,0
136,264,23956,1,0
320,264,24324,6,0,L|320:184,1,80
320,136,24692,2,0,L|320:48,1,80
272,56,25059,2,0,L|272:160,1,80
272,184,25427,2,0,L|272:272,1,80
224,264,25794,2,0,L|224:184,1,80
224,136,26162,2,0,L|224:48,1,80
128,56,26713,6,0,L|128:144,1,80
128,184,27081,2,0,L|128:296,1,80
224,264,27632,1,0
320,264,28000,1,0
272,184,28368,1,0
240,144,28551,6,0,L|328:144,1,80
368,144,28919,2,0,L|480:144,1,80
448,192,29287,6,0,L|360:192,1,80
328,216,29654,2,0,L|328:328,1,80
384,296,30022,1,0
448,288,30206,6,0,L|448:104,1,160
384,128,30757,1,0
320,128,30941,2,0,L|320:296,1,160
256,288,31492,1,0
192,288,31676,2,0,L|192:104,1,160
192,64,32227,1,0
80,112,32595,5,2
80,176,32779,1,2
80,240,32963,1,2
120,288,33146,6,0,L|120:104,1,160
184,128,33698,1,0
248,128,33882,2,0,L|248:296,1,160
312,288,34433,1,0
376,288,34617,2,0,L|376:104,1,160
376,64,35168,1,0
488,112,35536,5,2
488,176,35720,1,2
488,240,35903,1,2
488,296,36087,6,0,L|248:296,1,240
184,296,36822,1,0
120,296,37006,1,0
56,296,37190,1,0
56,232,37374,1,0
56,168,37558,1,0
56,104,37741,1,0
120,104,37925,1,0
184,104,38109,1,0
312,104,38477,1,0
248,216,38844,2,0,L|248:32,2,160
248,280,39763,5,0
248,280,39947,1,0
248,280,40131,1,0
160,120,40682,1,4
256,56,41050,5,0
256,184,41417,1,0
256,312,41785,5,0
304,272,41969,1,0
288,216,42153,1,0
224,216,42336,1,0
208,272,42520,1,0
80,272,42888,1,0
80,144,43255,1,0
208,144,43623,5,2
272,144,43807,1,2
336,144,43991,1,2
464,144,44358,5,0
464,272,44726,1,0
432,224,44910,1,0
392,272,45093,1,0
352,224,45277,1,0
312,272,45461,1,0
184,272,45829,1,0
56,272,46196,1,0
64,144,46564,5,2
128,144,46748,1,2
192,144,46931,1,2
320,144,47299,5,0
392,248,47667,1,0
328,248,47850,1,0
304,304,48034,1,0
360,336,48218,1,0
416,304,48402,1,0
416,176,48769,1,0
416,48,49137,1,0
288,48,49505,1,0
288,176,49872,5,0
288,240,50056,1,0
288,304,50240,1,0
232,272,50424,1,0
232,200,50607,1,0
136,200,50975,5,0
136,200,51159,1,0
136,200,51343,1,0
136,104,51710,5,2
136,104,51894,1,2
136,104,52078,1,2
224,64,52445,5,4
224,64,52537,1,4
224,64,52629,1,4
224,64,52721,1,4
224,64,52813,1,4
336,56,53181,5,0
464,48,53548,6,0,L|464:144,4,80
408,160,54651,2,0,L|248:160,1,160
120,168,55386,5,2
120,232,55570,1,2
120,296,55754,1,2
248,296,56122,5,0
248,168,56489,2,0,L|352:168,4,80
184,272,57592,2,0,L|184:88,1,160
304,72,58327,5,2
304,136,58511,1,2
304,200,58695,1,2
304,328,59062,5,0
176,328,59430,2,0,L|176:224,4,80
176,200,60533,2,0,L|360:200,1,160
456,200,61268,2,0,L|456:40,1,160
328,40,62003,2,4,L|224:40,2,80
256,104,62738,1,0
256,192,74318,12,0,76341
144,192,76707,5,0
256,344,77259,2,0,L|344:288,1,80
256,296,77626,2,0,L|344:240,1,80
256,248,77994,2,0,L|344:192,1,80
256,200,78361,2,0,L|344:144,1,80
256,152,78729,2,0,L|344:96,1,80
400,80,79280,2,0,L|400:264,1,160
400,296,79832,1,0
256,360,80199,5,0
208,320,80383,1,0
256,280,80567,1,0
208,240,80751,1,0
256,208,80935,1,0
208,168,81118,1,0
256,128,81302,1,0
208,96,81486,1,0
256,56,81670,1,0
208,24,81854,1,0
112,80,82221,2,0,L|112:264,1,160
240,240,82956,2,0,L|424:240,3,160
408,112,84427,1,0
280,112,84794,1,0
152,112,85162,5,4
152,176,85346,1,4
152,240,85530,1,4
352,328,86081,5,0
368,264,86265,1,0
304,264,86449,1,0
336,208,86632,1,0
272,200,86816,1,0
208,200,87000,1,0
144,200,87184,1,0
80,200,87368,5,0
64,264,87551,1,0
128,264,87735,1,0
96,320,87919,1,0
160,328,88103,1,0
288,328,88470,1,0
416,328,88838,1,0
416,280,89022,6,0,L|416:176,1,80
416,152,89389,2,0,L|416:72,1,80
416,24,89757,2,0,L|336:24,1,80
336,72,90125,2,0,L|336:152,1,80
336,200,90492,2,0,L|248:200,1,80
256,152,90860,2,0,L|256:64,1,80
256,24,91227,2,0,L|168:24,1,80
176,72,91595,2,0,L|176:184,1,80
96,72,92146,5,0
96,232,92514,5,0
96,296,92698,1,0
96,360,92882,1,0
160,360,93066,1,0
224,360,93249,1,0
288,360,93433,1,0
352,360,93617,1,0
352,296,93801,1,0
352,232,93985,1,0
232,232,94352,6,0,L|232:64,2,160
408,232,95639,1,0
448,296,95823,1,0
488,232,96006,1,0
488,104,96374,2,0,L|216:104,1,240
184,104,97109,1,0
120,104,97293,1,0
152,232,97661,5,0
152,296,97844,1,0
152,360,98028,1,0
208,328,98212,1,0
208,264,98396,1,0
328,296,98763,1,0
328,296,99131,1,0
328,168,99499,5,2
264,168,99682,1,2
200,168,99866,1,2
72,168,100234,5,0
184,232,100601,1,0
248,232,100785,1,0
312,232,100969,1,0
280,288,101153,1,0
216,288,101337,1,0
88,288,101704,2,0,L|88:120,1,160
216,128,102439,5,2
280,128,102623,1,2
344,128,102807,1,2
456,192,103175,5,0
392,296,103542,5,0
328,296,103726,1,0
264,296,103910,1,0
200,296,104094,1,0
136,296,104277,1,0
136,168,104645,2,0,L|320:168,1,160
408,168,105380,1,0
408,40,105748,6,0,L|320:40,4,80
256,40,106851,5,2
192,40,107034,1,2
128,40,107218,1,2
128,168,107586,5,2
128,232,107770,1,2
128,296,107953,1,2
200,232,108321,5,4
200,232,108413,1,4
200,232,108505,1,4
200,232,108597,1,4
200,232,108689,1,4
328,232,109056,5,0
400,296,109424,2,0,L|296:296,1,80
256,296,109791,1,0
192,296,109975,2,0,L|104:296,1,80
112,168,110527,2,0,L|272:168,1,160
400,168,111262,5,2
400,168,111446,1,2
400,168,111629,1,2
320,80,111997,6,0,L|152:80,1,160
96,80,112548,1,0
96,144,112732,1,0
96,208,112916,1,0
96,272,113100,1,0
224,272,113467,2,0,L|224:80,1,160
352,112,114203,6,2,L|352:192,2,80
288,192,114938,5,0
288,320,115305,1,0
224,320,115489,1,0
224,256,115673,1,0
224,192,115857,1,0
160,192,116041,1,0
160,320,116408,1,0
56,256,116776,1,0
160,184,117143,1,0
160,88,117511,2,0,L|344:88,1,160
448,112,118246,6,0,L|448:200,3,80
448,320,119165,1,0
384,320,119349,1,0
320,320,119533,1,0
192,320,119900,1,0
128,320,120084,1,0
64,320,120268,1,0
64,192,120636,1,0
128,192,120819,1,0
192,192,121003,1,0
320,192,121371,1,0
384,192,121555,1,0
448,192,121738,1,0
448,64,122106,1,0
384,64,122290,1,0
320,64,122474,1,0
192,64,122841,1,0
128,64,123025,1,0
64,64,123209,1,0
160,144,123576,5,2
224,144,123760,1,4
288,144,123944,1,4
352,144,124128,1,4
400,336,130377,5,0
400,208,130745,1,0
480,112,131112,1,0
432,72,131296,1,0
368,72,131480,1,0
328,120,131664,1,0
144,80,132215,5,0
144,208,132583,1,0
64,304,132950,1,0
112,344,133134,1,0
176,344,133318,1,0
216,296,133502,1,0
344,304,133869,6,0,L|344:136,2,160
472,304,134972,5,0
424,264,135156,1,0
472,216,135340,1,0
424,176,135524,1,0
464,128,135707,1,0
400,128,135891,6,0,L|232:128,2,160
376,256,136994,5,0
312,256,137178,1,0
248,256,137362,1,0
192,128,137729,6,0,L|88:128|88:344|248:344,3,480
312,344,141221,1,0
376,344,141405,1,0
440,344,141589,1,0
504,344,141773,1,0
392,288,142140,5,0
392,160,142508,1,0
312,80,142876,1,0
272,128,143059,1,0
272,192,143243,1,0
320,232,143427,1,0
144,288,143978,5,0
144,160,144346,1,0
216,240,144714,1,0
256,192,144897,1,0
256,128,145081,1,0
208,88,145265,1,0
336,256,145633,6,0,L|336:88,2,160
256,352,146735,5,0
216,304,146919,1,0
168,352,147103,1,0
128,304,147287,1,0
88,352,147471,1,0
88,288,147654,6,0,L|88:120,2,160
184,208,148757,5,0
248,208,148941,1,0
312,208,149125,1,0
352,88,149492,6,0,L|248:88|248:304|408:304,3,480
408,240,152985,1,0
408,176,153168,1,0
408,112,153352,1,0
408,48,153536,1,0
344,48,153720,5,0
216,56,154087,1,0
152,56,154271,1,0
88,56,154455,1,0
192,136,154823,1,0
248,168,155006,1,0
296,208,155190,1,0
296,80,155558,1,0
352,112,155742,1,0
408,144,155925,1,0
408,272,156293,1,0
408,336,156477,5,0
344,336,156661,1,0
280,336,156844,1,0
280,272,157028,1,0
280,208,157212,1,0
160,208,157580,1,2
160,272,157763,1,2
160,336,157947,1,2
32,336,158315,1,4
32,272,158499,1,4
32,208,158682,1,4
32,88,159050,1,0
120,72,159418,5,0
176,72,159601,1,0
232,72,159785,1,0
232,136,159969,1,0
232,200,160153,1,0
352,200,160520,1,2
352,136,160704,1,2
352,72,160888,1,2
480,72,161256,1,4
480,136,161439,1,4
480,200,161623,1,4
480,320,161991,1,0
376,336,162358,6,0,L|200:336,1,160
160,336,162910,1,0
152,272,163094,2,0,L|152:96,1,160
216,112,163645,1,0
216,176,163829,2,0,L|408:176,1,160
440,176,164380,1,0
440,240,164564,2,0,L|256:240,2,160
256,192,176327,12,0,178533
256,192,178901,1,2
256,192,179084,1,2
256,192,179268,1,2
256,80,179636,5,0
256,208,180003,1,0
304,256,180187,1,0
288,312,180371,1,0
224,312,180555,1,0
208,256,180739,1,0
256,136,181106,1,0
384,136,181474,1,0
384,264,181841,5,2
416,320,182025,1,2
352,320,182209,1,2
288,248,182577,6,2,L|288:24,1,160
224,72,183128,1,0
224,136,183312,1,0
224,200,183496,1,0
224,264,183679,1,0
160,88,184047,2,0,L|160:264,1,160
56,320,184782,5,2
120,320,184966,1,2
184,320,185150,5,0
248,320,185334,1,0
312,320,185517,1,0
376,320,185701,1,0
440,320,185885,1,0
376,216,186253,5,0
312,216,186436,1,0
248,216,186620,1,0
120,216,186988,5,2
152,160,187172,1,2
184,112,187355,1,2
304,112,187723,5,4
304,112,187815,1,4
304,112,187907,1,4
304,112,187999,1,4
304,112,188091,1,4
256,192,188458,12,0,190296
256,192,190664,1,2
256,192,190848,1,2
256,192,191031,1,2
384,192,191399,5,0
344,144,191583,1,0
304,96,191767,1,0
256,56,191950,1,0
208,96,192134,1,0
168,144,192318,1,0
128,192,192502,1,0
256,192,192869,1,0
256,312,193237,1,0
384,216,193605,5,4
440,184,193788,1,4
384,152,193972,1,4
384,40,194340,5,0
256,64,194707,1,0
200,104,194891,1,0
256,128,195075,1,0
200,160,195259,1,0
256,192,195443,1,0
256,320,195810,1,0
128,320,196178,1,0
192,216,196454,5,2
192,216,196545,1,2
192,88,196913,5,0
256,88,197097,1,0
320,88,197281,1,0
288,144,197464,1,0
224,144,197648,1,0
256,200,197832,5,0
256,328,198200,1,0
320,328,198383,1,0
384,328,198567,1,0
384,200,198935,1,0
384,136,199119,1,0
384,72,199302,1,0
256,72,199670,1,0
256,136,199854,1,0
256,200,200038,5,2
256,200,200221,1,2
256,200,200405,1,2
256,328,200773,5,0
192,328,200957,1,0
128,328,201140,1,0
128,200,201508,1,0
128,136,201692,1,0
128,72,201876,1,0
256,72,202243,1,0
320,72,202427,1,0
384,72,202611,1,0
296,160,202979,5,0
256,208,203162,5,4
256,208,203254,1,4
256,208,203346,1,4
256,192,203714,12,4,209411
