osu file format v5

[General]
AudioFilename: fe7f5d7e4aef93f9205dfd90ef367c84.mp3
AudioLeadIn: 0
PreviewTime: 41006
Countdown: 1
SampleSet: Normal
StackLeniency: 0.7
Mode: 0
EditorBookmarks: 18214,40822,73630,96514

[Metadata]
Title:K2G
Artist:Puffy Ami Yumi
Creator:P-Drogan
Version:Easy

[Difficulty]
HPDrainRate:2
CircleSize:2
OverallDifficulty:3
SliderMultiplier:1.3
SliderTickRate:2

[Events]
//Background and Video events
0,0,"puffy ami yumi.png"
//Break Periods
2,63297,72688
2,124284,129261
2,165877,174900
//Storyboard Layer 0 (Background)
//Storyboard Layer 1 (Failing)
//Storyboard Layer 2 (Passing)
//Storyboard Layer 3 (Foreground)
//Storyboard Sound Samples
//Background Colour Transformations
3,100,0,0,0

[TimingPoints]
615,367.602009557652,4,1,0,49

[HitObjects]
256,88,18628,1,0
64,88,19363,1,0
64,280,20098,1,0
256,280,20833,1,0
256,88,21569,5,0
448,88,22304,1,0
448,280,23039,1,0
256,280,23774,1,0
160,184,24509,5,0
256,184,24877,1,0
352,184,25245,1,0
352,88,25612,1,0
256,88,25980,1,0
160,88,26347,1,0
160,184,26715,1,0
256,184,27083,2,2,L|129:295|272:360,1,325
352,184,28553,1,2
160,192,29288,1,2
352,192,30023,6,0,L|352:32,1,130
256,40,30759,2,0,L|256:200,1,130
160,192,31494,2,0,L|160:32,1,130
64,40,32229,2,0,L|64:200,1,130
160,192,32964,6,0,L|160:352,1,130
256,344,33699,2,0,L|256:184,1,130
352,192,34435,2,0,L|352:352,1,130
448,344,35170,2,0,L|448:184,1,130
416,88,35905,5,0
320,88,36273,1,0
224,88,36640,1,0
128,88,37008,1,0
176,168,37376,1,0
272,168,37743,1,0
368,168,38111,1,0
320,248,38478,1,0
224,256,38846,2,0,L|224:336|296:336,1,130
400,336,39581,2,0,L|400:256|320:256,3,130
256,328,41052,5,0
256,232,41419,1,0
256,136,41787,1,0
64,136,42522,1,0
64,328,43257,1,0
256,328,43992,1,0
256,136,44728,1,0
88,232,45463,1,0
232,320,46198,5,0
328,320,46566,1,0
280,232,46933,1,0
232,144,47301,1,0
328,144,47668,1,0
144,80,48404,6,0,L|144:240,1,130
152,336,49139,2,0,L|312:336,1,130
312,240,49874,2,0,L|312:80,1,130
216,80,50609,2,0,L|64:80,1,130
64,176,51344,1,0
160,176,51712,1,0
256,176,52080,1,0
256,56,52815,5,0
256,152,53182,1,0
256,248,53550,1,0
448,248,54285,1,0
448,56,55020,1,0
256,56,55756,1,0
256,248,56491,1,0
424,152,57226,1,0
280,64,57961,5,0
184,64,58329,1,0
232,152,58696,1,0
280,240,59064,1,0
184,240,59432,1,0
368,304,60167,6,0,L|368:144,1,130
360,48,60902,2,0,L|200:48,1,130
104,48,61637,2,0,L|64:96|152:120|64:160|152:192|64:240|144:280,1,520
256,192,74136,12,0,76342
448,192,77444,1,0
256,192,78179,1,0
64,192,78915,2,0,L|64:32,2,130
256,192,80385,5,0
352,192,80753,1,0
304,280,81120,1,0
208,280,81488,2,0,L|80:184,2,130
256,192,82591,1,0
352,192,82958,6,0,L|264:64|176:152,2,260
352,288,84796,1,0
256,288,85164,1,0
160,288,85531,1,0
96,208,85899,6,0,L|128:168|160:232|200:160|232:240|264:160|296:240|360:232,1,520
368,336,87737,5,0
368,144,88472,1,0
176,144,89207,1,0
176,336,89943,2,0,L|408:336|408:120|184:120,1,650
32,192,92148,5,0
128,192,92516,2,0,L|288:192,1,130
384,192,93251,1,0
384,96,93619,1,0
288,96,93986,1,0
288,192,94354,1,0
200,144,94721,6,4,L|200:296,4,130
296,136,96559,1,0
392,136,96927,6,0,L|392:280,2,130
296,136,98030,1,0
216,192,98397,1,0
184,96,98765,1,0
96,136,99133,1,0
0,136,99500,1,0
168,232,100235,5,0
360,232,100971,1,0
256,64,101706,1,0
256,256,102441,5,0
256,160,102809,1,0
168,208,103176,1,0
72,208,103544,1,0
216,336,104279,1,0
360,208,105014,1,0
256,40,105749,5,0
256,136,106117,1,0
256,232,106485,1,0
256,328,106852,1,2
352,160,107587,1,2
160,160,108323,1,2
88,224,108690,6,0,L|88:64,2,130
184,224,109793,1,0
264,168,110161,1,0
296,264,110528,1,0
384,224,110896,1,0
480,224,111264,1,2
312,128,111999,5,0
120,128,112734,1,0
224,296,113469,1,0
224,104,114204,5,0
224,200,114572,1,0
312,152,114940,1,0
408,152,115307,1,0
264,24,116042,1,0
120,152,116778,1,0
224,320,117513,5,0
224,224,117880,1,0
224,128,118248,1,0
224,32,118616,1,0
448,96,119351,5,4
256,96,120086,1,4
64,96,120821,1,4
64,288,121556,1,4
256,288,122292,1,4
448,288,123027,1,4
272,192,123762,1,4
176,192,124130,1,4
64,72,130746,5,0
120,256,131482,1,0
176,72,132217,1,0
224,256,132952,1,0
280,72,133687,1,0
336,256,134422,1,0
392,72,135158,1,0
448,256,135893,1,0
400,64,136628,6,0,L|200:64,1,195
248,256,137731,2,0,L|472:256,1,195
240,160,138834,2,0,L|16:160,1,195
80,352,139936,2,0,L|304:352,1,195
128,192,141039,5,0
224,192,141407,1,0
320,192,141774,1,0
448,312,142510,5,0
392,128,143245,1,0
336,312,143980,1,0
288,128,144715,1,0
232,312,145450,1,0
176,128,146186,1,0
120,312,146921,1,0
64,128,147656,1,0
112,320,148391,6,0,L|336:320,1,195
264,128,149494,2,0,L|40:128,1,195
272,224,150597,2,0,L|496:224,1,195
432,32,151700,2,0,L|208:32,1,195
104,32,152803,2,0,L|104:312,1,260
248,320,154273,5,0
392,312,155008,1,0
312,184,155743,1,0
160,184,156479,1,0
88,56,157214,1,0
232,56,157949,1,0
240,200,158684,1,0
176,128,159052,5,2
248,64,159419,5,0
392,72,160155,1,0
312,200,160890,1,0
160,200,161625,1,0
88,328,162360,1,0
232,328,163095,1,0
232,176,163831,6,4,L|232:88|312:88|312:248|144:248|144:88,1,650
88,192,176329,5,0
128,112,176697,1,0
200,64,177064,1,0
272,112,177432,1,0
304,192,177799,1,0
240,256,178167,1,0
152,256,178535,1,0
80,88,179270,6,0,L|80:248,1,130
152,304,180005,2,0,L|152:152,1,130
224,88,180740,2,0,L|224:240,1,130
288,304,181475,2,0,L|288:144,1,130
376,144,182211,5,2
376,184,182394,1,2
376,216,182578,1,2
376,304,182946,5,0
376,120,183681,1,0
256,256,184416,1,0
256,72,185152,1,0
80,40,185887,2,0,L|24:88|120:104|24:144|120:168|24:192|120:208|24:232|120:288,1,780
200,336,188460,5,0
288,336,188828,1,0
376,336,189195,1,0
464,336,189563,1,0
464,248,189930,1,0
464,160,190298,1,0
464,72,190666,1,0
360,72,191033,6,0,L|360:224,1,130
288,304,191768,2,0,L|288:152,1,130
216,88,192504,2,0,L|216:248,1,130
151,303,193239,2,0,L|151:143,1,130
63,143,193974,5,2
63,183,194158,1,2
63,215,194342,1,2
63,303,194709,5,0
63,119,195444,1,0
183,255,196180,1,0
183,71,196915,1,0
359,39,197650,6,0,L|415:87|319:103|415:143|319:167|415:191|319:207|415:231|324:261|415:295|352:320,1,910
264,312,200591,6,0,L|128:272|224:256|128:216|224:192|128:168|224:152|128:128|219:98|128:64,1,910
256,192,203532,12,0,209413
