osu file format v5

[General]
AudioFilename: 06 - She Hates Me.mp3
AudioLeadIn: 0
PreviewTime: -1
Countdown: 1
SampleSet: Normal
StackLeniency: 0.7
Mode: 0
EditorBookmarks: 25551,61753,79128,112793,131288,147592

[Metadata]
Title:She Hates Me
Artist:Puddle of Mudd
Creator:Hitoshirenu Shourai
Version:TiZ Hates You
Source:
Tags:

[Difficulty]
HPDrainRate:6
CircleSize:7
OverallDifficulty:6
SliderMultiplier:1.5
SliderTickRate:4

[Events]
//Background and Video events
0,0,"PuddleOfMudd.jpg"
1,0,"shehatesme.avi"
//Break Periods
2,115139,130602
//Storyboard Layer 0 (Background)
//Storyboard Layer 1 (Failing)
//Storyboard Layer 2 (Passing)
//Storyboard Layer 3 (Foreground)
//Storyboard Sound Samples
//Background Colour Transformations
3,100,163,162,255

[TimingPoints]
60,553.50553505535,4,1,0,50
26074,548.458715596331,4,1,0,50
61723,543.486425339367,4,1,0,70
79098,542.986425339367,4,1,0,100
113308,543.954545454544,4,1,0,100
131802,543.454545454545,4,1,0,70
148107,543.954545454544,4,1,0,100

[HitObjects]
448,320,9469,1,0
384,256,9746,1,0
320,320,10023,1,0
192,256,10576,1,0
128,320,10853,1,0
128,320,10991,1,0
128,320,11130,1,0
64,256,11406,1,0
128,192,11683,1,0
64,128,11960,2,0,B|64:48|176:48,1,150
256,48,12790,1,0
336,48,13067,1,0
336,48,13205,1,0
336,48,13344,1,4
448,192,13897,5,0
384,256,14174,1,0
352,224,14312,1,0
320,192,14451,2,0,B|224:192,3,75
245,192,15419,1,0
245,192,15558,1,0
176,256,15834,1,0
112,192,16111,1,0
144,160,16250,1,0
176,128,16388,1,0
208,160,16526,1,0
240,192,16665,2,0,B|288:257|321:129|368:192,1,150
400,192,17357,1,0
448,192,17495,1,0
448,192,17634,1,0
448,192,17772,1,4
432,320,18325,6,0,B|320:320,1,75
272,320,18879,1,0
232,320,19017,1,0
192,320,19155,2,0,B|192:240|304:208,1,150
256,176,19847,1,0
224,144,19986,1,0
160,208,20262,1,0
160,208,20401,1,0
160,208,20539,1,0
224,272,20816,2,0,B|64:272,1,150
64,232,21508,1,0
64,192,21646,1,0
64,192,21785,1,0
64,192,21923,1,0
96,160,22061,1,0
128,128,22200,1,4
240,64,22753,5,0
200,64,22892,1,0
160,64,23030,1,0
80,64,23307,2,0,B|80:176,3,75
88,184,24275,1,0
96,224,24414,1,0
176,224,24690,1,0
176,224,24829,1,0
176,224,24967,1,0
216,224,25106,1,0
256,224,25244,2,0,B|320:160|192:128|288:64,2,150
256,264,26485,1,0
256,304,26622,1,6
64,320,27170,5,0
96,288,27308,1,0
128,256,27445,1,0
192,320,27719,1,0
224,288,27856,1,0
256,256,27993,1,0
320,320,28267,1,0
352,288,28404,1,0
384,256,28542,1,0
320,192,28816,1,2
288,160,28953,1,0
256,128,29090,1,2
192,192,29364,1,2
224,224,29501,1,0
256,256,29638,2,2,B|256:96,1,150
256,136,30324,1,0
256,176,30461,1,0
256,216,30598,1,0
256,256,30735,1,4
256,256,30873,1,4
256,256,31010,1,4
256,320,31284,5,0
320,256,31558,1,0
288,224,31695,1,0
256,192,31832,2,2,B|168:130|176:272,1,150
176,256,32518,1,0
176,256,32655,1,0
112,192,32929,1,0
144,160,33066,1,0
176,128,33203,2,2,B|288:128,2,75
136,128,33889,1,0
96,128,34026,2,2,B|96:288|240:288,1,225
248,288,34986,1,0
288,288,35123,1,4
288,288,35260,1,4
288,288,35397,1,4
448,320,35946,5,0
416,288,36083,1,0
384,256,36220,1,0
448,192,36494,1,0
416,160,36631,1,0
384,128,36768,1,0
448,64,37043,1,2
448,64,37180,1,2
448,64,37317,1,2
368,64,37591,2,0,B|288:64|288:176,1,150
288,208,38277,1,0
272,240,38414,2,2,B|176:248|176:48,1,225
176,64,39374,1,0
176,64,39511,1,0
144,96,39648,1,0
112,128,39785,1,4
128,256,40333,5,0
160,224,40471,1,0
192,192,40608,1,0
256,256,40882,1,0
288,224,41019,1,0
320,192,41156,1,0
384,256,41430,1,0
384,256,41567,1,0
384,256,41705,1,0
416,224,41842,1,0
448,192,41979,1,0
416,160,42116,1,0
384,128,42253,1,0
352,96,42390,1,0
320,64,42527,1,0
288,96,42664,1,0
256,128,42801,2,2,B|144:128|144:240,1,150
144,288,43624,5,2
144,288,43761,1,2
144,288,43898,1,2
184,288,44036,1,0
224,288,44173,2,0,B|320:288,2,75
144,288,44995,1,0
176,256,45132,1,0
208,224,45270,1,0
272,160,45544,1,0
304,192,45681,1,0
336,224,45818,1,0
272,288,46092,1,4
272,288,46229,1,4
272,288,46366,2,4,B|170:264|272:160,1,150
256,136,47052,1,0
256,96,47189,1,4
384,192,47738,5,0
448,256,48013,1,2
448,256,48150,1,2
448,256,48287,1,2
416,288,48423,1,0
384,320,48561,2,0,B|304:320,6,75
309,320,50480,1,0
280,288,50617,1,0
256,256,50754,1,0
288,224,50891,1,0
320,192,51028,1,0
320,192,51165,1,0
320,192,51303,1,0
288,160,51440,1,0
256,128,51577,1,2
224,160,51714,1,0
192,192,51851,1,2
64,320,52674,5,0
128,256,52948,1,2
192,320,53222,1,0
224,288,53359,1,0
256,256,53496,1,2
320,192,53771,1,0
288,160,53908,1,0
256,128,54045,1,2
192,192,54319,1,0
160,160,54456,1,0
128,128,54593,1,2
192,64,54868,1,2
256,128,55142,1,2
288,96,55279,1,0
320,64,55416,1,0
384,128,55690,1,2
416,160,55827,1,0
448,192,55965,1,0
384,256,56239,1,2
352,224,56376,1,0
320,192,56513,1,0
256,256,56787,1,2
192,320,57061,1,2
160,288,57199,1,0
128,256,57336,2,2,B|48:192|128:128,3,150
192,192,59255,1,0
224,160,59392,1,0
256,128,59529,1,0
288,160,59667,1,0
320,192,59804,1,0
288,224,59941,1,0
256,256,60078,1,0
224,224,60215,1,0
192,192,60352,2,6,B|352:192,1,150
342,192,61038,1,0
342,192,61175,1,0
342,192,61312,1,0
342,192,61449,1,0
342,192,61586,1,0
448,320,62266,5,0
384,256,62538,1,0
352,288,62674,1,0
320,320,62810,2,0,B|239:305|176:240,1,150
256,192,63625,1,0
288,160,63761,1,0
320,128,63896,1,0
288,96,64032,1,0
256,64,64168,2,0,B|161:4|192:144,1,150
160,160,64848,1,0
128,192,64983,2,0,B|128:304|256:288,1,150
217,290,65663,1,4
217,290,65799,1,4
208,248,65935,1,0
192,208,66070,1,4
64,272,66614,5,0
64,192,66886,1,0
64,152,67021,1,0
64,112,67157,1,0
192,128,67701,1,0
224,96,67837,1,0
256,64,67973,1,0
320,128,68244,1,0
256,192,68516,1,0
224,224,68652,1,0
192,256,68788,1,0
224,288,68924,1,0
256,320,69060,2,0,B|396:382|368:160,1,225
372,197,70011,1,4
372,197,70147,1,4
368,152,70282,1,0
368,112,70418,1,4
448,64,70962,5,0
384,128,71234,1,0
360,96,71369,1,0
336,64,71505,1,0
272,128,71777,1,0
240,96,71913,1,0
208,64,72049,1,0
144,128,72320,1,2
144,128,72456,1,2
144,128,72592,1,2
112,160,72728,1,0
80,192,72864,1,0
112,224,73000,1,0
144,256,73136,1,0
184,224,73272,1,0
224,192,73407,2,2,B|288:240|342:163|400:208,1,150
432,256,74223,1,0
400,288,74359,1,0
368,320,74494,1,4
368,320,74630,1,4
368,320,74766,1,4
304,256,75038,5,0
240,192,75310,1,0
208,224,75446,1,0
176,256,75581,1,0
112,192,75853,2,0,B|64:128|192:64,1,150
240,128,76668,1,0
272,96,76804,1,0
304,64,76940,1,0
336,96,77076,1,0
368,128,77212,1,0
336,160,77348,1,0
304,192,77484,1,0
240,256,77755,2,2,B|176:304|112:208,2,150
240,256,78978,1,6
240,256,79098,1,6
64,320,79640,5,0
96,288,79776,1,0
128,256,79912,1,0
192,320,80183,2,0,B|320:320|320:224,1,150
256,192,80998,1,2
256,192,81134,1,2
256,192,81269,1,2
224,160,81405,1,0
192,128,81541,1,0
224,96,81677,1,0
256,64,81812,1,0
296,96,81948,1,0
336,128,82084,2,2,B|336:192|464:192,1,150
400,256,82898,1,0
368,288,83034,1,0
336,320,83170,1,4
336,320,83306,1,4
336,320,83441,1,4
272,256,83713,5,0
208,192,83984,1,0
176,224,84120,1,0
144,256,84256,2,0,B|80:192|144:112,1,150
168,88,84935,1,0
208,64,85070,1,0
272,128,85342,1,2
272,128,85478,1,2
272,128,85613,1,2
336,64,85885,1,0
368,96,86021,1,0
400,128,86156,1,0
368,160,86292,1,0
336,192,86428,2,2,B|336:304|160:304,1,225
192,272,87378,1,0
224,240,87514,1,4
224,240,87650,1,4
224,240,87785,1,4
64,320,88328,5,0
128,256,88600,1,0
192,320,88871,1,0
224,288,89007,1,0
256,256,89143,1,0
288,288,89278,1,0
320,320,89414,1,2
320,320,89550,1,2
320,320,89686,1,2
384,256,89957,1,0
416,224,90093,1,0
448,192,90229,1,0
416,160,90364,1,0
384,128,90500,1,0
352,160,90636,1,0
320,192,90772,2,2,B|320:128|240:128|240:224,1,150
176,272,91586,1,0
176,272,91722,1,0
176,272,91858,1,0
144,240,91993,1,0
112,208,92129,1,4
112,64,92672,5,0
152,64,92808,1,0
192,64,92944,1,2
272,64,93215,1,0
312,64,93351,1,0
352,64,93487,1,2
432,96,93758,1,0
440,136,93894,1,0
448,176,94030,1,2
448,256,94301,1,0
416,288,94437,1,0
384,320,94573,1,2
352,288,94708,1,0
320,256,94844,1,2
288,224,94980,1,0
256,192,95116,2,2,B|167:251|272:320,1,150
192,256,95930,5,2
192,256,96066,1,2
192,256,96202,1,2
160,288,96337,1,0
128,320,96473,2,0,B|64:256|144:176,3,150
192,128,98374,1,0
192,128,98509,1,0
192,128,98645,1,0
224,160,98781,1,0
256,192,98917,1,2
288,160,99052,1,0
320,128,99188,1,2
352,160,99324,1,0
384,192,99459,1,2
448,320,100002,5,0
384,256,100274,1,2
384,256,100410,1,2
384,256,100545,1,2
352,288,100681,1,0
320,320,100817,2,0,B|240:320,6,75
245,320,102717,1,0
216,288,102853,1,0
192,256,102989,1,2
224,224,103125,1,0
256,192,103260,1,2
288,224,103396,1,0
320,256,103532,1,2
352,224,103668,1,0
384,192,103803,2,2,B|384:112|240:112,2,150
352,224,105025,1,0
320,256,105161,6,2,B|226:265|192:176,1,150
144,128,105975,1,2
112,160,106111,1,0
80,192,106247,2,2,B|80:320|176:320,1,150
176,288,106926,1,0
208,256,107061,1,2
208,256,107197,1,2
208,256,107333,2,2,B|256:192|336:272,1,150
416,256,108147,1,2
416,256,108283,1,2
416,256,108418,1,2
424,216,108555,1,0
432,176,108690,1,2
400,144,108826,1,0
368,112,108962,2,6,B|288:112|240:224,4,150
256,192,111677,12,0,114939
448,288,131802,5,0
448,208,132073,1,0
448,168,132209,1,0
448,128,132345,1,0
416,96,132481,1,0
384,64,132617,1,0
352,96,132753,1,0
320,128,132888,1,0
256,64,133160,1,2
256,64,133296,1,2
256,64,133432,1,2
192,128,133704,1,0
160,96,133839,1,0
128,64,133975,1,0
96,96,134111,1,0
64,128,134247,2,0,B|64:288,1,150
104,296,134926,1,0
144,320,135062,1,0
200,320,135334,1,0
256,320,135606,6,2,B|400:240,1,150
448,192,136421,1,0
448,192,136557,1,0
448,192,136693,2,2,B|448:64|352:64,1,150
304,80,137508,1,0
264,88,137644,1,0
224,96,137780,1,2
184,104,137915,1,0
144,112,138051,1,2
104,120,138187,1,0
64,128,138323,1,2
64,208,138595,2,2,B|144:208|160:96,1,150
224,176,139410,1,0
224,176,139546,1,0
224,176,139682,1,0
264,176,139817,1,0
304,176,139953,1,4
448,192,140497,5,0
384,256,140769,1,0
352,224,140904,1,0
320,192,141040,1,0
256,128,141312,1,0
224,160,141448,1,0
192,192,141584,1,0
112,304,142399,1,0
152,304,142535,1,0
192,304,142671,1,0
232,304,142806,1,0
272,304,142943,2,2,B|272:144,1,150
272,80,143758,1,0
272,80,143893,1,0
272,80,144029,1,0
240,112,144165,1,0
208,144,144301,1,4
144,80,144573,5,0
80,144,144844,1,0
144,208,145116,1,0
176,176,145252,1,0
208,144,145388,2,2,B|368:144,2,150
144,208,146747,1,2
176,240,146882,1,0
208,272,147018,1,2
248,240,147154,1,0
288,208,147290,2,6,B|448:208,1,150
416,288,148107,5,2
416,288,148242,1,2
416,288,148378,1,2
376,288,148514,1,0
336,288,148650,2,0,B|160:288,3,150
152,272,150418,1,0
128,240,150554,1,0
192,176,150826,1,0
224,208,150962,1,0
256,240,151098,1,2
296,216,151234,1,0
320,176,151370,1,2
328,136,151506,1,0
336,96,151642,1,2
256,96,152186,5,0
176,96,152458,1,2
176,96,152594,1,2
176,96,152730,1,2
136,104,152866,1,0
96,112,153002,2,0,B|96:192,6,75
96,187,154906,1,0
120,224,155042,1,0
144,256,155178,1,2
176,288,155314,1,0
208,320,155450,1,2
240,288,155586,1,0
272,256,155722,1,2
304,224,155858,1,0
336,192,155994,1,2
368,224,156130,1,0
400,256,156266,1,0
400,256,156402,1,0
400,256,156538,1,0
368,288,156674,1,0
336,320,156810,1,0
272,256,157082,5,2
208,320,157354,2,2,B|144:256|224:176,2,150
240,288,158578,1,0
272,256,158714,1,2
336,192,158986,1,2
336,192,159122,1,2
336,192,159258,1,2
368,160,159394,1,0
400,128,159530,2,2,B|336:64|256:128,1,150
240,152,160209,1,0
208,176,160345,1,2
208,216,160481,1,0
208,256,160617,2,2,B|112:256,4,75
248,256,161841,1,0
288,256,161977,1,2
288,216,162113,1,0
288,176,162249,2,6,B|112:176,2,150
256,192,163881,12,0,166057
448,320,166601,1,0
416,288,166737,1,0
384,256,166873,1,0
352,288,167009,1,0
320,320,167145,1,0
288,288,167281,1,0
256,256,167417,1,0
256,216,167553,1,0
256,176,167689,1,0
224,144,167825,1,0
192,112,167961,1,0
160,144,168097,1,0
128,176,168233,1,2
160,208,168369,1,0
192,240,168505,1,2
224,208,168641,1,0
256,176,168777,1,2
296,176,168913,1,0
336,176,169049,1,2
368,208,169185,1,0
400,240,169321,2,4,B|240:288,1,150
128,304,170409,5,0
128,224,170681,1,0
128,144,170953,1,0
160,112,171089,1,0
192,80,171225,1,0
232,80,171361,1,0
272,80,171497,1,0
312,80,171633,1,0
352,80,171769,1,0
384,112,171905,1,0
416,144,172040,1,0
416,184,172176,1,0
416,224,172312,1,0
384,256,172448,1,0
352,288,172584,1,2
320,256,172720,1,0
288,224,172856,1,2
256,256,172992,1,0
224,288,173128,1,2
192,256,173264,1,0
160,224,173400,1,2
160,176,173536,1,0
160,128,173672,2,4,B|336:128,1,150
432,64,174760,5,0
368,128,175032,1,0
432,192,175304,1,0
400,224,175440,1,0
368,256,175576,1,0
336,288,175712,1,0
304,320,175848,1,0
272,288,175984,1,0
240,256,176120,1,0
272,224,176256,1,0
304,192,176392,1,0
304,192,176528,1,0
304,192,176664,1,0
272,160,176800,1,0
240,128,176936,1,0
208,160,177072,1,0
176,192,177208,1,0
176,232,177344,1,0
176,272,177480,2,6,C|336:272,4,150
144,240,179792,1,0
112,208,179928,5,0
144,176,180064,1,0
176,144,180200,1,0
208,176,180336,1,0
240,208,180472,1,0
272,176,180608,1,0
304,144,180744,1,0
336,176,180880,1,0
368,208,181016,1,0
336,240,181152,1,0
304,272,181288,1,2
272,240,181424,1,0
240,208,181560,1,2
208,240,181696,1,0
176,272,181832,1,2
144,240,181968,1,0
112,208,182104,1,2
176,160,182648,5,4
256,192,182920,1,6
256,192,183056,1,6
256,192,183192,1,6
256,192,183464,12,0,186183
