osu file format v5

[General]
AudioFilename: 06 - She Hates Me.mp3
AudioLeadIn: 0
PreviewTime: -1
Countdown: 0
SampleSet: Normal
StackLeniency: 0.7
Mode: 0
EditorBookmarks: 9222,25551,61753,79128,112793,131288,147592

[Metadata]
Title:She Hates Me
Artist:Puddle of Mudd
Creator:Hitoshirenu Shourai
Version:Hito Hates You
Source:
Tags:

[Difficulty]
HPDrainRate:7
CircleSize:6
OverallDifficulty:7
SliderMultiplier:2.6
SliderTickRate:1

[Events]
//Background and Video events
0,0,"PuddleOfMudd.jpg"
1,0,"shehatesme.avi"
//Break Periods
2,44921,46289
2,114081,130902
//Storyboard Layer 0 (Background)
//Storyboard Layer 1 (Failing)
//Storyboard Layer 2 (Passing)
//Storyboard Layer 3 (Foreground)
//Storyboard Sound Samples
//Background Colour Transformations
3,100,163,162,255

[TimingPoints]
60,553.50553505535,4,1,0,50
26092,548.458715596331,4,1,0,50
61723,543.486425339367,4,1,0,70
79098,542.986425339367,4,1,0,100
113338,543.954545454544,4,1,0,100
131802,543.454545454545,4,1,0,70
148107,543.954545454544,4,1,0,100

[HitObjects]
48,48,9469,1,0
152,48,9746,1,0
256,48,10023,1,0
488,344,11130,5,0
384,344,11406,1,0
280,344,11683,1,0
176,344,11960,1,0
176,32,12790,1,0
224,48,12929,1,0
272,24,13067,1,0
320,48,13205,1,0
368,24,13344,1,0
488,192,13897,5,0
400,128,14174,1,0
312,192,14451,1,0
40,40,15281,5,0
112,112,15558,1,0
184,184,15834,1,0
320,336,16388,2,0,B|424:240,1,130
184,40,17495,1,0
184,88,17633,1,0
184,136,17772,1,0
120,216,18048,1,0
40,288,18325,5,0
104,88,18879,1,0
280,200,19432,1,0
384,200,19709,1,0
456,128,19986,1,0
352,128,20262,1,0
256,312,20816,2,0,B|81:381|48:160,1,260
280,56,22200,1,0
328,56,22338,1,0
376,56,22476,1,0
480,56,22753,5,0
376,56,23030,1,0
280,56,23307,1,0
32,352,24414,5,0
136,352,24690,2,0,B|416:352,2,260
136,352,26092,1,4
264,184,26640,1,0
400,24,27188,5,0
400,128,27463,1,0
400,232,27737,1,4
32,32,28834,5,0
136,32,29108,1,0
136,136,29382,1,0
32,136,29656,2,4,B|32:288,1,130
224,192,30479,1,0
120,192,30753,1,0
64,192,30891,1,0
88,144,31028,1,0
88,40,31302,5,0
192,40,31576,1,0
136,128,31850,2,4,B|360:296,1,260
344,176,32673,1,0
240,176,32947,1,0
344,176,33221,1,0
344,280,33496,1,0
432,232,33770,1,0
424,128,34044,2,4,B|424:40|56:48,1,390
64,48,35141,1,4
24,360,35964,5,0
104,296,36238,1,0
24,224,36512,1,0
104,152,36786,1,4
296,224,37335,5,0
296,328,37609,1,0
400,328,37883,2,4,B|480:328|480:96,1,260
475,205,38706,1,4
176,192,39529,6,0,B|248:192,2,65
32,40,40351,5,0
136,40,40626,1,0
240,40,40900,1,4
240,144,41174,1,4
472,352,41997,1,0
368,352,42271,2,4,B|104:352,2,260
264,352,43642,1,0
160,352,43916,1,0
56,352,44191,2,6,B|56:88,1,260
256,192,47207,5,0
48,192,47756,1,4
48,296,48030,1,4
152,296,48304,1,4
256,296,48578,2,6,B|408:296|312:88,1,260
112,112,49675,1,0
160,112,49812,1,0
208,112,49949,1,0
256,112,50087,1,0
304,112,50224,1,0
352,112,50361,1,0
400,112,50498,1,0
448,112,50635,1,0
448,56,50772,5,0
360,48,51046,1,0
360,152,51321,1,0
272,96,51595,2,6,B|272:272,1,130
48,344,52692,5,0
48,240,52966,1,4
48,32,53514,1,4
256,32,54063,1,4
464,32,54611,1,0
464,136,54886,1,0
464,240,55160,1,4
256,240,55708,1,0
48,248,56257,1,4
120,176,56531,1,0
192,248,56805,1,4
192,352,57079,1,0
296,352,57354,1,4
432,192,57902,1,4
272,56,58451,1,0
216,56,58588,1,0
160,56,58725,1,0
160,160,58999,1,0
56,160,59273,5,0
56,264,59547,1,4
160,264,59822,1,4
264,264,60096,1,4
368,264,60370,2,4,B|472:128,1,130
264,56,61193,5,0
264,160,61469,1,0
208,160,61604,1,0
152,160,61724,1,0
40,336,62266,5,0
144,336,62538,1,0
144,232,62809,2,6,B|416:232,1,260
408,128,63625,1,0
408,24,63896,1,0
304,24,64168,2,6,B|40:24,1,260
40,128,64983,1,4
256,192,65527,12,0,66342
256,192,66614,1,4
208,288,66886,1,4
312,288,67157,1,4
256,192,67429,12,0,67701
256,192,67701,12,0,67973
32,32,68244,5,0
32,136,68516,1,4
32,344,69060,1,4
32,240,69331,1,4
256,192,69875,12,0,70690
488,192,70962,1,0
280,192,71505,1,4
72,192,72049,1,0
144,264,72320,1,0
216,192,72592,1,4
288,264,72864,1,4
480,192,73407,2,4,B|336:192,1,130
256,192,74223,12,0,74766
256,352,75038,5,0
256,248,75310,1,0
256,144,75581,1,4
256,40,75853,1,4
256,192,76125,12,0,76397
24,248,76668,5,0
96,328,76940,1,0
168,248,77212,1,4
232,328,77484,1,4
304,248,77755,2,4,B|304:344|458:343|432:184,1,260
416,288,78571,1,4
88,40,79640,5,0
88,144,79912,1,0
88,248,80183,1,4
160,320,80455,1,0
208,320,80591,1,0
256,320,80726,1,0
360,320,80998,1,0
360,216,81269,1,4
360,112,81541,1,4
448,168,81812,1,4
344,168,82084,1,4
240,168,82355,1,0
192,152,82491,1,0
200,200,82627,1,0
240,168,82763,1,0
200,200,82898,1,0
152,184,83034,1,0
160,232,83170,1,0
112,216,83306,1,0
120,264,83441,1,0
72,248,83577,1,0
72,296,83713,5,4
72,192,83984,1,4
176,192,84256,2,4,B|344:192,1,130
306,192,84799,1,4
304,88,85070,1,4
306,192,85342,1,4
408,192,85613,1,4
408,88,85885,1,4
304,88,86156,1,4
304,192,86428,1,4
304,296,86699,1,0
304,344,86835,1,0
248,344,86971,1,0
144,344,87242,1,0
144,288,87378,1,0
144,232,87514,1,0
192,232,87650,1,0
240,232,87785,1,0
248,24,88328,5,4
248,128,88600,1,4
144,128,88871,1,4
248,128,89143,1,4
456,128,89686,1,0
456,232,89957,1,0
456,336,90229,2,6,B|456:72,2,260
352,336,91586,1,0
248,336,91858,1,4
216,296,91993,1,4
184,336,92129,1,4
80,336,92401,1,0
80,232,92672,5,0
80,128,92944,1,0
184,128,93215,1,0
184,232,93487,1,4
288,232,93758,1,0
360,160,94030,1,0
432,80,94301,1,0
360,160,94573,2,4,B|168:352,1,260
256,192,95523,12,6,95659
256,192,95659,12,6,95930
256,192,95930,12,6,96202
256,192,96202,12,6,96473
256,192,96473,12,6,97016
256,192,97288,12,6,98102
472,344,98645,1,0
368,344,98917,1,0
472,344,99188,1,0
368,344,99459,1,6
160,344,100002,1,4
104,344,100138,1,0
48,344,100274,1,4
48,288,100410,1,0
48,232,100545,1,4
48,128,100817,2,4,B|98:93|209:189|40:293,1,260
256,264,101903,1,0
256,160,102174,1,4
256,56,102446,1,4
360,56,102717,1,4
464,56,102989,5,0
400,136,103260,1,0
400,136,103532,1,4
328,216,103803,1,4
32,352,104889,5,0
136,352,105161,2,4,B|272:352,1,130
368,352,105704,2,4,B|216:352,1,130
256,248,106247,2,4,B|256:104,1,130
256,16,106790,2,0,B|256:184,1,130
112,192,107333,2,6,B|376:192,1,260
160,192,108419,1,0
264,192,108690,1,0
264,192,108962,1,4
368,192,109233,1,4
368,192,109505,1,4
160,192,110048,1,6
32,32,111405,5,0
80,32,111541,1,0
128,32,111677,1,0
80,120,111948,1,6
184,120,112220,2,6,B|184:200,2,65
256,192,112763,12,0,113881
112,192,131802,1,0
216,192,132073,1,0
320,192,132345,1,0
424,192,132617,1,0
352,272,132888,1,0
296,272,133024,1,0
240,272,133160,1,0
136,272,133432,1,4
48,336,133704,5,0
112,256,133975,1,0
176,336,134247,1,4
256,144,134791,1,0
256,352,135334,1,0
360,352,135606,5,4
152,352,136149,1,4
248,168,136693,1,4
248,168,136964,1,0
248,168,137236,1,4
440,88,137780,1,0
368,168,138051,1,4
160,168,138595,1,4
368,168,139138,1,0
416,168,139274,1,0
368,168,139410,1,0
416,168,139546,1,0
256,192,139682,12,0,140225
72,56,140497,1,4
176,56,140769,1,0
72,56,141040,1,4
176,56,141312,1,4
472,344,142399,1,0
368,344,142671,1,0
416,256,142942,1,4
192,32,143758,1,4
88,32,144029,6,0,B|160:32,2,65
32,120,144573,1,4
32,224,144844,1,0
32,328,145116,1,4
136,328,145388,1,0
240,328,145660,1,4
240,224,145931,1,0
136,224,146203,1,4
240,224,146475,1,0
344,224,146747,2,4,B|72:224,1,260
264,120,147833,5,0
264,224,148105,1,0
368,224,148378,1,0
368,120,148650,2,6,B|108:120,3,260
208,120,150554,1,0
104,120,150826,5,4
208,120,151098,1,4
312,120,151370,1,4
312,224,151642,1,4
104,264,152186,1,0
104,264,152458,1,0
208,264,152730,1,4
208,264,153002,2,4,B|472:264,1,260
256,192,154090,12,0,154634
480,32,155178,5,0
448,72,155314,1,0
416,112,155450,1,0
312,112,155722,1,0
416,112,155994,2,6,B|506:216|416:376,1,260
460,256,156810,1,0
428,355,157082,1,0
384,328,157218,1,0
344,296,157354,1,4
136,296,157898,1,0
136,88,158442,1,4
344,88,158986,5,0
344,192,159258,1,0
344,88,159530,1,4
168,192,160074,1,4
32,352,160617,1,4
136,352,160889,1,0
240,352,161161,1,4
344,352,161433,1,0
448,352,161705,1,4
240,352,162249,1,4
136,168,162793,1,4
240,168,163065,1,0
136,168,163337,1,4
32,168,163609,5,0
32,272,163881,1,4
32,272,164153,1,0
32,168,164425,1,4
136,168,164697,1,4
256,192,164969,12,4,166057
256,96,166329,1,4
256,96,166601,1,0
256,96,166737,1,0
256,96,166873,1,0
256,96,167145,1,4
256,96,167417,1,0
256,96,167553,1,0
256,96,167689,1,0
256,96,167961,1,4
256,96,168233,1,0
256,96,168369,1,0
256,96,168505,1,0
256,96,168777,1,4
256,96,169049,2,4,B|256:360,1,260
256,272,169865,1,4
488,192,170953,5,0
488,192,171089,1,0
488,192,171225,1,0
488,192,171497,1,4
384,192,171769,1,0
384,192,171905,1,0
384,192,172040,1,0
384,192,172312,1,4
280,192,172584,1,0
280,192,172720,1,0
280,192,172856,1,0
280,192,173128,1,4
280,192,173400,2,6,B|8:192,1,260
120,192,174216,1,4
40,40,175304,5,0
40,40,175440,1,0
40,40,175576,1,0
144,40,175848,1,4
144,40,175984,1,0
144,40,176120,1,0
248,40,176392,1,4
248,40,176528,1,0
248,40,176664,1,0
352,40,176936,1,4
352,40,177072,1,0
296,40,177208,1,0
192,40,177480,1,4
88,40,177752,2,4,B|272:240,1,260
160,216,178568,1,4
56,216,178840,1,4
56,320,179112,2,4,B|328:320,1,260
208,320,179928,1,0
256,320,180064,1,4
304,320,180200,1,0
280,272,180336,1,0
256,224,180472,1,4
232,272,180608,1,0
208,320,180744,1,0
256,320,180880,1,4
304,320,181016,1,0
280,272,181152,1,0
256,224,181288,1,4
232,272,181424,1,0
208,320,181560,1,0
256,320,181696,1,4
304,320,181832,1,0
280,272,181968,1,0
256,224,182104,1,4
112,72,182648,5,6
216,72,182920,1,6
320,72,183192,1,6
320,176,183464,1,6
256,192,184143,12,6,186183
256,344,187407,1,0
256,288,187543,1,0
256,232,187679,1,0
256,176,187815,1,0
256,120,187951,1,0
360,120,188223,1,0
256,120,188495,1,0
256,192,189855,5,0
256,192,189991,1,0
256,192,190127,1,0
