osu file format v5

[General]
AudioFilename: 06 - She Hates Me.mp3
AudioLeadIn: 0
PreviewTime: -1
Countdown: 0
SampleSet: Normal
StackLeniency: 0.7
Mode: 0
EditorBookmarks: 9222,25551,61753,79128,112793,131288,147592

[Metadata]
Title:She Hates Me
Artist:Puddle of Mudd
Creator:Hitoshirenu Shourai
Version:Hard: Hito
Source:
Tags:

[Difficulty]
HPDrainRate:7
CircleSize:5
OverallDifficulty:7
SliderMultiplier:1
SliderTickRate:1

[Events]
//Background and Video events
0,0,"PuddleOfMudd.jpg"
1,0,"shehatesme.avi"
//Break Periods
2,44921,46289
2,114081,130902
//Storyboard Layer 0 (Background)
//Storyboard Layer 1 (Failing)
//Storyboard Layer 2 (Passing)
//Storyboard Layer 3 (Foreground)
//Storyboard Sound Samples
//Background Colour Transformations
3,100,163,162,255

[TimingPoints]
60,553.50553505535,4,1,0,50
26074,548.458715596331,4,1,0,50
61723,543.486425339367,4,1,0,70
79098,542.986425339367,4,1,0,100
113338,543.954545454544,4,1,0,100
131802,543.454545454545,4,1,0,70
148107,543.954545454544,4,1,0,100

[HitObjects]
48,48,9469,1,0
144,48,9746,1,0
240,48,10023,1,0
472,344,11130,5,0
368,344,11406,1,0
264,344,11683,1,0
160,344,11960,1,0
464,48,13897,5,0
384,112,14174,1,0
312,184,14451,1,0
48,40,15281,5,0
120,112,15558,1,0
192,184,15834,1,0
336,320,16388,2,0,B|336:256,3,50
40,344,18325,5,0
40,144,18879,1,0
240,144,19432,1,0
336,144,19709,1,0
432,144,19986,1,0
432,240,20262,1,0
232,240,20816,2,0,B|64:240,1,150
440,56,22753,5,0
336,56,23030,1,0
232,56,23307,1,0
32,352,24414,5,0
128,352,24690,2,0,B|248:352,2,100
128,352,26074,1,4
368,32,27170,5,0
368,128,27445,1,0
464,128,27719,1,4
72,32,28816,5,0
72,128,29090,1,0
168,128,29364,1,0
120,216,29638,2,4,B|120:288,1,50
40,40,31284,5,0
40,136,31558,1,0
40,232,31832,2,0,B|40:336,1,100
136,336,32655,1,4
232,336,32929,1,0
328,336,33203,1,0
328,232,33478,1,0
424,232,33752,1,4
424,128,34026,2,6,B|424:40|320:40,1,150
326,40,35123,1,4
32,40,35946,5,0
104,104,36220,1,0
32,176,36494,1,4
104,248,36768,1,4
304,240,37317,5,0
304,336,37591,1,0
400,336,37865,2,4,B|480:336|480:272,1,100
480,184,38688,1,4
176,192,39511,6,6,B|224:192,2,25
40,40,40333,5,0
136,40,40608,1,0
232,40,40882,1,0
232,136,41156,1,6
456,336,41979,1,0
352,336,42253,2,4,B|240:336,2,100
252,336,43624,1,4
152,336,43898,1,4
48,336,44173,2,6,B|48:216,1,100
256,192,47189,5,0
56,192,47738,1,0
56,288,48012,1,0
152,288,48286,1,0
248,288,48560,2,6,B|368:288,1,100
464,48,50754,5,0
360,48,51028,1,0
360,144,51303,1,0
272,96,51577,2,6,B|272:168,1,50
48,344,52674,5,0
48,240,52948,1,4
48,40,53496,1,4
248,40,54045,1,4
448,40,54593,1,0
448,136,54868,1,4
448,232,55142,1,6
288,352,55690,1,6
288,152,56239,1,6
184,152,56513,1,6
184,248,56787,1,4
80,248,57061,1,4
80,344,57336,1,6
280,344,57884,1,6
32,32,59255,5,0
104,96,59529,1,0
176,160,59804,1,0
248,224,60078,1,0
344,224,60352,2,4,B|392:272,1,50
32,32,62266,5,0
128,32,62538,1,0
224,32,62809,2,4,B|336:32,1,100
324,32,63625,1,0
424,32,63896,1,0
424,128,64168,2,4,B|312:128,1,100
224,128,64983,1,4
256,192,65527,12,0,66342
256,192,66614,1,0
208,280,66886,1,0
304,280,67157,1,4
32,32,68244,5,0
32,128,68516,1,4
32,328,69060,1,0
32,224,69331,1,4
256,192,69875,12,0,70690
480,192,70962,1,0
280,192,71505,1,4
80,192,72049,1,0
144,264,72320,1,0
208,192,72592,1,0
280,264,72864,1,4
464,192,73407,2,4,B|392:192,1,50
256,192,74223,12,0,74766
256,352,75038,5,0
256,248,75310,1,4
256,144,75581,1,6
256,40,75853,1,4
32,240,76668,5,0
88,320,76940,1,6
144,240,77212,1,4
200,320,77484,1,6
256,240,77755,2,6,B|256:336|360:336,1,150
56,48,79640,5,0
56,144,79912,1,0
56,240,80183,1,6
440,336,81269,1,0
440,232,81541,1,0
440,128,81812,1,4
440,24,82084,1,6
32,192,83713,5,0
128,192,83984,1,0
224,192,84256,2,4,B|336:192,1,100
224,192,85070,1,0
320,192,85342,1,0
416,192,85613,1,0
320,192,85885,1,4
368,104,86156,1,4
416,192,86428,1,4
256,352,88328,5,0
256,248,88600,1,0
208,160,88871,1,4
304,160,89143,1,4
104,160,89686,1,0
208,160,89957,1,0
304,160,90229,2,4,B|200:160,2,100
304,160,91586,1,4
32,32,92672,5,0
96,104,92944,1,0
160,176,93215,1,4
224,256,93487,1,4
448,56,94301,1,0
376,128,94573,2,4,B|304:200,1,100
104,192,95659,5,6
200,192,95930,1,6
200,88,96202,1,6
200,192,96473,2,6,B|312:192,1,100
256,192,97288,12,0,98102
472,344,98645,1,0
368,344,98917,1,4
472,344,99188,1,6
368,344,99459,1,4
168,344,100002,1,0
64,344,100274,1,0
64,240,100545,1,6
168,240,100817,2,6,B|80:328,1,100
480,32,102989,5,4
408,104,103260,1,4
408,104,103532,1,4
336,176,103803,1,4
32,352,104889,5,0
128,352,105161,2,4,B|200:352,1,50
280,352,105704,2,4,B|216:352,1,50
208,256,106247,2,0,B|208:184,1,50
208,104,106790,2,4,B|208:160,1,50
112,192,107333,2,4,B|232:192,1,100
408,192,108419,1,0
304,192,108690,1,4
304,192,108962,1,0
200,192,109233,1,4
200,192,109505,1,4
400,192,110048,1,6
32,32,111405,5,0
128,32,111677,1,4
80,120,111948,1,0
184,120,112220,2,4,B|184:192,1,50
256,192,112763,12,0,113881
112,192,131802,1,0
208,192,132073,1,0
304,192,132345,1,4
400,192,132617,1,4
32,352,133704,5,4
104,280,133975,1,0
200,280,134247,1,4
480,352,135606,5,0
360,192,136149,1,4
248,352,136693,1,0
248,352,136964,1,0
248,352,137236,1,4
120,192,137780,1,0
120,88,138051,1,4
320,88,138595,1,4
256,192,139682,12,0,140225
32,56,140497,1,0
128,56,140769,1,0
32,56,141040,1,4
128,56,141312,1,4
432,320,142399,1,0
328,320,142671,1,0
376,232,142942,1,4
32,32,144029,6,0,B|64:32,2,25
32,128,144573,1,0
32,224,144844,1,4
32,320,145116,1,4
128,320,145388,1,4
424,312,146203,1,0
424,208,146475,1,4
424,312,146747,2,4,B|320:312,1,100
168,192,147833,5,4
264,192,148105,1,4
360,192,148378,1,4
264,192,148650,2,6,B|368:192,3,100
224,48,150826,5,4
296,120,151098,1,0
224,192,151370,1,4
296,264,151642,1,4
96,264,152186,1,0
96,264,152458,1,0
192,264,152730,1,4
192,264,153002,2,4,B|296:264,1,100
256,192,154090,12,0,154634
480,32,155178,5,0
408,104,155450,1,0
304,104,155722,1,4
408,104,155994,2,4,B|408:224,1,100
408,204,156810,1,4
408,304,157082,1,0
304,304,157354,1,4
104,304,157898,1,4
104,104,158442,1,4
304,104,158986,5,0
400,104,159258,1,0
400,200,159530,1,4
200,200,160074,1,0
48,328,160617,1,4
144,328,160889,1,0
240,328,161161,1,4
336,328,161433,1,0
432,328,161705,1,4
336,152,162249,1,4
40,192,163609,5,0
136,192,163881,1,4
136,192,164153,1,6
40,192,164425,1,6
136,192,164697,1,6
256,192,164969,12,0,166057
256,120,166601,1,0
256,120,166873,1,0
256,120,167145,1,4
256,120,167417,1,0
256,120,167689,1,0
256,120,167961,1,4
256,120,168233,1,0
256,120,168505,1,0
256,120,168777,1,4
256,120,169049,2,4,B|256:232,1,100
256,220,169865,1,4
456,192,170953,5,0
456,192,171225,1,4
456,192,171497,1,0
352,192,171769,1,4
352,192,172040,1,0
352,192,172312,1,4
248,192,172584,1,0
248,192,172856,1,4
248,192,173128,1,0
248,192,173400,2,4,B|136:192,1,100
248,192,174216,1,4
40,40,175304,5,0
40,40,175576,1,0
136,40,175848,1,0
136,40,176120,1,4
232,40,176392,1,0
232,40,176664,1,0
328,40,176936,1,0
232,40,177208,1,4
136,40,177480,1,0
32,40,177752,2,4,B|104:120,1,100
98,114,178568,1,4
96,216,178840,1,4
96,312,179112,2,4,B|200:312,1,100
196,312,179928,1,4
296,312,180200,1,4
248,224,180472,1,4
196,312,180744,1,4
296,312,181016,1,4
248,224,181288,1,4
196,312,181560,1,4
296,312,181832,1,4
248,224,182104,1,0
120,72,182648,5,6
216,72,182920,1,6
312,72,183192,1,6
312,168,183464,1,6
256,192,184143,12,4,186183
256,344,187407,1,0
256,296,187543,1,0
256,248,187679,1,0
256,200,187815,1,0
256,152,187951,1,0
256,48,188223,1,0
352,48,188495,1,0
