osu file format v14

[General]
AudioFilename: pingfanzhilu.mp3
AudioLeadIn: 2000
PreviewTime: 55895
Countdown: 0
SampleSet: Soft
StackLeniency: 0.6
Mode: 0
LetterboxInBreaks: 0
WidescreenStoryboard: 1

[Editor]
Bookmarks: 11291,34149,57006,79863,91291,114149,137006,159863,182720,205577,228434,251291,274149
DistanceSpacing: 1
BeatDivisor: 8
GridSize: 4
TimelineZoom: 1

[Metadata]
Title:Ping Fan Zhi Lu
TitleUnicode:平凡之路
Artist:Pu Shu
ArtistUnicode:朴树
Creator:liangv587
Version:Ordinary
Source:
Tags:濮树 后会无期 The Ordinary Road
BeatmapID:662911
BeatmapSetID:216097

[Difficulty]
HPDrainRate:6
CircleSize:5
OverallDifficulty:7
ApproachRate:8.5
SliderMultiplier:1.59999990463257
SliderTickRate:1

[Events]
//Background and Video events
0,0,"pfzl.jpg",0,0
//Break Periods
//Storyboard Layer 0 (Background)
//Storyboard Layer 1 (Fail)
//Storyboard Layer 2 (Pass)
//Storyboard Layer 3 (Foreground)
//Storyboard Sound Samples

[TimingPoints]
3,714.285714285714,4,2,0,10,1,0
3,-133.333333333333,4,2,0,10,0,0
11610,-133.333333333333,4,2,0,20,0,0
31252,-200,4,2,0,10,0,0
34110,-100,4,2,0,30,0,0
54110,-200,4,2,0,20,0,0
55895,-133.333333333333,4,2,0,30,0,0
56967,-100,4,2,0,40,0,0
79110,-133.333333333333,4,2,0,30,0,0
91610,-100,4,2,0,40,0,0
114199,-80,4,2,0,50,0,0
137324,-100,4,2,0,50,0,0
158038,-100,4,2,0,60,0,0
159913,-80,4,2,0,70,0,0
183038,-100,4,2,0,50,0,0
205717,-66.6666666666667,4,2,0,60,0,1
227145,-100,4,2,0,50,0,0
228574,-66.6666666666667,4,2,0,70,0,1
250002,-100,4,2,0,60,0,0
251431,-66.6666666666667,4,2,0,70,0,1
274288,-100,4,2,0,50,0,0
277681,-100,4,2,0,40,0,0
289110,-100,4,2,0,30,0,0
294288,750,4,2,0,30,1,0
294663,789.473684210526,4,2,0,20,1,0
295057,810.810810810811,4,2,0,20,1,0
295462,769.230769230769,4,2,0,10,1,0
295846,810.810810810811,4,2,0,10,1,0
296251,1016.94915254237,4,2,0,10,1,0
296759,1276.59574468085,4,2,0,10,1,0
302503,-100,4,2,0,5,0,0

[Colours]
Combo1 : 255,0,128
Combo2 : 192,192,192
Combo3 : 128,128,128
Combo4 : 64,128,128
Combo5 : 128,128,64
Combo6 : 0,128,255
Combo7 : 128,0,255
Combo8 : 255,128,0

[HitObjects]
72,276,3,6,0,L|136:256,1,60.0000022888184
164,176,717,1,2,0:0:0:0:
164,176,1074,1,2,0:0:0:0:
220,60,1431,2,0,L|232:132,1,60.0000022888184
296,180,2145,1,2,0:0:0:0:
296,180,2502,1,2,0:0:0:0:
376,292,2860,6,0,L|312:272,1,60.0000022888184
392,164,3574,2,0,L|436:208,1,60.0000022888184,2|2,0:0|0:0,0:0:0:0:
296,180,4288,1,0,0:0:0:0:
300,268,4645,1,0,0:0:0:0:
196,168,5002,2,0,L|148:216,1,60.0000022888184,2|0,0:0|0:0,0:0:0:0:
88,56,5717,102,0,P|132:88|208:92,1,120.000004577637,0|2,0:0|0:0,0:0:0:0:
268,40,6788,1,2,0:0:0:0:
324,112,7145,2,0,L|296:232,1,120.000004577637,0|2,0:0|0:0,0:0:0:0:
340,308,8217,1,2,0:0:0:0:
420,268,8574,6,0,L|480:288,2,60.0000022888184,0|0|2,0:0|0:0|0:0,0:0:0:0:
388,184,9645,1,2,0:0:0:0:
376,96,10002,2,0,L|412:48,2,60.0000022888184,0|0|2,0:0|0:0|0:0,0:0:0:0:
288,88,11074,1,0,0:0:0:0:
288,88,11431,1,4,0:0:0:0:
204,120,11788,102,0,P|196:152|176:184,1,60.0000022888184
96,192,12502,1,2,0:0:0:0:
52,196,12681,2,0,P|32:224|16:260,1,60.0000022888184,2|0,0:0|0:0,0:0:0:0:
40,288,13217,2,0,P|32:312|8:348,2,60.0000022888184,0|0|2,0:0|0:0|0:0,0:0:0:0:
76,316,14110,2,0,P|112:336|168:344,1,90.0000034332277,2|0,0:0|0:0,0:0:0:0:
243,283,15002,6,0,P|239:253|240:224,1,60.0000022888184,2|2,0:0|0:0,0:0:0:0:
340,288,15717,2,0,P|336:320|324:352,1,60.0000022888184
324,204,16431,1,2,0:0:0:0:
408,176,16788,2,0,P|444:180|480:192,1,60.0000022888184,2|0,0:0|0:0,0:0:0:0:
280,128,17502,102,0,P|276:96|280:60,1,60.0000022888184
192,112,18217,1,2,0:0:0:0:
148,128,18395,2,0,P|96:124|32:88,1,120.000004577637,2|2,0:0|0:0,0:0:0:0:
44,136,19288,2,0,P|40:196|16:260,1,120.000004577637,2|2,0:0|0:0,0:0:0:0:
60,228,20181,2,0,P|92:216|148:216,1,90.0000034332277,2|2,0:0|0:0,0:0:0:0:
228,256,21074,5,2,0:0:0:0:
264,372,21431,2,0,L|288:300,1,60.0000022888184
356,264,22145,1,2,0:0:0:0:
472,324,22502,2,0,L|444:264,1,60.0000022888184,2|0,0:0|0:0,0:0:0:0:
444,180,23217,102,0,L|512:200,2,60.0000022888184,0|0|0,0:0|0:0|0:0,0:0:0:0:
356,192,24288,1,2,0:0:0:0:
268,184,24645,2,0,L|232:132,2,60.0000022888184,0|0|0,0:0|0:0|0:0,0:0:0:0:
188,224,25717,1,2,0:0:0:0:
188,224,26074,5,0,0:0:0:0:
100,240,26431,2,0,L|92:312,1,60.0000022888184,0|2,0:0|0:0,0:0:0:0:
32,180,27145,1,0,0:0:0:0:
32,180,27502,1,0,0:0:0:0:
20,92,27860,2,0,P|24:56|40:28,2,60.0000022888184,2|2|0,0:0|0:0|0:0,0:0:0:0:
108,88,28931,102,0,P|132:81|176:84,2,60.0000022888184,0|0|0,0:0|0:0|0:0,0:0:0:0:
148,168,30002,2,0,P|180:168|208:160,1,60.0000022888184,2|0,0:0|0:0,0:0:0:0:
228,120,30538,2,0,P|267:108|318:113,1,89.9999980688095,2|0,0:0|0:0,0:0:0:0:
401,80,31431,6,0,P|401:142|360:189,1,120,4|0,0:0|0:0,0:0:0:0:
320,257,32860,2,0,P|292:229|282:191,1,79.9999952316285
282,191,34645,6,0,L|328:176,2,39.9999976158142,2|0|0,0:0|0:0|0:0,0:0:0:0:
271,299,35360,1,2,0:0:0:0:
255,335,35538,2,0,P|198:328|139:300,1,119.999992847443,2|0,0:0|0:0,0:0:0:0:
136,122,36431,1,0,0:0:0:0:
256,80,36788,1,2,0:0:0:0:
272,116,36967,2,0,P|260:180|228:224,1,120,2|0,0:0|0:0,0:0:0:0:
77,212,37860,1,0,0:0:0:0:
228,223,38217,5,2,0:0:0:0:
99,308,38574,2,0,P|143:301|179:283,1,79.9999952316285
228,224,39288,2,0,P|269:242|312:248,2,80,2|0|0,0:0|0:0|0:0,0:0:0:0:
136,84,40360,102,0,L|84:72,2,40,2|0|0,0:0|0:0|0:0,0:0:0:0:
208,40,41074,1,2,0:0:0:0:
232,72,41252,2,0,P|208:152|136:180,1,160,2|2,0:0|0:0,0:0:0:0:
102,177,42145,2,0,P|125:211|132:254,1,79.9999952316285,2|0,0:0|0:0,0:0:0:0:
194,342,42860,6,0,P|189:297|198:260,1,79.9999952316285,2|0,0:0|0:0,0:0:0:0:
254,173,43574,1,0,0:0:0:0:
308,232,43931,1,2,0:0:0:0:
276,304,44288,2,0,P|288:348|316:376,2,80,0|0|2,0:0|0:0|0:0,0:0:0:0:
400,212,45360,2,0,P|400:252|380:292,1,80
440,116,46074,102,0,P|404:132|356:140,1,80,2|0,0:0|0:0,0:0:0:0:
308,232,46788,2,0,P|264:176|272:88,1,160,2|0,0:0|0:0,0:0:0:0:
347,24,47860,1,0,0:0:0:0:
267,20,48217,2,0,B|203:16|203:16|163:24|163:24|107:20,2,160,2|0|2,0:0|0:0|0:0,0:0:0:0:
347,24,50002,6,0,L|431:20,1,80
299,88,50717,2,0,L|203:92,2,80,2|0|0,0:0|0:0|0:0,0:0:0:0:
187,167,51788,102,0,P|146:170|102:164,2,79.9999952316285,2|0|0,0:0|0:0|0:0,0:0:0:0:
186,247,52860,2,0,P|229:240|274:218,1,79.9999952316285,2|0,0:0|0:0,0:0:0:0:
275,267,53395,2,0,P|333:275|392:301,1,119.999992847443,2|0,0:0|0:0,0:0:0:0:
457,237,54288,86,0,P|483:293|465:351,1,119.999992847443,4|0,0:0|0:0,0:0:0:0:
343,185,56074,2,0,L|284:191,2,59.9999987125397,2|2|2,0:0|3:0|0:0,0:0:0:0:
440,108,57145,38,0,P|400:104|356:84,1,80,2|0,0:0|0:0,0:0:0:0:
332,116,57681,2,0,P|292:88|264:56,1,80,2|0,0:0|0:0,0:0:0:0:
232,72,58217,1,0,0:0:0:0:
80,40,58574,2,0,P|132:48|196:84,1,120,2|0,0:0|0:0,0:0:0:0:
172,116,59288,2,0,P|176:157|164:204,1,80,8|0,0:0|0:0,0:0:0:0:
128,196,59824,6,0,P|108:252|52:288,1,120,2|0,0:0|0:0,0:0:0:0:
156,336,60717,2,0,P|112:332|60:312,1,80,8|0,0:0|0:0,0:0:0:0:
44,344,61252,1,2,0:0:0:0:
256,304,61788,2,0,P|212:300|168:308,1,80,2|8,0:0|0:0,0:0:0:0:
288,280,62502,1,0,0:0:0:0:
268,176,62860,86,0,P|280:220|304:252,1,80,2|0,0:0|0:0,0:0:0:0:
336,268,63395,2,0,L|384:256,1,40,0|8,0:0|0:0,0:0:0:0:
428,336,63931,2,0,L|488:344,2,40,0|0|2,0:0|0:0|0:0,0:0:0:0:
460,232,64645,1,0,0:0:0:0:
480,128,65002,2,0,P|468:176|444:204,1,80,8|0,0:0|0:0,0:0:0:0:
416,180,65538,6,0,P|360:160|300:160,1,120,2|0,0:0|0:0,0:0:0:0:
336,268,66431,2,0,P|332:228|316:192,1,80,8|0,0:0|0:0,0:0:0:0:
276,192,66967,2,0,P|249:150|240:72,1,120,2|0,0:0|0:0,0:0:0:0:
200,76,67681,1,0,0:0:0:0:
96,96,67860,2,0,P|136:104|184:96,1,80,8|0,0:0|0:0,0:0:0:0:
180,180,68574,6,0,P|212:192|248:220,1,80,2|0,0:0|0:0,0:0:0:0:
204,260,69110,2,0,L|252:232,1,40,0|8,0:0|0:0,0:0:0:0:
184,332,69467,2,0,P|204:292|228:268,1,80,2|0,0:0|0:0,0:0:0:0:
262,366,70002,2,0,P|250:321|252:288,1,79.9999952316285,2|0,0:0|0:0,0:0:0:0:
291,280,70538,1,0,0:0:0:0:
328,294,70717,2,0,P|367:299|412:290,1,79.9999952316285,8|0,0:0|0:0,0:0:0:0:
336,216,71431,85,2,0:0:0:0:
264,144,72145,2,0,P|296:172|336:184,1,80,8|0,0:0|0:0,0:0:0:0:
344,88,72860,1,2,0:0:0:0:
344,88,73217,1,0,0:0:0:0:
224,40,73574,2,0,P|232:80|232:124,1,80,8|0,0:0|0:0,0:0:0:0:
164,160,74288,5,2,0:0:0:0:
164,160,74645,1,0,0:0:0:0:
40,206,75002,2,0,P|84:210|120:230,1,80,8|0,0:0|0:0,0:0:0:0:
5,257,75538,2,0,P|64:257|116:229,1,119.999992847443,2|0,0:0|0:0,0:0:0:0:
164,237,76252,1,0,0:0:0:0:
211,233,76431,1,8,0:0:0:0:
254,212,76610,2,0,L|263:173,1,40
335,206,76967,6,0,P|322:262|266:294,1,119.999992847443,2|0,0:0|0:0,0:0:0:0:
233,122,77860,2,0,P|272:121|308:139,1,79.9999952316285,8|0,0:0|0:0,0:0:0:0:
343,140,78395,1,0,0:0:0:0:
375,128,78574,1,2,0:0:0:0:
386,99,78752,2,0,L|379:60,1,39.9999976158142
491,114,79288,54,0,P|463:175|408:204,1,119.999997425079,8|4,0:0|0:0,0:0:0:0:
329,216,80360,1,2,0:0:0:0:
281,292,80717,2,0,L|291:351,1,60.0000022888184,8|0,0:0|0:0,0:0:0:0:
128,344,81431,1,2,0:0:0:0:
192,280,81788,1,0,0:0:0:0:
124,220,82145,2,0,L|130:148,1,60.0000022888184,8|2,0:0|0:0,0:0:0:0:
12,83,82860,6,0,L|72:88,1,60.0000022888184,0|2,0:0|0:0,0:0:0:0:
140,32,83574,1,8,0:0:0:0:
200,100,83931,2,0,P|264:124|312:104,1,120.000004577637,2|0,0:0|0:0,0:0:0:0:
380,24,85002,2,0,L|388:92,1,60.0000022888184,8|2,0:0|0:0,0:0:0:0:
507,137,85717,102,0,L|448:148,1,60.0000022888184,0|2,0:0|0:0,0:0:0:0:
400,224,86431,1,8,0:0:0:0:
332,164,86788,2,0,P|272:148|216:176,1,120.000004577637,2|0,0:0|0:0,0:0:0:0:
281,238,87860,1,8,0:0:0:0:
405,343,88217,6,0,P|407:283|400:224,1,120.000004577637,2|0,0:0|0:0,0:0:0:0:
332,164,89288,1,8,0:0:0:0:
281,238,89645,2,0,P|208:260|164:240,1,120.000004577637,2|0,0:0|0:0,0:0:0:0:
197,116,90717,2,0,P|214:140|220:169,2,60.0000022888184,8|2|4,0:0|0:0|0:0,0:0:0:0:
112,188,91788,38,0,P|92:224|92:264,1,80,2|8,0:0|0:0,0:0:0:0:
224,332,92502,1,2,0:0:0:0:
244,288,92681,2,0,P|272:260|316:244,1,80
384,240,93217,2,0,P|344:240|296:216,1,80,2|0,0:0|1:0,0:0:0:0:
258,54,93931,1,0,3:0:0:0:
270,69,94020,1,0,3:0:0:0:
278,87,94109,1,0,3:0:0:0:
281,107,94198,1,0,3:0:0:0:
284,128,94288,6,0,P|241:125|204:104,1,80,4|0,1:2|0:0,0:0:0:0:
116,44,95002,1,8,0:0:0:0:
27,189,95360,2,0,L|15:237,1,39.9999976158142,2|0,0:0|1:0,0:0:0:0:
152,202,95717,2,0,L|149:162,1,39.9999976158142,0|0,0:0|3:0,0:0:0:0:
280,197,96074,1,0,1:0:0:0:
432,128,96431,2,0,P|388:124|340:132,1,80,8|0,0:0|3:0,0:0:0:0:
87,214,97145,101,0,1:0:0:0:
217,215,97324,1,0,0:0:0:0:
150,303,97502,2,0,P|190:318|230:323,1,80,2|8,0:0|0:0,0:0:0:0:
328,276,98217,2,0,P|344:316|372:344,2,80,2|0|0,0:0|0:0|1:0,0:0:0:0:
428,224,99288,2,0,L|412:176,1,40,8|2,0:0|0:0,0:0:0:0:
268,176,99645,2,0,L|316:156,1,40,0|2,0:0|0:0,0:0:0:0:
388,80,100002,6,0,L|400:40,2,40,0|0|2,1:0|0:0|0:0,0:0:0:0:
264,52,100717,2,0,P|224:52|176:40,1,80,8|2,0:0|0:0,0:0:0:0:
116,16,101252,1,0,1:0:0:0:
48,100,101431,2,0,L|96:76,1,40,0|0,0:0|3:0,0:0:0:0:
112,188,101788,2,0,P|136:160|156:120,1,80,0|8,1:0|0:0,0:0:0:0:
236,200,102502,1,0,3:0:0:0:
244,220,102592,1,0,3:0:0:0:
248,240,102681,1,0,3:0:0:0:
248,260,102770,1,0,3:0:0:0:
244,280,102860,1,2,1:2:0:0:
100,296,103217,102,0,L|60:332,2,40,2|0|8,0:0|3:0|0:0,0:0:0:0:
272,348,103931,2,0,P|312:336|352:300,1,80,2|0,0:0|3:0,0:0:0:0:
140,288,104645,2,0,L|88:300,2,40,0|0|8,1:0|0:0|0:0,0:0:0:0:
344,312,105360,2,0,P|360:272|364:228,1,80,2|0,0:0|1:0,0:0:0:0:
377,142,105895,2,0,L|408:182,1,39.9999976158142,2|0,0:0|0:0,0:0:0:0:
272,48,106431,6,0,L|248:128,1,80,8|2,0:0|0:0,0:0:0:0:
184,160,106967,2,0,L|92:156,1,80,0|0,1:0|3:0,0:0:0:0:
248,200,107502,2,0,L|292:276,1,80,0|8,1:0|0:0,0:0:0:0:
445,155,108217,1,0,3:0:0:0:
423,150,108306,1,0,3:0:0:0:
401,148,108395,1,0,3:0:0:0:
379,150,108484,1,0,3:0:0:0:
358,155,108574,1,2,1:2:0:0:
248,328,108931,102,0,P|276:360|316:380,2,80,2|8|0,0:0|0:0|0:0,0:0:0:0:
284,250,109824,1,2,0:0:0:0:
164,212,110002,2,0,P|148:248|144:296,1,80,0|0,3:0|1:0,0:0:0:0:
32,260,110538,2,0,L|56:304,1,40,2|8,0:0|0:0,0:0:0:0:
80,196,110895,2,0,P|80:135|52:64,1,120,2|0,0:0|1:0,0:0:0:0:
160,12,111788,5,2,0:0:0:0:
236,100,112145,2,0,P|200:120|152:128,1,80,8|2,0:0|0:0,0:0:0:0:
228,192,112681,2,0,L|244:236,1,40,0|0,1:0|1:0,0:0:0:0:
188,336,113217,37,2,1:2:0:0:
344,352,113574,1,8,0:0:0:0:
420,288,113752,1,0,1:0:0:0:
456,176,113931,1,0,3:0:0:0:
436,172,114020,1,0,3:0:0:0:
416,172,114110,1,0,3:0:0:0:
392,176,114199,1,0,3:0:0:0:
368,180,114288,54,0,P|328:156|300:100,1,100,4|2,1:2|0:0,0:0:0:0:
392,88,114824,1,0,0:0:0:0:
212,104,115002,2,0,L|152:92,1,50,0|0,1:0|0:0,0:0:0:0:
24,168,115360,2,0,P|72:160|124:176,1,100,2|0,0:0|0:0,0:0:0:0:
176,240,115895,1,2,0:0:0:0:
72,316,116074,2,0,L|64:256,1,50,2|0,0:3|0:0,0:0:0:0:
172,352,116431,2,0,P|216:344|268:304,1,100,0|0,1:0|0:0,0:0:0:0:
303,228,116967,1,0,0:0:0:0:
300,60,117145,6,0,P|264:100|264:144,1,100,2|2,0:3|0:0,0:0:0:0:
340,128,117681,1,0,0:0:0:0:
428,200,117860,2,0,P|428:256|408:296,1,100,0|2,1:0|0:0,0:0:0:0:
260,312,118395,2,0,P|308:329|348:360,1,100,2|2,0:3|0:0,0:0:0:0:
164,320,118931,2,0,P|124:296|100:244,1,100,2|8,0:3|1:2,0:0:0:0:
87,152,119467,2,0,L|143:166,2,49.9999970197678,2|0|0,3:2|0:0|0:0,0:0:0:0:
216,132,120002,102,0,P|220:184|192:232,1,100,2|2,0:3|0:0,0:0:0:0:
143,81,120538,2,0,L|84:66,1,49.9999970197678,0|8,0:0|1:2,0:0:0:0:
218,28,120895,1,0,0:0:0:0:
288,84,121074,2,0,P|344:88|392:72,1,100,2|0,0:0|0:0,0:0:0:0:
364,216,121788,1,2,0:3:0:0:
196,228,122145,2,0,P|192:284|204:336,1,100,0|0,1:0|0:0,0:0:0:0:
288,356,122681,1,2,0:0:0:0:
368,316,122860,6,0,P|372:272|364:216,1,100,2|2,0:3|0:0,0:0:0:0:
424,80,123574,2,0,L|332:120,1,100,0|2,1:0|0:0,0:0:0:0:
232,76,124110,1,2,0:3:0:0:
168,164,124288,2,0,P|136:128|124:76,1,100,0|2,3:0|0:3,0:0:0:0:
96,216,124824,1,2,0:0:0:0:
124,300,125002,2,0,L|84:336,2,50,0|0|2,1:0|3:0|0:0,0:0:0:0:
320,292,125717,102,0,P|365:302|424:292,1,100,2|2,0:3|0:0,0:0:0:0:
472,224,126252,2,0,L|464:172,1,50,0|0,0:0|1:0,0:0:0:0:
412,88,126610,2,0,P|380:124|368:176,1,100,2|0,0:0|0:0,0:0:0:0:
225,110,127145,2,0,P|181:110|125:98,1,100,2|2,0:0|0:3,0:0:0:0:
65,30,127681,1,0,0:0:0:0:
129,190,127860,2,0,L|121:242,2,50,0|2|2,1:0|0:3|0:0,0:0:0:0:
232,353,128574,6,0,L|224:241,1,100,2|2,0:3|0:0,0:0:0:0:
48,128,129288,2,0,P|92:112|148:116,1,100,0|2,1:0|0:0,0:0:0:0:
212,176,129824,1,2,0:3:0:0:
268,4,130002,2,0,P|276:52|268:108,1,100,0|2,0:0|0:3,0:0:0:0:
208,188,130538,1,0,0:0:0:0:
204,204,130627,1,0,0:0:0:0:
200,216,130717,2,0,P|256:208|312:216,1,100,0|2,1:0|0:0,0:0:0:0:
436,268,131431,101,2,0:3:0:0:
276,348,131788,2,0,L|231:313,1,49.9999970197678,2|2,0:3|0:0,0:0:0:0:
344,270,132145,2,0,P|368:225|361:179,1,100,8|2,0:0|0:0,0:0:0:0:
304,96,132681,1,0,0:0:0:0:
192,44,132860,2,0,P|168:92|168:144,1,100,2|2,0:3|0:3,0:0:0:0:
252,226,133395,2,0,L|300:212,1,50,2|8,0:0|0:0,0:0:0:0:
167,225,133752,2,0,L|147:281,2,50,0|0|2,0:0|0:0|0:0,0:0:0:0:
62,233,134288,6,0,P|54:289|74:333,2,100,2|2|8,0:3|0:3|0:0,0:0:0:0:
256,192,135360,12,4,137145,0:0:0:0:
256,192,137860,5,0,1:0:0:0:
368,76,138217,1,0,0:0:0:0:
428,128,138395,1,2,0:0:0:0:
392,200,138574,2,0,L|400:252,1,40
320,296,138931,2,0,L|312:248,1,40,2|0,0:0|0:0,0:0:0:0:
252,344,139288,2,0,P|212:356|160:352,1,80,0|0,1:0|0:0,0:0:0:0:
96,332,139824,1,0,0:0:0:0:
8,224,140002,86,0,L|96:252,1,80,2|0,0:0|0:0,0:0:0:0:
148,200,140538,2,0,L|144:156,1,40,0|0,0:0|1:0,0:0:0:0:
224,264,141074,1,0,0:0:0:0:
280,208,141252,1,2,0:0:0:0:
224,152,141431,2,0,L|240:68,2,80,0|2|0,0:0|0:0|1:0,0:0:0:0:
64,148,142502,2,0,L|16:132,1,40,2|0,0:0|0:0,0:0:0:0:
124,68,142860,6,0,L|140:112,1,40,2|0,0:0|0:0,0:0:0:0:
196,24,143217,2,0,P|232:8|276:20,1,80,0|0,0:0|1:0,0:0:0:0:
448,136,143931,1,0,0:0:0:0:
416,208,144110,2,0,P|380:224|336:212,1,80,2|0,0:0|0:0,0:0:0:0:
372,144,144645,2,0,L|364:96,1,39.9999976158142,2|0,0:0|0:0,0:0:0:0:
292,152,145002,2,0,P|268:184|264:224,1,79.9999952316283,0|0,1:0|0:0,0:0:0:0:
332,368,145717,6,0,P|288:364|244:376,1,79.9999952316283,2|0,0:0|0:0,0:0:0:0:
328,292,146252,2,0,L|344:252,1,39.9999976158142,0|0,0:0|1:0,0:0:0:0:
148,372,146788,1,0,0:0:0:0:
148,292,146967,1,2,0:0:0:0:
80,332,147145,2,0,P|40:344|-4:340,2,79.9999952316283,0|2|0,0:0|0:0|1:0,0:0:0:0:
200,132,148217,1,0,0:0:0:0:
124,160,148395,1,0,0:0:0:0:
184,216,148574,86,0,P|220:234|272:240,1,80,2|0,0:0|0:0,0:0:0:0:
316,152,149110,2,0,L|324:200,1,40,0|0,0:0|1:0,0:0:0:0:
200,92,149645,2,0,L|200:140,1,40,0|2,0:0|0:0,0:0:0:0:
124,160,150002,1,0,0:0:0:0:
52,124,150181,1,0,0:0:0:0:
112,264,150360,1,2,0:0:0:0:
192,276,150538,1,0,0:0:0:0:
245,338,150717,2,0,L|318:305,1,79.9999952316285,0|0,1:0|0:0,0:0:0:0:
396,325,151252,1,0,0:0:0:0:
464,224,151431,5,2,0:0:0:0:
384,244,151610,1,0,0:0:0:0:
308,224,151788,2,0,P|304:184|308:140,1,80,0|0,0:0|1:0,1:0:0:0:
416,52,152502,2,0,L|436:100,1,40,0|0,0:0|3:0,0:0:0:0:
304,56,152860,2,0,L|348:80,1,40,2|0,0:0|0:0,0:0:0:0:
232,100,153217,1,2,0:0:0:0:
204,176,153395,1,0,0:0:0:0:
224,16,153574,2,0,L|132:28,1,80,0|0,1:0|0:0,0:0:0:0:
48,40,154110,1,0,0:0:0:0:
100,100,154288,5,2,0:0:0:0:
64,172,154467,1,0,0:0:0:0:
120,228,154645,2,0,P|128:268|112:312,2,80,0|0|0,0:0|1:0|0:0,0:0:0:0:
48,264,155538,1,0,3:0:0:0:
184,212,155717,2,0,L|236:224,1,40,2|0,0:0|0:0,0:0:0:0:
208,300,156074,2,0,P|236:328|280:344,2,80,2|0|0,0:0|1:0|0:0,0:0:0:0:
292,248,156967,1,0,0:0:0:0:
384,308,157145,86,0,L|376:360,1,39.9999976158142,2|0,1:2|0:0,0:0:0:0:
400,180,157502,2,0,P|432:208|476:220,1,80,0|0,0:0|1:0,0:0:0:0:
408,28,158217,1,2,0:0:0:0:
436,104,158395,1,2,0:3:0:0:
316,32,158574,2,0,L|268:56,1,40,0|0,1:0|3:0,0:0:0:0:
232,140,158931,2,0,P|272:152|320:144,1,80,10|0,0:3|1:0,0:0:0:0:
188,56,159467,1,2,3:2:0:0:
128,140,159645,2,0,L|132:180,1,40,8|0,0:3|0:0,0:0:0:0:
96,312,160002,38,0,L|64:268,1,50,6|0,0:0|0:0,0:0:0:0:
192,280,160360,2,0,P|248:284|292:308,2,100,0|0|0,0:0|1:0|0:0,0:0:0:0:
216,376,161252,1,0,3:0:0:0:
184,212,161431,2,0,L|200:164,1,50,2|0,0:0|0:0,0:0:0:0:
288,208,161788,2,0,P|340:212|388:200,1,100,2|0,0:0|1:0,0:0:0:0:
244,36,162502,1,0,0:0:0:0:
328,92,162681,1,0,0:0:0:0:
452,84,162860,86,0,L|404:104,1,50,2|0,0:0|0:0,0:0:0:0:
384,200,163217,2,0,P|392:252|420:296,1,100,0|0,0:0|1:0,0:0:0:0:
300,320,163931,2,0,L|356:348,1,50,0|0,0:0|3:0,0:0:0:0:
236,248,164288,2,0,L|292:232,1,50,2|0,0:0|0:0,0:0:0:0:
200,344,164645,2,0,P|160:316|136:260,1,100,0|0,3:0|1:0,0:0:0:0:
218,19,165360,1,0,0:0:0:0:
221,173,165538,1,0,0:0:0:0:
125,53,165717,5,2,0:0:0:0:
282,94,165895,1,0,0:0:0:0:
126,151,166074,2,0,P|74:163|10:159,2,100,0|0|0,0:0|1:0|0:0,0:0:0:0:
204,52,166967,1,0,3:0:0:0:
220,64,167056,1,0,3:0:0:0:
236,76,167145,2,0,L|280:52,1,50,2|0,3:2|0:0,0:0:0:0:
364,106,167502,2,0,P|381:55|368:4,1,100,0|0,3:0|1:0,0:0:0:0:
277,148,168217,1,0,0:0:0:0:
372,206,168395,1,0,0:0:0:0:
231,324,168574,86,0,L|211:264,1,50,2|0,0:0|0:0,0:0:0:0:
307,136,168931,1,0,0:0:0:0:
311,156,169020,1,0,0:0:0:0:
315,176,169110,2,0,L|299:232,1,50,0|0,0:0|1:0,0:0:0:0:
163,176,169467,2,0,L|215:180,1,50
115,264,169824,1,0,3:0:0:0:
71,352,170002,2,0,L|7:368,1,50,2|0,0:0|0:0,0:0:0:0:
47,192,170360,2,0,P|39:144|51:92,1,100,0|0,3:0|1:0,0:0:0:0:
215,248,171074,1,0,0:0:0:0:
275,312,171252,1,0,0:0:0:0:
404,252,171431,38,0,L|456:269,1,49.9999970197678,2|0,0:0|0:0,0:0:0:0:
416,92,171788,2,0,L|432:32,2,50,0|0|0,0:0|0:0|1:0,0:0:0:0:
452,176,172324,1,0,0:0:0:0:
364,180,172502,2,0,P|308:172|268:140,1,100,0|2,0:0|0:0,0:0:0:0:
348,88,173038,1,0,0:0:0:0:
296,240,173217,2,0,L|244:248,1,50,0|0,3:0|0:0,0:0:0:0:
148,264,173574,2,0,P|180:304|188:356,1,100,0|0,1:0|0:0,0:0:0:0:
84,348,174110,1,0,0:0:0:0:
60,224,174288,86,0,L|24:272,1,50,2|0,0:0|0:0,0:0:0:0:
12,156,174645,1,0,0:0:0:0:
24,140,174735,1,0,0:0:0:0:
36,124,174824,2,0,L|88:136,1,50,0|0,0:0|1:0,0:0:0:0:
152,32,175181,2,0,P|156:87|180:128,1,100,0|0,0:0|3:0,0:0:0:0:
300,36,175717,2,0,L|236:56,1,50,2|0,0:0|0:0,0:0:0:0:
344,112,176074,2,0,P|340:164|320:212,2,100,0|0|0,3:0|1:0|0:0,0:0:0:0:
248,232,176967,1,0,0:0:0:0:
180,288,177145,6,0,L|188:348,2,50,2|0|0,0:0|0:0|0:0,0:0:0:0:
300,300,177681,2,0,L|360:308,1,50,0|0,0:0|1:0,0:0:0:0:
456,120,178217,1,0,0:0:0:0:
416,208,178395,2,0,L|424:272,1,50,0|2,3:0|0:0,0:0:0:0:
320,208,178752,1,0,0:0:0:0:
248,144,178931,2,0,P|236:100|244:40,1,100,0|0,3:0|1:0,0:0:0:0:
404,32,179645,1,0,0:0:0:0:
328,88,179824,1,0,0:0:0:0:
176,16,180002,85,2,0:0:0:0:
160,116,180181,1,0,0:0:0:0:
79,230,180360,2,0,L|40:200,1,50
216,216,180717,2,0,L|216:272,1,50,0|0,1:0|0:0,0:0:0:0:
88,348,181074,2,0,P|140:356|192:348,1,100,0|2,0:0|0:0,0:0:0:0:
282,319,181610,1,0,0:0:0:0:
402,259,181788,2,0,L|346:247,1,50,0|0,3:0|0:0,0:0:0:0:
478,312,182145,2,0,P|494:268|478:208,1,100,0|2,1:0|0:0,0:0:0:0:
390,116,182681,2,0,L|394:172,1,50,0|4,0:0|0:0,0:0:0:0:
248,48,183217,86,0,P|208:40|168:48,2,80,0|8|2,0:0|0:0|0:0,0:0:0:0:
316,92,184288,1,0,0:0:0:0:
208,128,184645,2,0,P|176:152|152:184,2,80,0|8|2,0:0|0:0|0:0,0:0:0:0:
316,92,185717,1,0,0:0:0:0:
248,200,186074,6,0,P|232:244|232:280,1,80,0|8,0:0|0:0,0:0:0:0:
320,256,186788,2,0,P|388:305|460:272,1,160,2|2,0:0|0:0,0:0:0:0:
396,220,187860,1,8,0:0:0:0:
326,177,188217,2,0,P|316:216|320:256,1,80,2|0,0:0|0:0,0:0:0:0:
440,80,188931,102,0,P|392:76|352:60,2,80,0|8|2,0:0|0:0|0:0,0:0:0:0:
356,96,190002,1,0,0:0:0:0:
288,28,190360,2,0,P|260:56|216:72,2,80,0|8|2,0:0|0:0|0:0,0:0:0:0:
220,104,191431,1,0,0:0:0:0:
156,152,191788,6,0,P|180:188|192:232,1,80,0|8,0:0|0:0,0:0:0:0:
120,296,192502,2,0,P|88:220|120:148,1,160,2|2,0:0|0:0,0:0:0:0:
152,312,193574,1,8,0:0:0:0:
240,312,193931,2,0,P|196:320|160:344,1,80,2|0,0:0|0:0,0:0:0:0:
264,292,194645,102,0,P|288:320|332:344,2,80,0|8|2,0:0|0:0|0:0,0:0:0:0:
356,240,195717,1,0,0:0:0:0:
272,184,196074,2,0,P|228:188|192:212,2,80,0|8|2,0:0|0:0|0:0,0:0:0:0:
164,192,197145,1,0,0:0:0:0:
112,108,197502,6,0,P|144:132|164:172,1,80,0|8,0:0|0:0,0:0:0:0:
72,100,198217,2,0,P|124:44|204:48,1,160,2|2,0:0|0:0,0:0:0:0:
264,100,199288,1,8,0:0:0:0:
368,92,199645,2,0,P|332:104|284:108,1,80,2|0,0:0|0:0,0:0:0:0:
368,132,200360,102,0,P|412:128|460:144,2,80,0|8|2,0:0|0:0|0:0,0:0:0:0:
400,232,201431,1,0,0:0:0:0:
296,192,201788,2,0,P|320:228|324:272,2,80,0|8|2,0:0|0:0|0:0,0:0:0:0:
220,268,202860,1,0,0:0:0:0:
248,104,203217,6,0,P|248:144|268:188,1,80,0|8,0:0|0:0,0:0:0:0:
192,256,203931,2,0,P|216:224|232:180,1,80,2|0,0:0|0:0,0:0:0:0:
94,109,204645,86,0,P|54:109|10:101,2,80,0|8|0,0:0|0:0|0:0,0:0:0:0:
184,72,205538,1,8,0:0:0:0:
309,24,205717,70,0,L|244:15,1,59.9999987125397,4|0,0:0|0:0,0:0:0:0:
356,139,206074,1,0,0:0:0:0:
438,221,206252,2,0,L|503:209,1,59.9999987125397,0|0,3:0|1:0,0:0:0:0:
448,96,206610,1,0,0:0:0:0:
348,231,206788,2,0,L|364:303,1,60.0000022888184,0|0,0:0|3:0,0:0:0:0:
261,283,207145,102,0,L|221:343,1,59.9999987125397,2|0,3:0|0:0,0:0:0:0:
268,192,207502,2,0,P|248:136|264:72,1,120.000004577637,2|0,0:3|1:0,0:0:0:0:
112,36,208217,1,0,0:0:0:0:
112,36,208395,1,0,0:0:0:0:
192,142,208574,6,0,L|132:163,1,59.9999987125397,2|0,0:3|0:0,0:0:0:0:
196,268,208931,1,0,0:0:0:0:
188,288,209020,1,0,0:0:0:0:
184,308,209110,1,0,3:0:0:0:
184,328,209199,1,0,3:0:0:0:
184,348,209288,2,0,P|132:372|64:364,1,120.000004577637,0|0,1:0|0:0,0:0:0:0:
36,284,209824,1,0,3:0:0:0:
68,180,210002,102,0,L|116:232,1,60.0000022888184,2|0,3:0|0:0,0:0:0:0:
104,100,210360,1,2,0:3:0:0:
256,20,210717,2,0,L|232:88,1,60.0000022888184,0|0,1:0|3:0,0:0:0:0:
304,144,211074,1,0,0:0:0:0:
296,232,211252,1,0,0:0:0:0:
382,107,211431,6,0,L|459:100,1,59.9999987125397,2|0,0:3|0:0,0:0:0:0:
400,264,211788,1,0,0:0:0:0:
388,291,211877,1,0,0:0:0:0:
368,313,211966,1,0,3:0:0:0:
343,329,212055,1,0,3:0:0:0:
320,336,212145,2,0,P|256:332|212:296,1,120.000004577637,0|0,1:0|0:0,0:0:0:0:
188,200,212681,1,0,3:0:0:0:
332,183,212860,102,0,L|296:232,1,60.0000022888184,2|0,3:0|0:0,0:0:0:0:
224,100,213217,1,2,0:3:0:0:
40,144,213574,2,0,P|28:204|48:264,1,120.000004577637,0|0,1:0|0:0,0:0:0:0:
153,310,214110,1,0,0:0:0:0:
152,196,214288,5,2,0:3:0:0:
258,251,214467,2,0,L|220:310,1,59.9999987125397
251,132,214824,1,0,3:0:0:0:
359,81,215002,2,0,P|403:121|471:121,1,120.000004577637,0|0,1:0|0:0,0:0:0:0:
443,29,215538,1,0,3:0:0:0:
384,197,215717,102,0,P|384:226|398:255,1,59.9999987125397,2|0,3:0|0:0,0:0:0:0:
486,336,216074,2,0,P|438:320|366:328,1,120.000004577637,2|0,0:3|1:0,0:0:0:0:
294,359,216610,1,0,0:3:0:0:
192,224,216788,2,0,L|204:288,1,60.0000022888184
50,374,217145,5,2,0:3:0:0:
175,342,217324,1,0,0:0:0:0:
175,342,217502,1,0,0:0:0:0:
64,280,217681,2,0,L|59:212,1,59.9999987125397,0|0,3:0|1:0,0:0:0:0:
143,106,218038,2,0,L|139:166,1,60.0000022888184
230,60,218395,1,0,3:0:0:0:
230,60,218485,1,0,3:0:0:0:
230,60,218574,102,0,L|298:64,1,60.0000022888184,2|0,3:0|0:0,0:0:0:0:
444,136,218931,2,0,L|376:144,1,60.0000022888184,2|0,0:3|0:0,0:0:0:0:
260,232,219288,2,0,P|304:272|368:288,1,120.000004577637,0|0,1:0|0:0,0:0:0:0:
472,241,219824,1,0,0:0:0:0:
300,139,220002,5,2,0:3:0:0:
502,179,220181,1,0,0:0:0:0:
402,232,220360,1,0,0:0:0:0:
409,74,220538,1,0,3:0:0:0:
392,57,220627,1,0,3:0:0:0:
375,40,220717,2,0,P|320:45|255:72,1,119.999997425079,0|0,1:0|0:0,0:0:0:0:
144,12,221252,1,0,3:0:0:0:
144,12,221342,1,0,3:0:0:0:
144,12,221431,102,0,L|153:86,1,60.0000022888184,2|0,3:0|0:0,0:0:0:0:
44,176,221788,2,0,P|112:176|164:208,1,120.000004577637,2|0,0:3|1:0,0:0:0:0:
172,296,222324,1,0,3:0:0:0:
52,344,222502,2,0,L|80:288,1,60.0000022888184
240,240,222860,5,2,0:3:0:0:
332,272,223038,1,0,0:0:0:0:
324,176,223217,1,0,0:0:0:0:
236,256,223395,1,0,3:0:0:0:
236,276,223485,1,0,3:0:0:0:
240,296,223574,2,0,P|276:348|332:368,1,120.000004577637,0|0,1:0|0:0,0:0:0:0:
415,318,224110,1,0,3:0:0:0:
408,212,224288,102,0,P|428:220|468:228,1,60.0000022888184,2|0,3:0|0:0,0:0:0:0:
400,108,224645,2,0,P|354:72|292:59,2,119.999997425079,2|0|0,0:3|1:0|0:0,0:0:0:0:
408,212,225538,1,0,0:0:0:0:
196,243,225717,5,2,0:3:0:0:
299,191,225895,1,0,0:0:0:0:
156,136,226074,2,0,P|149:75|161:16,2,119.999997425079,0|0|0,0:0|1:0|0:0,0:0:0:0:
196,243,226967,1,0,3:0:0:0:
156,312,227145,1,2,3:0:0:0:
381,224,227502,22,0,P|394:191|395:133,1,80,2|2,0:3|0:0,0:0:0:0:
278,39,228038,1,0,0:0:0:0:
272,68,228127,1,0,0:0:0:0:
276,97,228217,1,2,0:0:0:0:
289,124,228306,1,2,0:0:0:0:
296,153,228395,1,2,3:2:0:0:
291,182,228485,1,2,3:2:0:0:
278,208,228574,102,0,L|223:235,1,60.0000022888184,4|0,0:0|0:0,0:0:0:0:
152,344,228931,2,0,L|220:360,1,60.0000022888184,2|0,0:0|3:0,0:0:0:0:
340,320,229288,1,0,1:0:0:0:
232,264,229467,1,0,3:0:0:0:
244,364,229645,1,2,0:0:0:0:
332,304,229824,1,0,3:0:0:0:
205,169,230002,86,0,L|228:292,1,119.999997425079,2|2,3:0|0:3,0:0:0:0:
424,36,230717,2,0,P|368:36|308:72,1,120.000004577637,0|2,1:0|0:0,0:0:0:0:
396,148,231252,1,0,0:0:0:0:
392,244,231431,22,0,P|420:248|472:240,1,60.0000022888184,2|0,0:3|0:0,0:0:0:0:
276,208,231788,1,2,0:0:0:0:
252,212,231877,1,0,0:0:0:0:
232,224,231967,1,0,3:0:0:0:
216,240,232056,1,0,3:0:0:0:
204,260,232145,2,0,P|168:300|104:312,1,120.000004577637,0|2,1:0|0:0,0:0:0:0:
113,210,232681,1,0,3:0:0:0:
104,89,232860,86,0,L|35:111,1,59.9999987125397,2|0,3:0|0:0,0:0:0:0:
212,104,233217,2,0,P|272:104|336:80,2,120.000004577637,2|0|2,0:3|1:0|0:0,0:0:0:0:
148,20,234110,1,0,0:0:0:0:
364,144,234288,22,0,P|372:172|372:208,1,60.0000022888184,2|0,0:3|0:0,0:0:0:0:
340,292,234645,1,2,0:0:0:0:
189,217,234824,2,0,P|222:223|250:239,1,59.9999987125397,0|0,3:0|1:0,0:0:0:0:
254,329,235181,1,0,0:0:0:0:
76,287,235360,2,0,P|57:232|72:156,1,119.999997425079,2|2,0:0|3:0,0:0:0:0:
183,305,235895,86,0,P|175:336|151:364,1,59.9999987125397,2|2,0:0|0:3,0:0:0:0:
436,268,236431,1,0,1:0:0:0:
420,60,236788,2,0,P|455:59|484:68,1,59.9999987125397,2|0,0:0|0:0,0:0:0:0:
412,176,237145,21,2,0:3:0:0:
344,244,237324,1,0,0:0:0:0:
320,152,237502,1,2,0:0:0:0:
304,128,237592,1,0,0:0:0:0:
284,112,237681,1,0,3:0:0:0:
260,100,237770,1,0,3:0:0:0:
232,96,237860,2,0,P|164:100|124:68,1,120.000004577637,0|2,1:0|0:0,0:0:0:0:
200,8,238395,1,0,3:0:0:0:
72,8,238574,86,0,L|60:68,1,60.0000022888184,2|0,3:0|0:0,0:0:0:0:
148,180,238931,2,0,P|96:208|32:208,2,120.000004577637,2|0|2,0:3|1:0|0:0,0:0:0:0:
232,96,239824,1,0,0:0:0:0:
128,80,240002,21,2,0:3:0:0:
256,192,240181,1,0,0:0:0:0:
336,28,240360,2,0,L|332:92,1,60.0000022888184,2|0,0:0|3:0,0:0:0:0:
148,180,240717,1,0,1:0:0:0:
435,139,240895,2,0,L|432:80,1,60.0000022888184,0|2,0:0|0:0,0:0:0:0:
256,192,241252,1,0,3:0:0:0:
476,256,241431,86,0,B|428:252|428:252|404:244|404:244|356:240,1,120.000004577637,2|2,3:0|0:3,0:0:0:0:
276,288,241967,1,0,3:0:0:0:
72,280,242145,2,0,B|116:276|116:276|144:268|144:268|192:264,1,120.000004577637,0|2,1:0|0:0,0:0:0:0:
328,168,242681,1,0,0:0:0:0:
184,88,242860,22,0,L|208:148,1,60.0000022888184,2|0,0:3|0:0,0:0:0:0:
64,56,243217,1,2,0:0:0:0:
76,160,243395,1,0,3:0:0:0:
84,180,243485,1,0,3:0:0:0:
92,200,243574,2,0,B|124:227|124:227|160:239|160:239|192:263,1,120.000004577637,0|2,1:0|0:0,0:0:0:0:
272,372,244110,1,0,3:0:0:0:
424,356,244288,86,0,L|376:312,1,60.0000022888184,2|0,3:0|0:0,0:0:0:0:
444,152,244645,2,0,B|400:156|400:156|372:164|372:164|324:168,1,120.000004577637,2|0,0:3|1:0,0:0:0:0:
344,60,245181,1,0,3:0:0:0:
247,86,245360,2,0,L|233:22,1,59.9999987125397,2|0,0:0|0:0,0:0:0:0:
172,146,245717,21,2,0:3:0:0:
58,131,245895,2,0,L|56:195,1,59.9999987125397,0|2,0:0|0:0,0:0:0:0:
155,57,246252,1,0,3:0:0:0:
348,220,246431,2,0,B|352:264|352:264|348:296|348:296|352:344,1,120.000004577637,0|2,1:0|0:0,0:0:0:0:
464,200,246967,1,0,3:0:0:0:
464,200,247056,1,0,3:0:0:0:
464,200,247145,86,0,L|456:260,1,60.0000022888184,2|0,3:0|0:0,0:0:0:0:
436,88,247502,2,0,L|484:44,1,59.9999987125397,2|0,0:3|3:0,0:0:0:0:
344,144,247860,2,0,L|280:140,1,59.9999987125397,0|0,1:0|0:0,0:0:0:0:
168,32,248217,2,0,L|196:88,1,59.9999987125397,2|0,0:0|0:0,0:0:0:0:
172,240,248574,22,0,L|200:176,1,59.9999987125397,2|0,0:3|0:0,0:0:0:0:
88,128,248931,1,2,0:0:0:0:
72,148,249020,1,0,0:0:0:0:
56,168,249110,1,0,3:0:0:0:
60,192,249199,1,0,3:0:0:0:
64,216,249288,2,0,B|68:252|68:252|28:332,2,120.000004577637,0|2|2,1:0|0:0|3:0,0:0:0:0:
60,48,250181,1,2,0:0:0:0:
180,68,250360,22,0,P|220:60|260:36,1,80,2|0,0:3|1:0,0:0:0:0:
412,60,251074,1,2,0:0:0:0:
412,140,251252,1,0,3:0:0:0:
272,160,251431,70,0,L|296:104,1,60.0000022888184,2|0,0:3|0:0,0:0:0:0:
344,220,251788,1,2,0:0:0:0:
184,268,251967,2,0,L|248:264,1,60.0000022888184,0|0,3:0|1:0,0:0:0:0:
184,176,252324,1,0,0:0:0:0:
88,284,252502,2,0,P|112:336|176:364,1,120.000004577637,2|2,0:0|3:0,0:0:0:0:
260,340,253038,5,0,0:0:0:0:
412,360,253217,2,0,L|348:336,1,60.0000022888184,2|0,0:3|0:0,0:0:0:0:
448,280,253574,1,0,1:0:0:0:
448,280,253931,1,2,0:0:0:0:
364,232,254110,1,0,0:0:0:0:
504,160,254288,102,0,L|428:176,1,59.9999987125397,2|0,0:3|0:0,0:0:0:0:
328,64,254645,1,2,0:0:0:0:
304,56,254735,1,0,0:0:0:0:
280,52,254824,1,0,3:0:0:0:
256,52,254913,1,0,3:0:0:0:
232,56,255002,2,0,P|201:111|207:171,1,119.999997425079,0|2,1:0|0:0,0:0:0:0:
294,131,255538,1,0,3:0:0:0:
104,128,255717,6,0,L|36:138,1,59.9999987125397,2|0,3:0|0:0,0:0:0:0:
152,200,256074,1,2,0:3:0:0:
156,296,256252,2,0,L|120:348,1,60.0000022888184,0|0,3:0|1:0,0:0:0:0:
244,244,256610,1,0,3:0:0:0:
316,308,256788,2,0,L|327:374,1,59.9999987125397,2|0,0:0|0:0,0:0:0:0:
372,236,257145,101,2,0:3:0:0:
340,144,257324,1,0,0:0:0:0:
284,220,257502,1,2,0:0:0:0:
440,152,257681,2,0,L|510:143,1,59.9999987125397,0|0,3:0|1:0,0:0:0:0:
420,16,258038,1,0,0:0:0:0:
340,68,258217,2,0,P|281:82|216:68,1,120.000004577637,2|2,0:0|3:0,0:0:0:0:
130,21,258752,5,0,0:0:0:0:
36,68,258931,1,2,0:3:0:0:
24,88,259020,1,0,0:0:0:0:
16,108,259110,1,0,3:0:0:0:
12,128,259199,1,0,3:0:0:0:
12,148,259288,2,0,P|60:172|128:179,1,119.999997425079,0|2,1:0|0:0,0:0:0:0:
276,159,259824,1,0,0:0:0:0:
200,234,260002,102,0,L|182:303,1,59.9999987125397,2|0,0:3|0:0,0:0:0:0:
190,89,260360,1,2,0:0:0:0:
343,159,260538,1,0,3:0:0:0:
347,179,260627,1,0,3:0:0:0:
351,199,260717,2,0,P|312:254|263:289,1,119.999997425079,0|2,1:0|0:0,0:0:0:0:
130,294,261252,1,0,3:0:0:0:
282,362,261431,6,0,P|350:366|418:350,1,119.999997425079,2|2,3:0|0:3,0:0:0:0:
495,296,261967,1,0,3:0:0:0:
448,161,262145,2,0,L|384:133,1,59.9999987125397,0|0,1:0|3:0,0:0:0:0:
437,44,262502,2,0,L|499:72,1,59.9999987125397,2|0,0:0|0:0,0:0:0:0:
269,74,262860,102,0,L|256:15,1,59.9999987125397,2|0,0:3|0:0,0:0:0:0:
200,164,263217,1,2,0:0:0:0:
61,243,263395,2,0,L|-2:263,1,59.9999987125397,0|0,3:0|1:0,0:0:0:0:
102,133,263752,2,0,L|94:63,1,59.9999987125397,0|2,0:0|0:0,0:0:0:0:
165,286,264110,1,0,3:0:0:0:
307,237,264288,6,0,L|432:250,1,119.999997425079,2|2,3:0|0:3,0:0:0:0:
279,108,264824,1,0,3:0:0:0:
200,184,265002,2,0,B|199:223|199:223|209:265|209:265|207:305,1,119.999997425079,0|2,1:0|0:0,0:0:0:0:
105,261,265538,1,0,0:0:0:0:
80,120,265717,102,0,L|8:116,1,60.0000022888184,2|0,0:3|0:0,0:0:0:0:
200,184,266074,1,2,0:0:0:0:
208,212,266163,1,0,0:0:0:0:
224,236,266252,1,0,3:0:0:0:
248,256,266342,1,0,3:0:0:0:
276,268,266431,2,0,B|320:256|320:256|348:240|348:240|392:228,1,120.000004577637,0|2,1:0|0:0,0:0:0:0:
396,132,266967,1,0,3:0:0:0:
484,20,267145,6,0,B|444:32|444:32|408:32|408:32|356:44,1,120.000004577637,2|2,0:3|0:3,0:0:0:0:
296,120,267681,1,0,0:0:0:0:
162,75,267860,2,0,L|169:16,1,59.9999987125397,0|0,1:0|0:0,0:0:0:0:
277,14,268217,1,2,0:0:0:0:
296,120,268395,1,0,0:0:0:0:
74,148,268574,101,2,0:3:0:0:
214,174,268752,2,0,L|216:240,1,59.9999987125397,0|2,0:0|0:0,0:0:0:0:
162,75,269110,1,0,3:0:0:0:
308,236,269288,2,0,B|340:264|340:264|376:276|376:276|408:304,1,120.000004577637,0|2,1:0|0:0,0:0:0:0:
233,338,269824,1,0,3:0:0:0:
92,332,270002,6,0,L|88:262,1,59.9999987125397,2|0,3:0|0:0,0:0:0:0:
190,257,270360,1,2,0:3:0:0:
42,168,270538,2,0,L|4:215,1,60.0000022888184,0|0,0:0|1:0,0:0:0:0:
133,110,270895,1,0,0:0:0:0:
91,11,271074,102,0,L|27:15,2,60.0000022888184,2|0|2,0:0|0:0|0:3,0:0:0:0:
201,32,271610,1,0,0:0:0:0:
312,28,271788,1,2,0:0:0:0:
324,52,271877,1,0,0:0:0:0:
324,80,271967,1,0,3:0:0:0:
320,108,272056,1,0,3:0:0:0:
308,132,272145,2,0,P|280:176|288:244,1,120.000004577637,0|2,1:0|0:0,0:0:0:0:
428,224,272681,6,0,L|368:204,1,60.0000022888184,0|2,3:0|3:0,0:0:0:0:
289,243,273038,1,0,0:0:0:0:
404,123,273217,2,0,P|416:67|402:4,1,119.999997425079,2|0,0:3|1:0,0:0:0:0:
208,164,273931,2,0,L|192:224,2,60.0000022888184,2|0|6,0:0|3:0|0:0,0:0:0:0:
56,80,274645,6,0,P|63:119|84:152,1,80,0|8,0:0|0:0,0:0:0:0:
220,24,275360,2,0,P|184:52|164:88,1,80,0|2,0:0|0:0,0:0:0:0:
276,132,276074,1,0,0:0:0:0:
360,180,276431,2,0,L|448:160,1,80,8|0,0:0|0:0,0:0:0:0:
337,271,277145,53,2,0:0:0:0:
405,293,277324,1,0,0:0:0:0:
353,341,277502,1,0,0:0:0:0:
204,320,277860,2,0,L|124:324,2,80,8|0|2,0:0|0:0|0:0,0:0:0:0:
260,204,278931,1,0,0:0:0:0:
152,176,279288,2,0,P|188:184|236:172,1,80,8|0,0:0|0:0,0:0:0:0:
120,148,280002,1,2,0:0:0:0:
304,108,280360,54,0,P|300:72|276:32,1,80,0|8,0:0|0:0,0:0:0:0:
336,136,281074,2,0,P|368:144|416:140,1,80,0|2,0:0|0:0,0:0:0:0:
296,152,281788,2,0,P|276:184|268:232,2,80,0|8|0,0:0|0:0|0:0,0:0:0:0:
268,260,282860,54,0,P|236:272|176:272,2,80,2|0|8,0:0|0:0|0:0,0:0:0:0:
361,346,283931,1,0,0:0:0:0:
420,322,284110,1,0,0:0:0:0:
372,280,284288,2,0,P|336:256|300:244,1,80,2|0,0:0|0:0,0:0:0:0:
472,152,285002,2,0,P|436:176|392:184,1,80,8|0,0:0|0:0,0:0:0:0:
308,136,285717,1,2,0:0:0:0:
228,60,286074,54,0,L|216:104,2,40,0|0|8,0:0|0:0|0:0,0:0:0:0:
144,176,286788,2,0,P|164:128|188:108,1,80,0|2,0:0|0:0,0:0:0:0:
104,180,287502,2,0,P|96:220|68:256,2,80,0|8|0,0:0|0:0|0:0,0:0:0:0:
184,260,288574,53,2,0:0:0:0:
244,284,288752,1,0,0:0:0:0:
236,220,288931,1,0,0:0:0:0:
336,160,289288,2,0,P|304:164|248:156,1,80,8|0,0:0|0:0,0:0:0:0:
364,192,290002,2,0,P|400:196|448:212,2,80,2|0|8,0:0|0:0|0:0,0:0:0:0:
244,284,291074,1,0,0:0:0:0:
188,326,291252,1,0,0:0:0:0:
252,352,291431,1,2,0:0:0:0:
376,280,291788,54,0,P|344:304|296:308,2,80,0|8|0,0:0|0:0|0:0,0:0:0:0:
416,296,292860,2,0,P|448:324|468:360,1,80,2|0,0:0|0:0,0:0:0:0:
408,260,293574,2,0,P|420:220|444:192,1,80,8|0,0:0|0:0,0:0:0:0:
347,209,294288,6,0,L|259:205,1,79.9999952316285,4|0,0:0|0:0,0:0:0:0:
181,253,295057,1,2,0:0:0:0:
109,181,295462,1,2,0:0:0:0:
154,92,295846,2,0,L|144:7,1,79.9999952316285
243,29,296759,2,0,L|253:109,1,79.9999952316285,2|0,0:0|0:0,0:0:0:0:
256,192,297716,12,0,303461,0:0:0:0:
