osu file format v4

[General]
AudioFilename: Yu-Gi-Oh_GX_-_Precious_Time,_Glory_Days.mp3
AudioLeadIn: 0
AudioHash: bc011a493994822e067e9993e17b56b7
PreviewTime: -1
SampleSet: Soft

[Metadata]
Title:Precious Time, Glory Days
Artist:Psychic Lover
Creator:gyrus
Version:Normal-Hard

[Difficulty]
HPDrainRate:6
CircleSize:6
OverallDifficulty:7
SliderMultiplier: 1.4
SliderTickRate: 1

[Events]
0,0,"precioius.jpg"
2,15207,20071
2,44700,47302
3,0,163,162,255

[TimingPoints]
1000,348.000000000001,4,2,0

[HitObjects]
192,128,4392,5,0,
256,128,4784,1,0,
320,128,5306,1,0,
256,192,7220,5,0,
320,192,7611,1,0,
320,256,8133,1,0,
128,128,10091,5,0,
192,128,10439,1,0,
192,192,11004,1,0,
128,192,11483,1,0,
256,160,11831,1,0,
352,128,12831,5,0,
288,192,13527,1,0,
352,256,14267,1,0,
288,320,14963,1,0,
160,96,21227,5,0,
256,96,21575,1,0,
160,192,22140,1,0,
256,192,22880,1,0,
256,192,24054,5,0,
352,192,24359,1,0,
256,288,24968,1,0,
352,288,25490,1,0,
128,64,28187,5,0,
192,96,28535,1,0,
128,128,28883,1,0,
192,160,29187,1,0,
256,128,29579,1,0,
256,64,29796,1,0,
320,96,30144,1,0,
320,160,30492,1,0,
152,150,31362,5,0,
156,155,31536,1,0,
160,160,31841,1,0,
224,64,33276,5,0,
256,128,33711,1,0,
288,192,33972,1,0,
320,256,34320,1,0,
128,128,35277,5,0,
192,128,35538,1,0,
128,192,36060,1,0,
192,192,36539,1,0,
128,256,36930,1,0,
192,256,37278,1,0,
352,64,37583,5,0,
352,96,38148,1,0,
352,128,38322,1,0,
160,96,39323,5,0,
256,96,39671,1,0,
192,128,40062,1,0,
288,128,40410,1,0,
224,160,40715,1,0,
192,224,41019,5,0,
256,224,41324,1,0,
160,288,41715,1,0,
224,288,42020,1,0,
288,288,42324,1,0,
160,128,42803,6,0,B|160:128|320:160,1,157.5
160,96,44064,5,0,
256,160,44238,1,0,
160,224,44456,1,0,
128,96,48458,6,0,B|128:96|224:160,1,105
256,64,49676,5,0,
224,128,49850,1,0,
288,128,50067,1,0,
160,96,51242,5,0,
224,96,51546,1,0,
128,192,52112,1,0,
192,192,52460,1,0,
256,192,52808,1,0,
320,96,53330,6,0,B|320:96|320:208,3,105
160,64,54635,5,0,
224,96,54983,1,0,
160,128,55374,1,0,
224,160,55766,1,0,
288,192,56114,1,0,
224,224,56331,1,0,
119,116,56679,5,0,
124,123,56810,1,0,
128,128,57027,1,0,
64,160,57810,5,0,
192,160,58158,1,0,
128,224,58506,1,0,
256,224,58854,1,0,
288,224,59072,1,0,
128,96,59463,5,0,
128,160,59637,1,0,
128,224,59768,1,0,
384,96,60855,5,0,
384,160,61029,1,0,
384,224,61160,1,0,
160,96,62421,5,0,
224,96,62769,1,0,
160,192,63335,1,0,
224,192,63639,1,0,
288,192,63987,1,0,
384,96,64509,6,0,B|384:96|288:192,3,122.5
192,64,65901,5,0,
320,64,66293,1,0,
160,128,66597,1,0,
352,128,66945,1,0,
224,160,67293,1,0,
288,160,67511,1,0,
256,256,67859,5,0,
256,256,67989,1,0,
256,256,68163,1,0,
160,96,68990,5,0,
224,96,69425,1,0,
160,160,69773,1,0,
224,160,70077,1,0,
192,128,70295,1,0,
160,224,70686,6,0,B|160:224|224:256,2,70
224,256,72078,6,0,B|224:256|288:224,2,70
224,128,73557,5,0,
256,96,73905,1,0,
288,128,74471,1,0,
224,160,74819,1,0,
288,160,75167,1,0,
192,96,77037,5,0,
256,96,77211,1,0,
224,128,77385,1,0,
160,160,77559,1,0,
288,160,77994,1,0,
256,256,79169,5,0,
256,224,79386,1,0,
256,192,79604,1,0,
256,160,79952,1,0,
256,128,80256,1,0,
256,96,80474,1,0,
64,320,80691,2,0,B|64:320|480:32,1,490
160,96,82562,5,0,
224,96,82779,1,0,
224,160,82997,1,0,
288,160,83214,1,0,
288,224,83388,1,0,
352,224,83562,1,0,
96,128,84084,5,0,
160,96,84432,1,0,
160,160,84693,1,0,
224,128,84954,2,0,B|224:128|369:46|500:204|352:352,1,402.5
