osu file format v5

[General]
AudioFilename: Bakugan - Japanese.mp3
AudioLeadIn: 0
PreviewTime: -1
Countdown: 1
SampleSet: Normal
StackLeniency: 0.7
Mode: 0
LetterboxInBreaks: 0

[Metadata]
Title:Number One Battle Brawlers
Artist:Psychic Lover
Creator:Ekaru
Version:Normal
Source:Bakugan
Tags:

[Difficulty]
HPDrainRate:6
CircleSize:3
OverallDifficulty:4
SliderMultiplier:1.4
SliderTickRate:2

[Events]
//Background and Video events
0,0,"dandrago1_800_600.jpg"
1,0,"BakuganOP.avi"
//Break Periods
//Storyboard Layer 0 (Background)
//Storyboard Layer 1 (Failing)
//Storyboard Layer 2 (Passing)
//Storyboard Layer 3 (Foreground)
//Storyboard Sound Samples
//Background Colour Transformations
3,100,163,162,255

[TimingPoints]
7525,315.789473684211,4,1,0,50,1

[Colours]
Combo1 : 0,0,0
Combo2 : 255,0,0
Combo3 : 255,141,28
Combo4 : 249,249,0
Combo5 : 216,129,33

[HitObjects]
152,320,7524,1,8
152,208,7840,1,8
256,8,8472,5,0
256,120,8788,1,0
352,64,9103,1,0
352,176,9419,2,2,B|344:256|240:264,1,140
256,368,10051,6,2,B|160:352|152:248,1,140
120,56,10998,1,0
232,56,11314,1,8
176,152,11630,1,0
288,152,11946,2,0,B|464:152,2,140,8|0|8
232,248,12893,6,2,B|232:-40,1,280,2|4
320,40,13840,5,2
384,136,14156,1,0
384,248,14472,1,2
320,344,14788,1,0
208,352,15103,2,0,B|136:304|136:224,1,140,2|4
256,192,15735,12,8,17156
256,24,17630,5,0
256,136,17946,2,8,B|256:296,1,140
144,280,18577,1,0
224,352,18893,1,8
336,352,19209,1,8
416,280,19525,2,0,B|248:280,1,140,0|8
280,168,20156,5,2
208,80,20472,2,0,B|352:80,1,140,2|0
456,80,21103,2,0,B|456:248,1,140,0|2
456,328,21735,2,0,B|312:328,1,140,2|0
200,328,22367,6,0,B|112:248|288:192|192:56,2,280,0|4|0
88,336,23946,5,0
88,224,24261,1,0
168,144,24577,2,0,B|376:144,3,140
464,296,26472,5,0
384,216,26788,1,0
304,296,27103,1,0
224,216,27419,2,2,B|184:288|96:296|32:248|16:136|56:48|176:40,1,420
336,48,28998,5,0
336,160,29314,1,0
448,160,29630,1,0
448,272,29946,2,0,B|384:336|296:248,1,140,2|8
208,272,30577,2,0,B|144:216|216:144,1,140,2|8
320,152,31209,2,0,B|368:88|312:16,1,140,2|4
432,32,31840,5,8
432,144,32156,1,0
432,256,32472,2,2,B|328:336|224:320|160:232,1,280,2|4
456,64,34051,5,0
368,128,34367,1,0
256,128,34682,1,0
184,40,34998,5,4
456,336,35630,5,4
56,336,36261,6,4,B|152:264|216:288|152:176|144:64|280:64|336:72,1,420
440,72,37525,5,0
440,184,37840,1,0
344,128,38156,2,0,B|344:288,1,140
232,272,38788,1,8
232,272,38946,1,8
232,160,39261,2,2,B|64:160,2,140
232,160,40051,5,0
240,272,40367,1,0
128,272,40682,2,0,B|128:112,1,140
232,96,41314,1,8
232,96,41472,1,8
320,24,41788,2,2,B|488:24,2,140
320,24,42577,5,0
208,24,42893,1,0
264,120,43209,2,0,B|264:272,1,140
152,264,43840,2,0,B|192:344|272:352,1,140
368,352,44472,2,0,B|456:328|472:256,1,140,0|4
80,224,47630,5,8
224,56,48261,1,8
368,224,48893,1,2
368,0,49525,1,2
240,184,50156,1,0
400,344,50788,1,0
176,352,51419,2,8,B|264:352|360:304|360:176|336:128,1,280
344,64,52367,5,4
232,64,52682,1,4
112,248,53314,1,8
312,144,53946,1,8
312,368,54577,1,2
416,232,55051,2,2,B|440:112|392:56|296:48|240:88|224:176,1,350
312,224,56156,5,0
200,224,56472,2,0,B|128:160|216:88,1,140
200,104,56946,2,0,B|248:48|360:56|418:113|424:120,1,210,0|4
400,208,57735,5,0
224,344,58367,1,0
224,120,58998,1,0
32,232,59630,1,8
144,232,59946,5,8
256,232,60261,5,8
144,32,60893,1,0
368,40,61525,2,0,B|424:104|456:184|432:240|360:288,1,280
304,184,62472,5,0
192,184,62788,1,0
248,88,63103,1,0
136,88,63419,2,0,B|64:144|72:224,1,140
256,192,64051,12,4,65630
