osu file format v12

[General]
AudioFilename: Cardfight!! Vanguard Opening 6 - Break your Spell.mp3
AudioLeadIn: 0
PreviewTime: 35466
Countdown: 0
SampleSet: Normal
StackLeniency: 0.9
Mode: 0
LetterboxInBreaks: 0
WidescreenStoryboard: 0

[Editor]
Bookmarks: 18280,20232,51451,59256,67061,74866,78829
DistanceSpacing: 1
BeatDivisor: 4
GridSize: 8
TimelineZoom: 1

[Metadata]
Title:Break your spell (TV Size)
TitleUnicode:Break your spell (TV Size)
Artist:Psychic Lover
ArtistUnicode:Psychic Lover
Creator:arviejhay
Version:Normal
Source:カードファイト!! ヴァンガード リンクジョーカー編
Tags:Cardfight!! Vanguard Link Joker Opening
BeatmapID:337302
BeatmapSetID:134497

[Difficulty]
HPDrainRate:3
CircleSize:3
OverallDifficulty:3
ApproachRate:4
SliderMultiplier:0.6
SliderTickRate:1

[Events]
//Background and Video events
Video,0,"Psychic_Lover_--_Break_Your_Spell_.avi"
0,0,"Cardfight.Vanguard.full.1585330_1_1024x768.jpg",0,0
//Break Periods
//Storyboard Layer 0 (Background)
//Storyboard Layer 1 (Fail)
//Storyboard Layer 2 (Pass)
//Storyboard Layer 3 (Foreground)
//Storyboard Sound Samples
//Background Colour Transformations
3,100,255,0,0

[TimingPoints]
720,243.90243902439,4,1,0,44,1,0
12549,-100,4,2,0,5,0,0
12854,-100,4,2,2,44,0,0
12976,-100,4,2,0,5,0,0
13280,-100,4,1,0,44,0,0
13524,-100,4,2,0,5,0,0
13829,-100,4,2,2,44,0,0
13951,-100,4,2,0,5,0,0
14256,-100,4,1,0,44,0,0
19256,-100,4,2,0,44,0,0
20476,-100,4,1,0,44,0,0
22061,-100,4,2,0,5,0,0
22305,-100,4,1,0,44,0,0
23037,-100,4,2,0,5,0,0
23280,-100,4,1,0,44,0,0
25963,-100,4,2,0,5,0,0
26207,-100,4,1,0,44,0,0
26939,-100,4,2,0,5,0,0
27183,-100,4,1,0,44,0,0
28219,-100,4,2,2,44,0,0
28341,-100,4,2,0,5,0,0
28707,-100,4,2,2,44,0,0
28829,-100,4,2,0,5,0,0
29195,-100,4,2,2,44,0,0
29317,-100,4,2,0,5,0,0
29683,-100,4,2,2,44,0,0
29805,-100,4,2,0,5,0,0
30171,-100,4,2,2,44,0,0
30293,-100,4,2,0,5,0,0
30659,-100,4,2,2,44,0,0
30780,-100,4,2,0,5,0,0
31146,-100,4,2,2,44,0,0
31268,-100,4,2,0,5,0,0
31634,-100,4,2,2,44,0,0
31756,-100,4,1,0,44,0,0
51451,-100,4,1,0,44,0,1
65659,-100,4,2,0,5,0,1
65780,-100,4,1,0,44,0,1
66146,-100,4,1,0,44,0,0
67000,-100,4,1,0,44,0,1
83707,-100,4,1,0,44,0,0

[Colours]
Combo1 : 192,192,192
Combo2 : 0,128,192
Combo3 : 173,82,148
Combo4 : 0,255,255
Combo5 : 200,13,17
Combo6 : 255,19,0

[HitObjects]
72,192,4622,5,4,0:0:0:0:
144,96,5110,2,0,P|208:80|256:104,1,120
320,200,6085,2,0,P|368:224|432:192,1,120,0|4,0:0|0:0,0:0:0:0:
256,80,8524,5,4,0:0:0:0:
352,152,9012,2,0,P|392:200|360:248,1,120
264,304,9988,2,0,P|192:312|152:272,1,120,0|4,0:0|0:0,0:3:0:0:
320,32,12427,6,0,B|432:88|432:240,2,240,0|0|4,0:0|0:0|0:0,0:0:0:0:
216,88,14866,1,0,0:0:0:0:
144,184,15354,1,4,0:0:0:0:
216,280,15841,1,0,0:0:0:0:
288,184,16329,5,4,0:0:0:0:
328,88,16817,2,0,B|272:110|272:110|209:84,1,120,0|0,0:0|0:0,3:0:0:0:
208,200,17793,1,0,0:0:0:0:
256,192,18280,12,4,20232,0:0:0:0:
104,64,20963,37,0,0:0:0:0:
104,192,21451,1,0,0:0:0:0:
224,192,21939,2,0,P|247:244|222:297,1,120
106,297,22915,2,0,P|80:244|104:191,1,120
224,192,23890,1,0,0:0:0:0:
280,192,24134,6,4,P|312:200|296:160,1,90
225,112,24866,1,0,0:0:0:0:
145,201,25354,1,0,0:0:0:0:
280,191,25841,2,0,P|328:223|376:183,1,120
400,72,26817,2,0,P|352:40|304:80,1,120
248,112,27549,2,0,L|200:152,1,60
152,184,28037,6,0,P|144:344|184:184,2,480,4|0|0,0:0|0:0|0:0,0:0:0:0:
344,96,32915,5,0,0:0:0:0:
208,296,33890,1,0,0:0:0:0:
438,336,34866,1,4,0:0:0:0:
440,336,35841,6,0,B|472:304|472:304|408:256,1,120,0|0,0:0|0:0,0:0:0:0:
300,215,36817,2,0,B|236:271|236:271|204:247,1,120,0|8,0:0|0:0,0:0:0:0:
110,179,37793,2,0,B|70:139|70:139|110:75,2,120
232,184,39256,1,8,0:0:0:0:
240,64,39744,6,0,B|296:104|296:104|360:112,1,120
464,144,40719,2,0,B|496:192|496:192|440:224,1,120,0|8,0:0|0:0,0:0:0:0:
312,264,41695,2,0,P|216:288|144:256,2,180,0|4|12,0:0|0:0|0:0,0:0:0:0:
312,144,43646,5,4,0:0:0:0:
203,157,44134,2,0,P|187:213|139:261,2,120
248,48,45598,1,4,0:0:0:0:
128,56,46085,2,0,P|87:99|64:160,2,120
248,48,47549,1,0,0:0:0:0:
416,216,48524,1,0,0:0:0:0:
216,296,49500,5,4,0:0:0:0:
184,208,49866,1,4,0:0:0:0:
272,216,50232,1,4,0:0:0:0:
104,128,51451,6,0,P|136:88|200:64,1,120,4|0,0:0|0:0,0:0:0:0:
320,64,52427,2,0,P|368:72|424:120,1,120
304,152,53402,2,0,B|216:376|216:376|216:376|216:376|120:144,1,480
96,8,55841,5,0,0:0:0:0:
192,88,56329,1,0,0:0:0:0:
280,168,56817,1,0,0:0:0:0:
368,96,57305,2,0,B|456:192|456:192|384:272|384:272|328:336|328:336|248:256|248:256|208:216,1,480,0|4,0:0|0:0,0:0:0:0:
48,104,60232,5,0,0:0:0:0:
160,176,61207,1,4,0:0:0:0:
272,176,61695,1,4,0:0:0:0:
272,280,62183,1,4,0:0:0:0:
160,280,62671,1,4,0:0:0:0:
256,192,63159,12,0,65110,0:0:0:0:
256,120,65476,6,0,L|352:120,1,90
392,120,66085,1,0,0:0:0:0:
456,232,67061,6,0,B|392:272|392:272|344:256,1,120,4|0,0:0|0:0,0:0:0:0:
216,216,68037,2,0,B|160:192|160:192|184:136,1,120
208,56,69012,2,0,B|112:56|80:56|80:56|80:176|80:176|80:288|80:288|208:288,1,480
320,272,71451,5,0,0:0:0:0:
256,176,71939,1,0,0:0:0:0:
336,88,72427,1,0,0:0:0:0:
216,64,72915,2,0,B|88:24|-48:176|72:368|216:320,1,480
216,64,75841,5,0,0:0:0:0:
440,136,76817,1,4,0:0:0:0:
368,240,77305,1,4,0:0:0:0:
288,328,77793,1,4,0:0:0:0:
240,216,78281,1,4,0:0:0:0:
160,304,78768,1,0,0:0:0:0:
48,96,79744,5,0,0:0:0:0:
160,48,80232,1,0,0:0:0:0:
272,96,80719,2,0,L|368:96,1,90
456,96,81451,1,0,0:0:0:0:
456,160,81695,2,0,L|456:288,1,120
336,280,82671,2,0,B|256:280|256:280|256:192|256:192|184:192,1,240
392,72,84622,2,0,B|256:272|256:272|112:72,1,480,0|4,0:0|0:0,0:0:0:0:
256,192,87549,5,4,0:0:0:0:
256,192,88524,69,4,0:0:0:0:
