osu file format v5

[General]
AudioFilename: Prozzak_-_Sucks To Be You.mp3
AudioLeadIn: 507
PreviewTime: -1
Countdown: 1
SampleSet: Normal
StackLeniency: 0.7
Mode: 0
LetterboxInBreaks: 1

[Metadata]
Title:Sucks To Be You
Artist:Prozzak
Creator:Real1
Version:Normal
Source:
Tags:

[Difficulty]
HPDrainRate:6
CircleSize:4
OverallDifficulty:5
SliderMultiplier:1.4
SliderTickRate:1

[Events]
//Background and Video events
0,0,"stby.jpg"
//Break Periods
2,14357,15837
2,116116,134637
//Storyboard Layer 0 (Background)
//Storyboard Layer 1 (Failing)
//Storyboard Layer 2 (Passing)
//Storyboard Layer 3 (Foreground)
//Storyboard Sound Samples
//Background Colour Transformations
3,100,128,128,192

[TimingPoints]
954,480.000000000001,4,1,0,100,1

[Colours]
Combo1 : 180,180,180
Combo2 : 133,145,192
Combo3 : 32,32,32
Combo4 : 223,223,223

[HitObjects]
56,200,954,5,0
192,200,1434,2,0,B|408:200,1,210
400,200,2634,1,0
256,344,3354,5,0
256,272,3594,1,8
256,200,3834,1,0
256,128,4074,1,8
256,56,4314,1,8
256,56,4554,1,8
392,216,5274,6,0,B|152:264,1,210
128,128,6474,2,0,B|48:144,1,70
216,328,7914,5,0
288,328,8154,1,0
360,328,8394,2,0,B|496:328,1,70
432,192,9114,6,0,B|184:192,1,210
223,191,10314,1,0
432,192,11034,5,0
288,192,11514,1,8
288,192,11754,1,8
80,192,12474,1,0
184,288,12954,6,0,B|400:288,1,210
400,144,14154,1,4
256,192,17034,6,0,B|256:272,1,70
256,262,17514,1,0
328,264,17754,2,0,B|184:264,1,140
392,336,18954,6,0,B|320:336,3,70
432,208,20874,6,0,B|352:208,1,70
362,208,21354,1,0
360,280,21594,2,0,B|360:136,1,140
152,192,22794,5,0
224,192,23034,1,0
184,136,23274,2,4,B|184:232,2,70
280,264,24714,6,0,B|200:264,1,70
210,264,25194,1,0
208,192,25434,2,0,B|208:336,1,140
360,184,26634,5,0
360,112,26874,1,0
360,184,27114,1,0
360,112,27354,1,0
80,320,28554,6,0,B|152:320,2,70
150,320,29274,1,8
256,192,30714,12,4,31674
64,192,32394,6,0,B|216:192,1,140
204,192,33114,1,0
272,192,33354,1,0
344,192,33594,1,0
32,352,34794,5,0
104,352,35034,1,0
32,352,35274,2,0,B|32:208,1,140
88,176,35994,6,8,B|152:136,1,70
208,104,36474,1,0
280,104,36714,2,0,B|280:192,1,70
280,240,37194,2,0,B|200:240,1,70
136,240,37674,1,0
136,240,37914,1,0
136,240,38154,2,0,B|136:312,1,70
256,192,40074,5,0
312,152,40314,1,8
368,192,40554,1,0
312,232,40794,1,8
264,280,41034,1,0
192,280,41274,2,8,B|40:280,1,140
144,88,42474,5,0
144,88,42714,1,0
144,88,42954,2,0,B|144:232,1,140
424,192,44394,5,0
424,192,44634,1,0
352,192,44874,2,8,B|280:192,1,70
88,280,45834,6,0,B|160:280,3,70
448,88,47754,5,0
448,88,47994,1,0
448,88,48234,1,0
448,88,48474,1,0
168,296,49674,5,0
240,296,49914,1,0
168,296,50154,1,0
168,296,50394,2,0,B|168:224,1,70
448,192,51594,6,4,B|224:192,1,210
64,312,53514,6,0,B|128:256,2,70
136,320,54234,1,0
464,192,55434,5,0
464,192,55674,1,0
464,192,55914,1,0
464,192,56154,1,0
112,192,57354,5,0
184,192,57594,1,0
256,192,57834,1,0
328,192,58074,1,0
184,344,59274,6,4,B|96:232|184:120,1,210
456,336,61194,5,8
384,320,61434,1,8
432,264,61674,1,0
360,248,61914,1,0
288,248,62154,2,0,B|136:248,1,140
148,248,62874,1,0
148,248,63114,1,0
160,104,63594,1,8
160,104,64074,1,4
376,280,65034,5,0
304,280,65274,1,0
232,280,65514,1,0
160,280,65754,2,0,B|160:128,1,140
160,140,66474,1,8
160,140,66714,1,0
160,140,66954,1,8
296,144,67434,6,0,B|296:224,1,70
296,280,67914,2,4,B|296:370,1,70
64,192,69114,6,0,B|280:192,1,210
344,192,70074,1,8
344,192,70314,1,8
344,264,70554,2,0,B|208:264,1,70
200,264,71034,1,0
128,264,71274,1,0
376,136,72714,6,0,B|376:208,3,70
376,206,73914,1,4
32,120,75114,6,0,B|112:120,2,70
120,224,76074,5,0
176,184,76314,1,0
216,240,76554,1,0
264,192,76794,1,0
312,136,77034,2,0,B|416:32,1,140
410,37,77754,1,0
408,104,77994,2,0,B|408:184,1,70
408,174,78474,1,0
408,174,78714,1,4
120,192,80394,5,0
120,192,80634,1,0
192,192,80874,1,0
192,192,81114,1,0
152,136,81354,2,0,B|152:272,1,70
472,72,82794,6,0,B|472:144,2,70
72,192,84714,5,0
72,192,84954,1,0
72,192,85194,2,4,B|72:280,1,70
272,192,86154,5,0
272,192,86394,1,0
272,192,86634,1,0
272,120,86874,2,0,B|272:272,1,140
72,320,88074,5,0
144,320,88314,1,0
216,312,88554,1,0
208,232,88794,2,0,B|72:232,1,70
240,112,89994,6,0,B|320:112,2,70
288,56,90714,1,0
72,328,91914,6,0,B|144:328,1,70
208,328,92394,1,0
280,328,92634,1,4
80,200,93834,6,4,B|368:200,1,280
360,200,95034,1,0
120,72,95754,6,0,B|192:72,1,70
190,72,96234,2,0,B|176:144,1,70
88,256,97674,6,0,B|0:288|216:336,1,140
154,321,98394,1,0
480,192,99594,5,0
408,192,99834,2,0,B|320:192,1,70
264,192,100314,1,4
120,184,101514,5,0
192,192,101754,1,0
264,200,101994,1,8
264,200,102234,1,8
336,192,102474,1,0
408,184,102714,2,0,B|408:40,1,140
480,56,103434,1,0
480,192,103914,2,8,B|480:336,1,140
200,328,105354,5,0
200,328,105594,2,0,B|200:200,1,70
224,192,106074,1,0
224,192,106314,1,0
224,192,106554,1,0
288,216,106794,2,0,B|432:216,1,140
312,304,107754,1,0
312,304,107994,1,0
312,304,108234,2,4,B|168:304,1,140
88,192,109194,5,0
88,192,109434,2,0,B|224:128|304:192,1,210
336,232,110394,1,0
392,192,110634,1,0
448,152,110874,1,8
448,152,111114,1,8
456,288,111594,1,4
48,192,113034,6,4,B|336:192,1,280
256,48,115434,6,0,B|256:120,2,70
256,192,135834,5,0
328,192,136074,1,0
256,192,136314,1,0
184,192,136554,2,0,B|184:48,1,140
256,40,137274,1,0
296,96,137514,1,0
336,152,137754,1,0
328,224,137994,2,0,B|200:304,1,140
72,336,138954,2,0,B|160:336,1,70
120,128,139914,6,0,B|192:128,3,70
256,128,140874,1,0
328,136,141114,1,0
376,192,141354,2,0,B|376:336,1,140
232,320,142314,1,0
232,248,142554,1,0
232,320,142794,1,0
432,128,143994,6,0,B|432:200,4,70
432,264,145434,1,0
432,336,145674,2,4,B|240:336,1,140
80,296,147594,6,0,B|152:296,1,70
216,296,148074,1,0
216,296,148314,2,0,B|216:208,1,70
216,226,148794,1,4
424,328,149994,6,0,B|352:328,2,70
408,40,152634,6,4,B|344:392|480:240|312:232,1,280
304,208,153834,1,0
304,208,154074,1,0
160,208,154554,1,0
248,88,155034,5,0
384,88,155514,1,0
400,224,155994,2,8,B|320:224,2,70
248,296,156954,5,0
104,304,157434,1,0
104,160,157914,1,8
104,160,158154,1,8
104,160,158394,1,8
232,104,158874,5,0
232,104,159354,1,0
368,104,159834,1,8
368,176,160074,1,8
368,248,160314,1,8
256,336,160794,5,0
112,336,161274,1,0
112,192,161754,2,8,B|184:192,2,70
312,152,162954,6,0,B|360:216,3,70
224,256,164154,5,0
224,112,164634,1,0
104,184,165114,2,8,B|184:184,2,70
440,72,167034,6,0,B|384:264|192:280,1,280
64,192,168714,6,8,B|152:192,3,70
280,256,170634,6,8,B|368:256,1,70,0|0
344,192,171114,2,8,B|248:192,1,70
64,192,172554,5,0
136,192,172794,1,0
64,192,173034,1,0
136,192,173274,1,0
480,192,174474,6,4,B|192:192,1,280
200,192,175674,1,0
448,320,176394,5,0
384,288,176634,2,0,B|384:208,1,70
384,218,177114,1,0
64,64,178314,6,0,B|120:120,3,70
400,312,180234,6,0,B|400:240,1,70
400,168,180714,2,0,B|400:86,1,70
64,200,182154,5,0
136,200,182394,2,0,B|208:200,1,70
206,200,182874,1,0
360,56,184074,5,0
360,128,184314,1,0
360,200,184554,2,0,B|360:336,1,70
256,192,185754,12,4,188634
