osu file format v5

[General]
AudioFilename: Prozzak_-_Sucks To Be You.mp3
AudioLeadIn: 507
PreviewTime: -1
Countdown: 1
SampleSet: Normal
StackLeniency: 0.7
Mode: 0
LetterboxInBreaks: 1

[Metadata]
Title:Sucks To Be You
Artist:Prozzak
Creator:Real1
Version:Hard
Source:
Tags:

[Difficulty]
HPDrainRate:7
CircleSize:4
OverallDifficulty:7
SliderMultiplier:1.7
SliderTickRate:2

[Events]
//Background and Video events
0,0,"stby.jpg"
//Break Periods
2,14357,15837
2,119474,134934
//Storyboard Layer 0 (Background)
//Storyboard Layer 1 (Failing)
//Storyboard Layer 2 (Passing)
//Storyboard Layer 3 (Foreground)
//Storyboard Sound Samples
//Background Colour Transformations
3,100,128,128,192

[TimingPoints]
954,480.000000000001,4,1,0,100,1

[Colours]
Combo1 : 192,192,192
Combo2 : 133,145,192
Combo3 : 32,32,32
Combo4 : 223,223,223

[HitObjects]
88,88,954,1,0
88,160,1194,1,0
88,232,1434,1,0
88,304,1674,1,0
88,304,1914,1,0
224,304,2394,1,8
224,160,2874,5,0
224,88,3114,1,0
296,88,3354,1,0
296,160,3594,1,0
224,160,3834,1,0
224,160,4074,1,0
224,88,4314,1,0
296,88,4554,1,0
224,88,4794,1,0
88,112,5274,1,8
336,216,5994,5,0
336,216,6234,2,0,B|144:216,1,170
408,216,7194,1,8
112,312,7914,5,0
152,216,8154,1,0
192,312,8394,1,0
152,216,8634,1,0
296,136,9114,1,8
408,176,9354,6,0,B|408:328,1,85
336,320,10074,1,0
264,320,10314,1,0
200,280,10554,1,0
232,216,10794,1,0
232,216,11034,1,0
232,216,11274,1,0
288,256,11514,1,0
360,136,11994,1,8
192,96,12474,1,0
72,320,12954,6,0,B|464:56,1,425
168,72,16314,5,2
72,208,16794,1,2
104,288,17034,5,0
104,288,17154,1,0
104,288,17274,1,0
176,336,17514,1,0
256,336,17754,1,4
208,168,18234,5,2
312,32,18714,1,2
376,88,18954,5,0
376,176,19194,1,0
464,176,19434,1,0
464,88,19674,1,0
232,216,20154,5,2
240,48,20634,1,2
80,112,20874,5,0
80,112,20994,1,0
80,112,21114,1,0
128,184,21354,1,0
176,256,21594,1,4
256,192,21834,12,4,23514
80,304,23994,5,2
168,160,24474,1,2
248,96,24714,5,0
248,96,24834,1,0
248,96,24954,1,0
160,96,25194,2,0,B|240:480|368:40,1,425
472,168,26634,6,0,B|472:240|472:368,1,170
384,336,27354,1,0
384,336,27594,2,0,B|298:336,1,85
80,120,28554,5,0
80,120,28674,1,0
80,120,28794,1,0
160,120,29034,1,0
240,120,29274,2,4,B|240:296,1,170
256,192,30714,12,0,31674
112,304,32394,5,0
112,304,32514,1,0
112,304,32634,1,0
192,304,32874,2,0,B|336:304,1,85
400,192,33594,1,4
296,56,34074,5,2
224,208,34554,1,2
144,192,34794,5,0
144,192,35034,1,0
144,104,35274,1,0
312,288,35994,5,2
384,136,36474,1,2
312,112,36714,1,0
312,112,36954,1,0
312,112,37194,1,0
392,112,37434,1,0
392,192,37674,1,0
392,272,37914,2,0,B|192:272,1,170
64,304,38874,1,2
64,136,39354,1,6
256,296,40074,5,0
256,296,40194,1,0
256,296,40314,1,0
256,208,40554,1,0
256,120,40794,1,0
256,208,41034,1,0
256,120,41274,1,0
88,120,41754,5,2
248,64,42234,1,2
328,72,42474,5,0
368,144,42714,1,0
352,224,42954,1,0
272,200,43194,5,0
136,96,43674,1,0
184,256,44154,1,0
80,192,44394,5,0
80,192,44514,1,0
80,192,44634,1,0
168,192,44874,2,0,B|304:192,1,85
400,88,45834,6,0,B|352:88,4,42.5
400,168,46554,1,0
312,168,46794,1,4
256,192,47274,12,4,48954
96,136,49674,5,0
96,136,49794,1,0
96,136,49914,1,0
184,136,50154,2,0,B|264:520|392:80,1,425
256,192,51594,12,0,52794
240,176,53514,6,0,B|192:176,4,42.5
304,224,54234,1,0
336,144,54474,1,0
256,192,55434,12,0,56634
56,48,57354,5,0
120,104,57594,1,0
192,152,57834,1,0
248,208,58074,2,0,B|368:208,1,85
256,192,58554,12,4,60474
88,240,60954,5,0
152,184,61194,1,8
88,128,61434,1,8
160,88,61674,1,0
232,48,61914,1,0
312,48,62154,1,0
392,48,62394,1,0
440,112,62634,1,0
368,160,62874,1,8
368,160,63114,1,8
200,160,63594,1,0
312,280,64074,1,4
128,304,65034,5,0
128,216,65274,1,0
128,304,65514,1,0
208,304,65754,1,0
208,216,65994,1,0
208,304,66234,1,0
208,216,66474,1,0
152,152,66714,1,0
128,72,66954,2,0,B|296:72,1,85
296,72,67434,1,0
296,152,67674,2,4,B|296:240,1,85
208,232,68154,5,2
216,64,68634,1,2
80,56,69114,5,0
80,56,69354,1,0
160,48,69594,1,0
160,48,69834,1,0
168,128,70074,2,0,B|56:272,1,170
56,344,70794,2,4,B|344:344,1,255
160,264,71994,5,2
320,152,72474,1,2
384,96,72714,5,0
320,152,72954,1,0
256,208,73194,1,0
200,272,73434,1,0
144,336,73674,1,0
80,272,73914,1,0
96,104,74394,5,2
32,264,74874,1,2
40,344,75114,6,0,B|112:280,1,85
168,232,75594,1,0
336,224,76074,5,0
336,224,76194,1,0
336,224,76314,1,0
336,136,76554,2,0,B|240:224|128:136,1,170
104,200,77274,1,0
104,120,77514,1,0
184,120,77754,1,0
184,200,77994,1,0
184,280,78234,2,0,B|88:280,2,85
360,288,79194,5,2
192,288,79674,1,2
184,120,80154,1,0
256,192,80394,5,0
256,192,80514,1,0
256,192,80634,1,0
336,216,80874,1,0
272,272,81114,1,0
424,280,81594,1,4
464,72,82074,5,0
208,88,82554,1,8
88,312,83034,1,0
328,232,83514,1,8
88,144,83994,1,4
416,232,84714,6,0,B|368:232,3,42.5
416,320,85434,6,0,B|216:320,1,170
256,192,86154,12,4,87354
88,192,88074,5,0
88,272,88314,1,0
168,272,88554,1,0
168,192,88794,1,0
128,112,89034,1,4
256,192,89274,12,4,91194
112,176,91914,5,0
112,88,92154,1,0
200,88,92394,1,0
200,176,92634,1,0
272,136,92874,1,4
256,192,93114,12,4,95034
360,88,95754,6,0,B|360:176,1,85
272,168,96234,2,0,B|272:80,1,85
256,192,96714,12,4,98874
136,192,99594,5,0
216,192,99834,1,0
216,272,100074,2,0,B|128:272,1,85
440,328,101514,5,0
352,328,101754,1,8
440,328,101994,1,0
440,240,102234,1,8
440,152,102474,1,0
440,64,102714,1,8
352,64,102954,1,0
264,64,103194,1,8
176,64,103434,1,0
88,64,103674,1,8
88,144,103914,2,0,B|88:320,1,170
168,320,104634,5,8
248,320,104874,1,0
328,320,105114,1,8
408,320,105354,2,0,B|408:232,3,85
408,152,106314,1,0
344,88,106554,1,8
256,72,106794,1,0
168,64,107034,2,8,B|168:328,1,255
168,320,107994,1,8
168,320,108234,1,0
168,320,108474,2,8,B|496:321,1,255
400,232,109434,5,0
480,232,109674,1,0
480,152,109914,1,8
480,232,110154,1,0
400,232,110394,1,8
312,232,110634,1,0
224,232,110874,2,8,B|224:48,1,170
224,62,111834,1,4
384,64,112314,5,2
448,216,112794,1,2
432,352,113034,6,4,B|480:152|-40:376|64:200,1,425
360,80,115434,5,0
360,80,115674,1,0
360,160,115914,1,4
104,88,116634,5,0
272,88,117114,1,8
352,88,117354,1,8
352,88,117594,1,0
352,256,118074,1,0
184,240,118554,1,8
136,312,118794,1,8
96,240,119034,1,8
256,192,135834,5,0
336,192,136074,1,0
336,272,136314,1,0
256,272,136554,1,0
168,272,136794,1,0
256,272,137034,1,0
256,192,137274,1,0
336,192,137514,1,8
336,192,137754,1,8
336,272,137994,1,0
336,272,138234,1,0
416,272,138474,1,0
248,272,138954,1,4
176,224,139194,5,2
336,160,139674,1,2
368,72,139914,6,0,B|280:72,1,85
200,72,140394,1,8
200,72,140634,1,8
200,152,140874,1,0
200,152,141114,1,0
200,232,141354,1,8
200,312,141594,1,8
112,312,141834,2,0,B|112:152,1,85
112,144,142314,1,8
112,144,142554,1,8
112,56,142794,2,4,B|216:56,1,85
416,64,143994,6,0,B|416:176,1,85
328,152,144474,1,8
256,104,144714,1,8
328,64,144954,1,0
328,64,145194,1,0
328,152,145434,1,8
328,64,145674,2,4,B|152:64,1,170
88,112,146394,5,0
80,280,146874,1,2
224,192,147354,1,2
336,280,147594,6,0,B|0:280,1,255
112,112,148794,1,4
152,288,149274,5,0
152,200,149514,1,0
352,72,149994,5,0
352,152,150234,1,0
432,152,150474,1,0
176,192,151194,5,0
344,192,151674,1,0
256,48,152154,1,0
456,40,152634,6,0,B|320:320|320:320|208:328,1,340
208,320,153834,2,8,B|120:320,1,85
112,152,154554,1,4
256,56,155034,5,0
256,224,155514,1,0
400,128,155994,1,8
424,208,156234,1,8
456,288,156474,1,12
384,272,156954,5,0
216,264,157434,1,0
104,128,157914,1,8
104,128,158154,1,8
104,128,158394,1,12
296,112,158874,5,0
288,280,159354,1,0
128,224,159834,1,8
184,160,160074,1,8
240,96,160314,1,12
424,208,160794,5,0
424,208,161274,1,0
424,40,161754,1,8
360,96,161994,1,8
296,152,162234,1,12
408,96,162954,6,0,B|328:96,4,42.5
360,168,163674,1,0
272,168,163914,1,4
152,192,164634,5,0
320,192,165114,1,0
256,48,165594,1,8
328,88,165834,1,8
392,136,166074,1,12
224,120,166554,5,4
192,288,167034,5,0
192,288,167154,1,0
192,288,167274,1,0
192,200,167514,1,0
192,112,167754,1,4
256,192,168714,12,4,169914
56,56,170634,6,0,B|256:216,1,170
248,216,171354,1,4
256,192,172554,12,0,173754
112,112,174474,6,0,B|168:112,6,42.5
200,112,175434,1,4
376,136,176394,6,0,B|376:232,1,85
288,216,176874,2,0,B|288:120,1,85
112,120,177594,5,2
248,224,178074,1,2
120,328,178314,5,0
72,272,178554,1,8
72,200,178794,1,0
72,272,179034,1,8
72,200,179274,1,0
72,272,179514,1,4
440,64,180234,5,0
376,120,180474,1,0
320,184,180714,1,0
264,248,180954,1,4
152,120,181434,5,2
160,288,181914,1,2
80,288,182154,5,0
80,288,182394,1,8
160,288,182634,1,0
160,288,182874,1,8
80,288,183114,1,0
80,288,183354,1,4
272,128,184074,6,8,B|112:128,1,85
184,208,184554,2,8,B|336:208,1,85
104,144,185274,5,2
272,144,185754,1,2
256,192,186234,12,4,188634
