osu file format v5

[General]
AudioFilename: Prozzak_-_Sucks To Be You.mp3
AudioLeadIn: 507
PreviewTime: -1
Countdown: 1
SampleSet: Normal
StackLeniency: 0.7
Mode: 0
LetterboxInBreaks: 1

[Metadata]
Title:Sucks To Be You
Artist:Prozzak
Creator:Real1
Version:Easy
Source:
Tags:

[Difficulty]
HPDrainRate:6
CircleSize:3
OverallDifficulty:4
SliderMultiplier:1.4
SliderTickRate:1

[Events]
//Background and Video events
0,0,"stby.jpg"
//Break Periods
2,14357,15837
//Storyboard Layer 0 (Background)
//Storyboard Layer 1 (Failing)
//Storyboard Layer 2 (Passing)
//Storyboard Layer 3 (Foreground)
//Storyboard Sound Samples
//Background Colour Transformations
3,100,128,128,192

[TimingPoints]
954,480.000000000001,4,1,0,100,1

[Colours]
Combo1 : 238,238,238
Combo2 : 138,138,198
Combo3 : 32,32,32
Combo4 : 192,192,192

[HitObjects]
48,192,954,1,0
184,192,1434,1,8
320,192,1914,1,4
72,320,2874,5,0
208,320,3354,1,8
344,320,3834,1,4
104,64,5754,6,0,B|376:192,1,280
256,72,7914,6,0,B|256:144,2,70
360,256,9114,5,0
216,256,9594,1,0
72,256,10074,1,8
304,104,11034,5,0
392,216,11514,1,0
280,296,11994,1,0
144,320,12474,1,0
120,200,12954,6,8,B|480:200,1,350
88,192,17034,6,0,B|160:192,3,70
472,344,18954,6,0,B|416:296,3,70
152,72,20874,6,0,B|400:328,1,350
424,112,22794,6,0,B|352:112,1,70
216,120,23514,1,0
480,344,24714,6,0,B|176:160,1,350
384,120,26634,6,0,B|384:192,3,70
56,64,28554,6,0,B|88:328|224:240,1,280
256,192,29994,12,4,31674
120,88,32394,6,0,B|96:328|360:216,1,350
464,328,34794,6,0,B|376:328,2,70
256,288,35994,5,0
112,288,36474,1,8
112,144,36954,2,0,B|400:144,1,280
344,272,38394,1,8
88,288,40074,6,0,B|232:288,1,140
440,288,41274,1,4
184,32,42474,6,0,B|184:128,2,70
464,344,44394,6,0,B|96:344,1,350
64,216,46074,6,0,B|208:216,1,140
432,240,47754,6,0,B|360:240,3,70
440,56,49674,6,0,B|440:144,1,70
440,264,50394,1,8
80,336,51594,6,0,B|456:336,1,350
256,216,53514,6,0,B|256:144,1,70
384,96,54234,1,8
104,312,55434,6,0,B|216:408|272:160,1,280
480,352,57354,6,0,B|408:296,1,70
312,224,58074,1,8
64,192,59274,6,0,B|64:120,3,70
344,104,61194,6,0,B|128:104,1,210
144,240,62394,2,0,B|240:240,1,70
352,240,63114,1,8
352,104,63594,2,0,B|152:104,1,140
400,304,65034,6,0,B|400:152,1,140
264,192,65994,2,0,B|176:192,1,70
48,176,66714,2,0,B|48:328,1,140
184,320,67674,2,0,B|280:184,1,140
408,192,69114,5,0
264,192,69594,1,8
120,192,70074,2,0,B|120:344,1,140
256,336,71034,2,4,B|456:336,1,140
72,200,72714,6,0,B|432:200,1,350
88,104,75114,6,0,B|160:104,2,70
224,72,76074,6,0,B|368:200,1,140
256,280,77034,1,8
112,280,77514,2,0,B|80:216|112:128,1,140
240,112,78474,2,8,B|240:184,1,70
112,280,80394,6,0,B|384:280|232:64,1,350
56,200,82794,6,0,B|136:200,2,70
216,64,83994,5,0
224,200,84474,2,0,B|72:232|200:336,1,140
280,344,85434,1,4
376,160,86154,6,0,B|304:160,1,70
168,160,86874,1,8
256,336,88074,6,0,B|256:120,1,210
408,112,89994,6,0,B|408:184,1,70
400,320,90714,1,8
72,184,91914,6,0,B|152:184,3,70
456,336,93834,6,0,B|376:336,1,70
248,328,94554,1,8
464,56,95754,6,0,B|376:56,3,70
144,304,97674,6,0,B|224:304,3,70
472,336,99594,6,0,B|224:168,1,280
56,144,101514,6,0,B|56:360,1,210
192,336,102714,1,8
328,336,103194,1,8
384,208,103674,2,4,B|152:208,1,210
424,312,105354,6,0,B|344:312,3,70
216,304,106554,1,0
216,160,107034,2,0,B|216:80,1,70
336,160,107754,2,0,B|336:232,2,70
96,304,109194,6,0,B|456:304,1,350
424,168,110874,2,0,B|320:168,1,70
216,168,111594,1,4
256,192,112074,12,4,113754
88,256,115434,6,0,B|184:256,1,70
224,256,115914,1,4
