osu file format v5

[General]
AudioFilename: The Smile of You.mp3
AudioLeadIn: 0
AudioHash: 3271790bf4774d2540ed7eedca4d20fb
PreviewTime: -1
Countdown: 1
SampleSet: Soft
EditorBookmarks: 14590

[Metadata]
Title:The Smile of You
Artist:Pronged Cat Master feat.JESSY
Creator:Maximum
Version:Hard

[Difficulty]
HPDrainRate:5
CircleSize:5
OverallDifficulty:5
SliderMultiplier: 1.4
SliderTickRate: 2

[Events]
//Background and Video events
0,-100000,"elebitswall.jpg"
//Break Periods
2,62240,71208
2,110107,112237
//Storyboard Layer 0 (Background)
//Storyboard Layer 1 (Failing)
//Storyboard Layer 2 (Passing)
//Storyboard Layer 3 (Foreground)
//Storyboard Sound Samples
//Background Colour Transformations
3,100,163,162,255

[TimingPoints]
14614,441.176470588235,4,2,0,100

[HitObjects]
64,64,14614,1,0
224,64,15275,1,0
288,64,15496,1,0
384,64,15937,2,0,B|384:64|384:192,1,70
384,192,16378,5,0
224,192,17040,1,0
160,192,17261,1,0
160,64,17702,2,0,B|160:64|224:64,1,70
288,64,18143,5,0
288,288,19025,1,0
64,288,19908,2,0,B|64:288|64:128,3,140
160,96,21672,1,0
384,96,22555,1,0
320,224,23216,5,0
288,256,23437,1,0
160,256,24099,1,0
160,160,24761,1,0
256,192,26966,12,0,28290
384,32,28731,6,0,B|384:32|448:160|384:320,1,280
224,160,30496,2,0,B|224:160|64:160|32:352,1,280
224,224,32261,1,0
352,128,32922,1,0
128,288,34025,1,0
128,64,34908,1,0
352,64,35790,6,0,B|352:64|448:160|448:256,1,210
352,288,36893,1,0
288,288,37113,1,0
160,288,37555,2,0,B|160:288|160:128|288:32|320:32,1,280
512,32,39319,5,0
448,128,39761,1,0
320,128,40202,1,0
96,32,41084,5,0
160,128,41525,1,0
256,128,41966,1,0
64,32,42849,6,0,B|64:32|64:192|64:256,1,210
352,288,44613,1,0
352,160,45055,1,0
288,160,45275,1,0
288,96,45496,1,0
192,96,45937,1,0
192,160,46158,1,0
128,128,46378,6,0,B|128:128|32:128|32:320,1,210
192,224,47702,1,0
288,224,48143,1,0
288,160,48363,1,0
288,96,48584,1,0
384,96,49025,1,0
384,160,49246,1,0
384,224,49466,1,0
352,320,49908,6,0,B|352:320|160:320|160:160,1,280
160,96,51672,2,0,B|160:96|288:96|320:96,4,140
480,0,54761,6,0,B|480:0|480:320|32:352,1,630
32,288,56966,1,0
224,192,57849,1,0
288,96,58290,1,0
384,96,58731,2,0,B|384:96|384:384,2,280
256,192,62040,1,4
256,192,72408,5,0
320,96,72849,2,0,B|320:96|480:96|480:320,1,280
480,352,74172,1,0
480,224,74614,5,0
352,224,75055,1,0
224,224,75496,1,0
256,0,76378,1,0
352,0,76819,1,0
448,0,77261,1,0
384,224,78143,5,2
384,160,78364,1,2
320,160,78584,1,2
320,224,78805,1,2
32,224,79908,5,0
32,160,80128,1,0
32,96,80349,1,0
32,32,80569,1,0
96,32,80790,1,0
96,96,81011,1,0
96,160,81231,1,2
160,256,81672,6,0,B|160:256|320:320|352:192,1,210
384,64,82996,1,0
256,64,83437,2,0,B|256:64|96:64|32:224,2,280
352,64,85643,1,0
352,160,86084,1,0
224,160,86746,1,0
160,160,86966,2,0,B|160:160|96:160|96:192|96:288,4,140
480,192,90055,5,0
448,128,90275,1,0
416,64,90496,1,0
384,32,90716,2,0,B|384:32|160:32,2,210
448,32,92261,1,0
320,160,92922,5,0
320,160,93143,1,0
192,160,93584,1,0
192,256,94025,2,0,B|192:256|288:320|416:320,1,210
448,320,94908,2,0,B|448:320|448:96,1,210
352,64,96011,6,2,B|352:64|192:64,1,140
212,175,96893,6,2,B|212:175|372:175,1,140
352,288,97775,6,2,B|352:288|192:288,1,140
160,288,98437,1,0
128,256,98658,1,0
96,224,98878,1,0
96,96,99319,6,0,B|96:96|256:32|384:32,1,280
384,256,101084,1,0
320,256,101305,1,0
256,256,101525,1,0
256,128,101966,5,0
320,128,102187,1,0
384,128,102408,1,0
384,224,102849,6,0,L|384:224|224:224|224:384,1,280
384,192,104614,5,0
320,192,104834,1,0
256,192,105055,1,0
256,64,105496,1,0
352,64,105937,1,0
448,64,106378,6,0,B|448:64|448:224|256:224,1,280
96,64,108143,2,0,B|96:64|96:160,8,70
160,128,113437,2,0,B|160:128|256:96|352:160,2,140
320,192,114981,1,0
320,256,115202,1,0
256,256,115422,1,0
192,256,115643,1,0
192,128,116084,1,0
256,128,116305,1,0
320,128,116525,1,0
416,128,116966,6,0,B|416:128|416:32|256:32,2,140
480,224,118731,6,0,B|480:224|480:320|320:352,1,210
320,288,119614,1,0
320,160,120055,1,2
320,32,120496,5,2
160,32,121158,1,2
160,96,121378,1,2
160,192,122040,5,0
192,224,122261,1,0
224,256,122482,1,0
256,288,122702,1,0
320,288,122923,1,0
384,288,123143,1,0
384,288,123364,1,0
384,288,123585,1,0
384,288,123805,1,0
384,288,124026,1,0
384,224,124246,1,0
384,224,124466,1,2
384,160,124687,1,0
384,160,124908,1,2
384,96,125128,1,2
384,96,125349,1,0
384,32,125569,1,2
384,32,125790,1,0
320,32,126011,1,2
320,32,126231,1,0
256,32,126452,1,2
256,32,126672,1,0
192,32,126893,1,2
192,32,127114,1,2
128,32,127334,1,0
256,192,127555,12,6,133511
