osu file format v14

[General]
AudioFilename: Prolix - Pick Pocket.mp3
AudioLeadIn: 0
PreviewTime: 66316
Countdown: 0
SampleSet: None
StackLeniency: 0.7
Mode: 0
LetterboxInBreaks: 1
WidescreenStoryboard: 1

[Editor]
Bookmarks: 110,11144,22178,33213,44247,55282,66316,77351,88385,99420,110454,121489,132523,143558,154592,165627,176661,187696,198730,209765,220799,231834,242868,253903,264937,275972,287006,298041,309075,320110,330799
DistanceSpacing: 2
BeatDivisor: 4
GridSize: 8
TimelineZoom: 2

[Metadata]
Title:Pick Pocket
TitleUnicode:Pick Pocket
Artist:Prolix
ArtistUnicode:Prolix
Creator:Nekotashi
Version:Insane
Source:
Tags:Prolix Pick Pocket Drum and Bass Neurofunk Nekotashi
BeatmapID:1417188
BeatmapSetID:670024

[Difficulty]
HPDrainRate:6
CircleSize:3.8
OverallDifficulty:9.6
ApproachRate:9.5
SliderMultiplier:1.4
SliderTickRate:1

[Events]
//Background and Video events
0,0,"294077.jpg",0,0
//Break Periods
2,154792,159585
2,160310,165102
//Storyboard Layer 0 (Background)
//Storyboard Layer 1 (Fail)
//Storyboard Layer 2 (Pass)
//Storyboard Layer 3 (Foreground)
//Storyboard Sound Samples

[TimingPoints]
110,344.827586206897,4,3,0,100,1,0

[HitObjects]
64,64,110,6,0,P|88:120|120:128,1,70
186,120,454,2,0,P|196:87|184:56,2,70,4|0|0,0:0|0:0|0:0,0:0:0:0:
168,216,972,1,0,0:0:0:0:
328,240,1144,1,4,0:0:0:0:
166,312,1316,2,0,B|168:312|168:312|192:304|192:304|208:344,1,70
72,240,1661,1,0,0:0:0:0:
216,80,1834,6,0,P|208:136|176:160,1,70,4|0,0:0|0:0,0:0:0:0:
176,16,2178,1,0,0:0:0:0:
288,104,2351,2,0,P|304:56|328:48,1,70,0|4,0:0|0:0,0:0:0:0:
432,128,2696,1,0,0:0:0:0:
320,200,2868,1,0,0:0:0:0:
208,120,3041,1,0,0:0:0:0:
224,256,3213,6,0,P|224:296|256:296,1,70,4|0,0:0|0:0,0:0:0:0:
264,192,3558,1,0,0:0:0:0:
344,264,3730,2,0,P|336:304|304:336,1,70,0|4,0:0|0:0,0:0:0:0:
152,304,4075,1,0,0:0:0:0:
112,168,4247,1,0,0:0:0:0:
256,184,4420,1,0,0:0:0:0:
224,96,4592,6,0,P|272:88|296:112,1,70,4|0,0:0|0:0,0:0:0:0:
296,240,4937,1,0,0:0:0:0:
400,240,5110,2,0,P|384:280|384:320,1,70,0|4,0:0|0:0,0:0:0:0:
496,224,5454,1,0,0:0:0:0:
448,64,5627,2,0,P|424:120|392:128,1,70
325,120,5971,2,0,P|315:87|328:56,1,70,4|0,0:0|0:0,0:0:0:0:
240,152,6316,5,0,0:0:0:0:
344,216,6489,1,0,0:0:0:0:
224,240,6661,1,4,0:0:0:0:
345,312,6833,2,0,B|344:312|344:312|320:304|320:304|304:344,2,70
440,240,7351,1,4,0:0:0:0:
320,184,7523,1,0,0:0:0:0:
360,88,7695,5,0,0:0:0:0:
224,104,7868,2,0,P|208:56|184:48,1,70,4|4,0:0|0:0,0:0:0:0:
80,128,8213,1,0,0:0:0:0:
192,200,8385,1,0,0:0:0:0:
336,200,8558,1,0,0:0:0:0:
224,288,8730,2,0,P|248:320|288:320,1,70,4|0,0:0|0:0,0:0:0:0:
288,232,9075,5,0,0:0:0:0:
168,264,9247,2,0,P|176:304|208:336,1,70,4|0,0:0|0:0,0:0:0:0:
360,304,9592,1,0,0:0:0:0:
400,168,9764,1,4,0:0:0:0:
256,184,9937,1,0,0:0:0:0:
288,96,10109,2,0,P|240:88|216:112,1,70,4|0,0:0|0:0,0:0:0:0:
216,240,10454,5,0,0:0:0:0:
112,240,10627,2,0,P|128:280|128:320,1,70,4|0,0:0|0:0,0:0:0:0:
16,224,10971,1,0,0:0:0:0:
144,280,11144,2,0,P|168:224|200:216,1,70,4|0,0:0|0:0,0:0:0:0:
328,256,11489,2,0,P|338:288|325:320,2,70
192,200,12006,1,4,0:0:0:0:
344,144,12178,5,0,0:0:0:0:
232,144,12351,2,0,B|248:112|248:112|256:112|256:112|264:152,2,70
120,48,12868,1,4,0:0:0:0:
192,88,13040,1,0,0:0:0:0:
336,32,13212,1,0,0:0:0:0:
288,88,13385,2,0,P|304:136|328:144,1,70,4|0,0:0|0:0,0:0:0:0:
248,248,13730,5,0,0:0:0:0:
192,136,13902,1,4,0:0:0:0:
312,152,14075,1,0,0:0:0:0:
432,72,14247,2,0,P|408:40|368:40,1,70,4|0,0:0|0:0,0:0:0:0:
280,104,14592,1,0,0:0:0:0:
160,16,14764,2,0,P|200:32|216:64,1,70,4|0,0:0|0:0,0:0:0:0:
256,160,15109,5,0,0:0:0:0:
152,248,15282,1,4,0:0:0:0:
160,152,15454,1,0,0:0:0:0:
224,296,15626,2,0,P|272:304|296:280,1,70
328,208,15971,1,0,0:0:0:0:
176,232,16144,2,0,P|208:200|248:176,1,70,4|0,0:0|0:0,0:0:0:0:
288,104,16489,5,0,0:0:0:0:
424,144,16661,2,0,P|392:160|352:144,1,70,4|0,0:0|0:0,0:0:0:0:
208,120,17006,2,0,P|218:87|205:55,2,70
152,232,17523,1,4,0:0:0:0:
104,152,17695,1,0,0:0:0:0:
16,216,17868,2,0,B|17:216|17:216|32:176|32:176|32:128,2,70,4|4|0,0:0|0:0|0:0,0:0:0:0:
24,336,18385,5,4,0:0:0:0:
80,232,18557,1,0,0:0:0:0:
32,150,18729,1,0,0:0:0:0:
176,120,18902,2,0,P|144:160|112:152,1,70,4|0,0:0|0:0,0:0:0:0:
168,240,19247,1,0,0:0:0:0:
304,208,19419,1,4,0:0:0:0:
208,168,19592,5,0,0:0:0:0:
304,296,19764,2,0,P|280:328|240:328,1,70,4|0,0:0|0:0,0:0:0:0:
144,280,20109,1,0,0:0:0:0:
208,136,20281,2,0,P|216:96|248:64,1,70,4|0,0:0|0:0,0:0:0:0:
352,160,20626,1,0,0:0:0:0:
256,136,20798,1,4,0:0:0:0:
168,224,20971,5,0,0:0:0:0:
208,88,21144,1,4,0:0:0:0:
296,80,21316,1,0,0:0:0:0:
224,200,21488,5,4,0:0:0:0:
176,304,21661,1,0,0:0:0:0:
200,336,21747,1,0,0:0:0:0:
240,352,21834,1,4,0:0:0:0:
280,344,21920,1,0,0:0:0:0:
312,328,22006,1,0,0:0:0:0:
424,184,22178,6,0,P|400:240|384:264,1,70,4|0,0:0|0:0,0:0:0:0:
326,120,22523,2,0,P|316:87|328:56,2,70,4|0|0,0:0|0:0|0:0,0:0:0:0:
344,216,23040,1,0,0:0:0:0:
208,248,23212,1,4,0:0:0:0:
346,312,23385,2,0,B|344:312|344:312|336:328|336:328|288:360,2,70
440,240,23902,1,4,0:0:0:0:
320,184,24074,5,0,0:0:0:0:
352,56,24246,1,0,0:0:0:0:
224,104,24419,2,0,P|208:56|184:48,1,70,0|4,0:0|0:0,0:0:0:0:
144,160,24764,1,0,0:0:0:0:
272,192,24937,2,0,P|304:208|344:256,1,70,4|0,0:0|0:0,0:0:0:0:
192,200,25282,1,4,0:0:0:0:
168,264,25454,6,0,P|176:304|208:336,1,70
240,184,25799,1,0,0:0:0:0:
368,208,25972,1,4,0:0:0:0:
280,232,26143,1,0,0:0:0:0:
288,96,26316,2,0,P|240:88|216:112,1,70,4|0,0:0|0:0,0:0:0:0:
352,160,26661,1,4,0:0:0:0:
256,184,26834,5,0,0:0:0:0:
216,240,27005,1,0,0:0:0:0:
112,240,27178,2,0,P|128:280|128:320,1,70,0|4,0:0|0:0,0:0:0:0:
16,224,27522,1,0,0:0:0:0:
64,64,27695,2,0,P|88:120|120:128,1,70,4|0,0:0|0:0,0:0:0:0:
187,120,28041,2,0,P|197:87|184:56,2,70,4|0|0,0:0|0:0|0:0,0:0:0:0:
168,216,28557,5,0,0:0:0:0:
264,216,28729,1,4,0:0:0:0:
167,312,28903,2,0,B|168:312|168:312|192:304|192:304|208:344,2,70,0|4|0,0:0|0:0|0:0,0:0:0:0:
72,240,29419,1,4,0:0:0:0:
128,144,29591,1,0,0:0:0:0:
232,184,29765,1,0,0:0:0:0:
288,104,29937,6,0,P|304:56|328:48,1,70,0|4,0:0|0:0,0:0:0:0:
352,184,30281,1,0,0:0:0:0:
288,288,30454,2,0,P|264:320|224:320,1,70,4|0,0:0|0:0,0:0:0:0:
176,192,30799,1,4,0:0:0:0:
296,184,30972,1,0,0:0:0:0:
200,280,31143,1,0,0:0:0:0:
344,264,31316,6,0,P|336:304|304:336,1,70,0|4,0:0|0:0,0:0:0:0:
200,248,31660,1,0,0:0:0:0:
224,96,31834,2,0,P|272:88|296:112,1,70,4|0,0:0|0:0,0:0:0:0:
248,184,32178,1,4,0:0:0:0:
152,208,32351,1,0,0:0:0:0:
256,320,32523,1,0,0:0:0:0:
400,240,32695,6,0,P|384:280|384:320,1,70,0|4,0:0|0:0,0:0:0:0:
496,224,33041,1,0,0:0:0:0:
368,280,33212,2,0,P|344:224|312:216,1,70,4|2,0:0|0:0,0:0:0:0:
280,216,33472,1,0,0:0:0:0:
232,240,33558,2,0,P|222:272|235:304,2,70,4|2|4,0:0|0:0|0:0,0:0:0:0:
256,184,33989,1,0,0:0:0:0:
296,160,34074,1,2,0:0:0:0:
304,128,34161,1,0,0:0:0:0:
296,88,34246,1,4,0:0:0:0:
208,112,34420,6,0,B|208:96|208:96|216:72|216:72|200:32,2,70,2|4|2,0:0|0:0|0:0,0:0:0:0:
176,224,34936,1,4,0:0:0:0:
152,248,35023,1,0,0:0:0:0:
152,288,35110,1,2,0:0:0:0:
160,320,35196,1,0,0:0:0:0:
184,344,35282,1,4,0:0:0:0:
328,352,35454,2,0,P|336:312|336:272,1,70,2|4,0:0|0:0,0:0:0:0:
256,184,35798,1,2,0:0:0:0:
144,136,35972,6,0,P|184:136|208:104,1,70,4|2,0:0|0:0,0:0:0:0:
280,56,36316,1,4,0:0:0:0:
312,32,36403,1,0,0:0:0:0:
344,16,36489,1,2,0:0:0:0:
384,16,36575,1,0,0:0:0:0:
416,32,36660,1,4,0:0:0:0:
400,144,36834,2,0,P|432:112|440:88,1,70,2|4,0:0|0:0,0:0:0:0:
312,120,37177,1,2,0:0:0:0:
280,248,37351,6,0,P|240:240|208:264,1,70,4|2,0:0|0:0,0:0:0:0:
144,352,37696,1,4,0:0:0:0:
120,328,37782,1,0,0:0:0:0:
96,296,37869,1,2,0:0:0:0:
80,264,37954,1,0,0:0:0:0:
80,224,38041,1,4,0:0:0:0:
200,136,38212,2,0,P|216:96|216:56,1,70,2|4,0:0|0:0,0:0:0:0:
160,48,38558,1,2,0:0:0:0:
40,80,38730,6,0,P|56:136|72:160,1,70,4|2,0:0|0:0,0:0:0:0:
96,160,38989,1,0,0:0:0:0:
152,152,39075,2,0,P|184:136|208:96,2,70,4|2|4,0:0|0:0|0:0,0:0:0:0:
248,192,39591,1,2,0:0:0:0:
288,192,39678,1,0,0:0:0:0:
328,208,39765,1,4,0:0:0:0:
480,184,39937,2,0,B|479:184|479:184|464:144|464:144|464:96,2,70,2|4|2,0:0|0:0|0:0,0:0:0:0:
464,336,40453,1,4,0:0:0:0:
472,304,40541,1,0,0:0:0:0:
480,272,40627,5,2,0:0:0:0:
472,144,40799,1,4,0:0:0:0:
320,112,40972,2,0,P|344:152|368:160,1,70,2|4,0:0|0:0,0:0:0:0:
344,280,41315,1,2,0:0:0:0:
208,296,41489,2,0,P|232:328|272:328,1,70,4|0,0:0|0:0,0:0:0:0:
240,184,41834,1,4,0:0:0:0:
272,176,41920,1,0,0:0:0:0:
312,168,42007,5,2,0:0:0:0:
344,168,42092,1,0,0:0:0:0:
384,160,42177,1,4,0:0:0:0:
440,112,42351,2,0,P|432:72|416:40,1,70,2|4,0:0|0:0,0:0:0:0:
336,96,42696,1,2,0:0:0:0:
288,32,42868,2,0,P|256:16|232:40,1,70,4|2,0:0|0:0,0:0:0:0:
144,144,43213,2,0,P|200:136|224:120,1,70,4|2,0:0|0:0,0:0:0:0:
248,232,43558,5,4,0:0:0:0:
336,304,43729,1,2,0:0:0:0:
312,336,43815,1,0,0:0:0:0:
272,352,43902,1,4,0:0:0:0:
232,344,43988,1,0,0:0:0:0:
200,328,44074,1,2,0:0:0:0:
216,96,44247,5,12,0:0:0:0:
288,96,44420,1,0,0:0:0:0:
96,16,44592,2,8,B|64:48|56:88|72:128|96:152,1,140
248,152,45110,5,8,0:0:0:0:
296,56,45282,1,8,0:0:0:0:
368,88,45454,1,0,0:0:0:0:
208,64,45627,1,8,0:0:0:0:
248,152,45799,1,0,0:0:0:0:
136,88,45972,1,8,0:0:0:0:
424,32,46144,6,0,B|440:48|448:72|448:88|440:112,1,70,0|8,0:0|0:0,0:0:0:0:
368,296,46489,1,0,0:0:0:0:
296,128,46661,2,0,P|288:80|296:40,1,70,8|0,0:0|0:0,0:0:0:0:
88,32,47006,6,0,B|72:48|64:72|64:88|72:112,1,70,8|0,0:0|0:0,0:0:0:0:
136,288,47351,1,8,0:0:0:0:
216,128,47523,2,0,P|224:80|216:40,1,70,0|8,0:0|0:0,0:0:0:0:
424,32,47868,6,0,B|440:48|448:72|448:88|440:112,1,70,0|8,0:0|0:0,0:0:0:0:
368,288,48213,1,0,0:0:0:0:
296,128,48385,2,0,P|288:80|296:40,1,70,8|0,0:0|0:0,0:0:0:0:
88,32,48730,6,0,B|72:48|64:72|64:88|72:112,1,70,8|0,0:0|0:0,0:0:0:0:
144,256,49075,1,8,0:0:0:0:
216,128,49247,2,8,P|224:80|216:40,2,70
296,200,49765,6,0,P|336:224|344:256,1,70,8|0,0:0|0:0,0:0:0:0:
248,272,50110,1,8,0:0:0:0:
184,352,50282,2,0,P|152:304|144:264,1,70,0|8,0:0|0:0,0:0:0:0:
336,304,50627,6,0,P|312:344|280:352,1,70,0|8,0:0|0:0,0:0:0:0:
248,272,50972,1,0,0:0:0:0:
336,208,51144,2,0,P|288:176|248:168,1,70,8|0,0:0|0:0,0:0:0:0:
184,240,51489,6,0,P|160:280|160:312,1,70,8|0,0:0|0:0,0:0:0:0:
248,280,51834,1,8,0:0:0:0:
184,352,52006,2,8,P|152:304|144:264,1,70
312,296,52351,6,8,P|288:336|256:344,1,70
248,280,52696,1,0,0:0:0:0:
312,208,52868,2,8,P|344:256|352:296,1,70
248,216,53213,6,8,P|208:240|200:272,1,70
248,280,53558,1,8,0:0:0:0:
184,352,53730,2,0,P|152:304|144:264,1,70,0|8,0:0|0:0,0:0:0:0:
312,296,54075,6,0,P|288:336|256:344,1,70,0|8,0:0|0:0,0:0:0:0:
248,280,54420,1,0,0:0:0:0:
176,216,54592,2,8,P|224:184|264:176,3,70
120,160,55282,5,12,0:0:0:0:
56,88,55454,1,0,0:0:0:0:
208,120,55627,2,0,P|208:64|192:32,1,70,12|0,0:0|0:0,0:0:0:0:
144,208,55972,5,12,0:0:0:0:
176,320,56144,1,0,0:0:0:0:
272,168,56316,2,0,P|320:208|336:232,1,70,12|0,0:0|0:0,0:0:0:0:
384,160,56661,5,12,0:0:0:0:
480,56,56833,1,0,0:0:0:0:
304,120,57006,2,0,P|304:64|320:32,1,70,12|0,0:0|0:0,0:0:0:0:
376,192,57351,5,12,0:0:0:0:
320,352,57523,1,0,0:0:0:0:
240,168,57695,2,0,P|192:208|176:232,1,70,12|0,0:0|0:0,0:0:0:0:
32,136,58041,5,12,0:0:0:0:
16,328,58213,1,0,0:0:0:0:
208,264,58386,2,0,P|208:320|240:344,1,70,12|0,0:0|0:0,0:0:0:0:
144,176,58731,5,12,0:0:0:0:
184,32,58903,1,0,0:0:0:0:
312,136,59075,2,0,P|288:96|296:56,1,70,12|0,0:0|0:0,0:0:0:0:
488,56,59420,5,12,0:0:0:0:
440,240,59592,1,0,0:0:0:0:
304,120,59765,2,0,P|304:64|320:32,1,70,12|0,0:0|0:0,0:0:0:0:
368,208,60110,5,12,0:0:0:0:
320,344,60282,1,0,0:0:0:0:
240,168,60454,2,0,P|192:208|176:232,1,70,12|0,0:0|0:0,0:0:0:0:
56,88,60799,6,0,P|80:128|104:152,1,70,12|0,0:0|0:0,0:0:0:0:
208,120,61144,2,0,P|208:64|192:32,1,70,12|0,0:0|0:0,0:0:0:0:
144,208,61489,1,12,0:0:0:0:
176,320,61661,5,0,0:0:0:0:
272,320,61834,1,4,0:0:0:0:
288,296,61920,1,0,0:0:0:0:
288,264,62006,1,8,0:0:0:0:
264,240,62092,1,0,0:0:0:0:
232,240,62178,1,4,0:0:0:0:
208,264,62265,1,0,0:0:0:0:
208,296,62351,1,8,0:0:0:0:
224,320,62437,1,0,0:0:0:0:
248,336,62523,1,4,0:0:0:0:
328,136,62696,2,0,P|344:160|400:152,1,70,2|0,0:0|0:0,0:0:0:0:
176,144,63041,2,0,P|128:160|96:144,1,70,2|0,0:0|0:0,0:0:0:0:
248,152,63385,5,2,0:0:0:0:
80,40,63558,2,0,P|64:72|72:120,1,70,0|2,0:0|0:0,0:0:0:0:
208,112,63903,2,0,P|224:64|208:32,1,70,2|0,0:0|0:0,0:0:0:0:
136,16,64247,1,0,0:0:0:0:
160,144,64420,1,2,0:0:0:0:
240,184,64592,1,0,0:0:0:0:
168,312,64765,2,0,P|152:280|152:240,1,70,2|0,0:0|0:0,0:0:0:0:
144,160,65110,1,2,0:0:0:0:
264,200,65282,1,0,0:0:0:0:
216,312,65454,2,0,P|248:328|288:320,1,70,2|0,0:0|0:0,0:0:0:0:
288,256,65799,2,0,P|248:224|224:240,1,70,2|0,0:0|0:0,0:0:0:0:
352,304,66144,1,2,0:0:0:0:
496,240,66316,6,8,P|464:296|456:328,1,70,12|8,0:0|0:0,0:0:0:0:
320,200,66661,1,4,0:0:0:0:
240,352,66834,1,8,0:0:0:0:
64,272,67005,1,4,0:0:0:0:
232,168,67178,1,8,0:0:0:0:
64,16,67351,2,8,P|16:48|0:80,1,70,12|8,0:0|0:0,0:0:0:0:
72,240,67696,6,0,P|96:296|112:328,1,70,12|8,0:0|0:0,0:0:0:0:
240,192,68041,1,4,0:0:0:0:
408,80,68214,1,8,0:0:0:0:
384,264,68385,1,4,0:0:0:0:
384,160,68558,1,8,0:0:0:0:
384,8,68730,2,0,P|432:40|448:72,1,70,12|8,0:0|0:0,0:0:0:0:
192,144,69075,6,0,P|208:120|224:80,1,70,12|8,0:0|0:0,0:0:0:0:
144,248,69420,1,4,0:0:0:0:
328,256,69593,1,8,0:0:0:0:
200,352,69765,1,4,0:0:0:0:
256,160,69937,1,8,0:0:0:0:
320,336,70110,2,0,P|336:312|336:256,1,70,12|8,0:0|0:0,0:0:0:0:
160,240,70454,6,12,P|160:280|168:320,1,70,12|8,0:0|0:0,0:0:0:0:
72,120,70799,1,4,0:0:0:0:
288,96,70972,1,8,0:0:0:0:
112,24,71143,1,4,0:0:0:0:
216,208,71316,1,8,0:0:0:0:
208,48,71489,2,12,P|208:80|200:136,1,70,12|8,0:0|0:0,0:0:0:0:
24,144,71834,6,0,P|40:112|24:56,1,70,12|8,0:0|0:0,0:0:0:0:
184,200,72179,1,4,0:0:0:0:
0,240,72352,1,8,0:0:0:0:
160,344,72523,1,4,0:0:0:0:
288,200,72696,1,8,0:0:0:0:
424,240,72869,2,0,P|392:296|376:328,1,70,12|8,0:0|0:0,0:0:0:0:
248,312,73214,6,0,P|216:280|224:248,1,70,12|8,0:0|0:0,0:0:0:0:
264,160,73559,1,4,0:0:0:0:
104,280,73730,1,8,0:0:0:0:
168,80,73903,1,4,0:0:0:0:
224,280,74076,1,8,0:0:0:0:
128,168,74247,2,0,P|80:136|64:104,1,70,12|8,0:0|0:0,0:0:0:0:
224,56,74593,6,0,P|216:88|192:128,1,70,12|8,0:0|0:0,0:0:0:0:
288,88,74938,1,4,0:0:0:0:
488,64,75111,1,8,0:0:0:0:
376,224,75282,1,4,0:0:0:0:
344,16,75455,1,8,0:0:0:0:
280,96,75628,2,0,P|264:120|264:176,1,70,12|8,0:0|0:0,0:0:0:0:
112,40,75972,5,4,0:0:0:0:
232,192,76144,1,8,0:0:0:0:
296,32,76317,1,4,0:0:0:0:
72,136,76490,1,8,0:0:0:0:
192,176,76661,1,4,0:0:0:0:
208,304,76834,1,8,0:0:0:0:
248,304,76920,5,0,0:0:0:0:
296,288,77006,1,4,0:0:0:0:
208,168,77178,1,8,0:0:0:0:
80,256,77351,6,0,P|112:312|120:344,1,70,12|8,0:0|0:0,0:0:0:0:
224,192,77696,1,4,0:0:0:0:
384,152,77869,1,8,0:0:0:0:
368,328,78040,1,4,0:0:0:0:
504,224,78213,1,8,0:0:0:0:
344,144,78386,2,0,P|384:152|416:136,1,70,12|8,0:0|0:0,0:0:0:0:
440,240,78731,6,0,P|416:296|400:328,1,70,12|8,0:0|0:0,0:0:0:0:
248,280,79076,1,4,0:0:0:0:
200,128,79247,1,8,0:0:0:0:
112,296,79420,1,4,0:0:0:0:
80,144,79593,1,8,0:0:0:0:
128,8,79766,2,0,P|80:40|64:72,1,70,12|8,0:0|0:0,0:0:0:0:
320,144,80110,6,0,P|304:120|288:80,1,70,12|8,0:0|0:0,0:0:0:0:
352,248,80455,1,4,0:0:0:0:
160,256,80628,1,8,0:0:0:0:
320,344,80799,1,4,0:0:0:0:
264,192,80972,1,8,0:0:0:0:
192,336,81145,2,0,P|176:312|176:256,1,70,12|8,0:0|0:0,0:0:0:0:
352,240,81489,6,0,P|352:280|344:320,1,70,12|8,0:0|0:0,0:0:0:0:
416,72,81834,1,4,0:0:0:0:
208,48,82007,1,8,0:0:0:0:
408,152,82178,1,4,0:0:0:0:
280,24,82351,1,8,0:0:0:0:
160,224,82524,2,0,P|160:256|168:304,1,70,12|8,0:0|0:0,0:0:0:0:
328,128,82869,6,0,P|312:96|328:40,1,70,12|8,0:0|0:0,0:0:0:0:
416,248,83214,1,4,0:0:0:0:
288,184,83385,1,8,0:0:0:0:
248,320,83558,1,4,0:0:0:0:
192,200,83731,1,8,0:0:0:0:
64,328,83904,2,0,P|32:272|16:240,1,70,12|8,0:0|0:0,0:0:0:0:
200,352,84247,6,0,P|240:360|288:352,1,70,12|8,0:0|0:0,0:0:0:0:
264,176,84592,1,4,0:0:0:0:
376,304,84765,1,8,0:0:0:0:
328,136,84938,1,4,0:0:0:0:
288,280,85111,1,8,0:0:0:0:
384,168,85282,2,0,P|432:136|448:104,1,70,12|8,0:0|0:0,0:0:0:0:
288,64,85627,6,0,B|296:88|304:128|328:144,1,70,12|8,0:0|0:0,0:0:0:0:
176,208,85972,2,0,P|152:248|160:272,1,70,12|8,0:0|0:0,0:0:0:0:
328,344,86316,2,0,P|352:296|352:248,1,70,12|8,0:0|0:0,0:0:0:0:
431,111,86661,2,0,P|417:136|367:162,1,70,12|8,0:0|0:0,0:0:0:0:
346,156,86920,1,0,0:0:0:0:
313,128,87007,1,4,0:0:0:0:
304,40,87179,5,8,0:0:0:0:
296,72,87265,1,0,0:0:0:0:
296,104,87351,1,4,0:0:0:0:
208,96,87523,1,8,0:0:0:0:
256,208,87696,1,4,0:0:0:0:
168,208,87869,5,8,0:0:0:0:
160,240,87954,1,0,0:0:0:0:
152,272,88041,1,4,0:0:0:0:
160,304,88127,1,0,0:0:0:0:
168,336,88213,1,8,0:0:0:0:
192,360,88299,1,0,0:0:0:0:
344,280,88385,6,0,P|336:240|304:192,1,70,12|8,0:0|0:0,0:0:0:0:
352,48,88730,1,4,0:0:0:0:
240,144,88903,1,8,0:0:0:0:
120,40,89074,1,4,0:0:0:0:
240,144,89247,1,8,0:0:0:0:
256,320,89420,2,0,P|224:312|216:256,1,70,12|8,0:0|0:0,0:0:0:0:
288,104,89765,6,0,P|288:64|320:24,1,70,12|8,0:0|0:0,0:0:0:0:
240,144,90110,1,4,0:0:0:0:
112,240,90283,1,8,0:0:0:0:
288,112,90454,1,4,0:0:0:0:
64,120,90627,1,8,0:0:0:0:
96,32,90800,2,0,P|128:16|184:24,1,70,12|8,0:0|0:0,0:0:0:0:
296,64,91144,6,0,P|296:96|320:136,1,70,12|8,0:0|0:0,0:0:0:0:
160,152,91489,1,4,0:0:0:0:
328,240,91662,1,8,0:0:0:0:
152,296,91833,1,4,0:0:0:0:
64,120,92006,1,8,0:0:0:0:
192,40,92179,2,0,P|208:64|208:120,1,70,12|8,0:0|0:0,0:0:0:0:
72,120,92523,6,0,P|64:80|80:40,1,70,12|8,0:0|0:0,0:0:0:0:
88,208,92868,1,4,0:0:0:0:
296,272,93041,1,8,0:0:0:0:
112,320,93212,1,4,0:0:0:0:
192,176,93385,1,8,0:0:0:0:
336,288,93558,2,0,P|336:256|312:208,1,70,12|0,0:0|0:0,0:0:0:0:
232,232,93903,6,0,P|216:264|232:320,1,70,12|8,0:0|0:0,0:0:0:0:
88,192,94248,1,4,0:0:0:0:
256,280,94421,1,8,0:0:0:0:
248,80,94592,1,4,0:0:0:0:
368,200,94765,1,8,0:0:0:0:
448,56,94938,2,0,P|448:104|424:136,1,70,12|8,0:0|0:0,0:0:0:0:
208,96,95283,6,0,P|192:136|152:160,1,70,12|8,0:0|0:0,0:0:0:0:
256,192,95628,1,4,0:0:0:0:
128,64,95799,1,8,0:0:0:0:
176,224,95972,1,4,0:0:0:0:
88,112,96145,1,8,0:0:0:0:
96,256,96316,2,0,P|96:296|120:336,1,70,12|8,0:0|0:0,0:0:0:0:
288,296,96662,6,0,P|280:264|240:240,1,70,12|8,0:0|0:0,0:0:0:0:
376,256,97007,1,4,0:0:0:0:
192,176,97178,1,8,0:0:0:0:
216,320,97351,1,4,0:0:0:0:
336,288,97524,1,8,0:0:0:0:
168,280,97697,2,0,P|152:256|176:208,1,70,12|8,0:0|0:0,0:0:0:0:
248,248,98041,5,4,0:0:0:0:
208,344,98213,1,8,0:0:0:0:
112,232,98386,1,4,0:0:0:0:
128,336,98559,1,8,0:0:0:0:
176,208,98730,1,4,0:0:0:0:
320,192,98903,1,8,0:0:0:0:
304,168,98989,5,0,0:0:0:0:
304,136,99075,1,4,0:0:0:0:
304,96,99161,2,0,P|296:72|296:48,1,35,0|8,0:0|0:0,0:0:0:0:
208,72,99420,6,0,P|200:128|168:160,1,70,12|8,0:0|0:0,0:0:0:0:
296,288,99765,1,4,0:0:0:0:
504,264,99938,1,8,0:0:0:0:
440,56,100110,1,4,0:0:0:0:
352,224,100282,1,8,0:0:0:0:
456,336,100455,2,0,P|472:296|496:248,1,70,12|8,0:0|0:0,0:0:0:0:
344,144,100800,6,0,P|296:112|288:80,1,70,12|8,0:0|0:0,0:0:0:0:
168,224,101145,1,4,0:0:0:0:
72,328,101316,1,8,0:0:0:0:
24,232,101489,1,4,0:0:0:0:
88,120,101662,1,8,0:0:0:0:
112,296,101834,2,0,B|88:248|88:248|80:200,1,70,12|8,0:0|0:0,0:0:0:0:
256,104,102179,6,0,B|240:144|240:144|288:144,1,70,12|8,0:0|0:0,0:0:0:0:
344,88,102524,1,4,0:0:0:0:
176,88,102697,1,8,0:0:0:0:
288,64,102868,1,4,0:0:0:0:
248,184,103041,1,8,0:0:0:0:
200,64,103214,2,0,P|208:104|176:144,1,70,12|8,0:0|0:0,0:0:0:0:
336,232,103558,6,0,P|304:200|272:184,1,70,12|8,0:0|0:0,0:0:0:0:
376,296,103903,1,4,0:0:0:0:
384,272,104076,1,8,0:0:0:0:
392,248,104247,1,4,0:0:0:0:
256,144,104420,1,8,0:0:0:0:
232,312,104593,2,0,P|216:280|232:232,1,70,12|8,0:0|0:0,0:0:0:0:
416,248,104938,6,0,L|400:280|384:336,1,70,12|8,0:0|0:0,0:0:0:0:
360,160,105283,1,4,0:0:0:0:
312,88,105454,1,8,0:0:0:0:
200,96,105627,1,4,0:0:0:0:
144,224,105800,1,8,0:0:0:0:
96,16,105973,2,0,P|72:40|64:80,1,70,12|8,0:0|0:0,0:0:0:0:
184,24,106316,6,0,P|208:56|208:104,1,70,12|4,0:0|0:0,0:0:0:0:
248,184,106661,1,4,0:0:0:0:
320,88,106834,1,8,0:0:0:0:
320,144,106920,1,0,0:0:0:0:
312,200,107007,1,12,0:0:0:0:
248,96,107178,1,8,0:0:0:0:
344,152,107351,5,12,0:0:0:0:
384,248,107523,1,8,0:0:0:0:
336,280,107610,1,0,0:0:0:0:
296,312,107696,2,0,P|256:352|216:360,1,70,12|8,0:0|0:0,0:0:0:0:
176,176,108041,2,0,P|152:136|160:112,1,70,12|8,0:0|0:0,0:0:0:0:
320,184,108385,2,0,P|344:232|344:280,1,70,12|8,0:0|0:0,0:0:0:0:
432,352,108730,6,0,P|448:328|448:272,1,70,12|8,0:0|0:0,0:0:0:0:
432,256,108989,1,0,0:0:0:0:
392,240,109076,1,4,0:0:0:0:
192,344,109248,5,8,0:0:0:0:
168,312,109334,1,0,0:0:0:0:
160,264,109420,2,0,P|168:224|192:200,1,70,12|8,0:0|0:0,0:0:0:0:
272,240,109765,5,4,0:0:0:0:
192,136,109938,1,8,0:0:0:0:
160,160,110023,1,0,0:0:0:0:
120,160,110110,5,4,0:0:0:0:
288,64,110282,1,8,0:0:0:0:
312,32,110368,1,0,0:0:0:0:
344,16,110454,5,4,0:0:0:0:
320,144,110627,2,0,P|368:160|400:152,1,70,8|4,0:0|0:0,0:0:0:0:
496,104,110972,1,8,0:0:0:0:
472,152,111144,1,4,0:0:0:0:
448,208,111316,2,0,P|432:240|416:280,1,70,8|4,0:0|0:0,0:0:0:0:
336,328,111661,1,8,0:0:0:0:
296,192,111834,5,4,0:0:0:0:
168,344,112006,1,8,0:0:0:0:
160,240,112178,2,0,P|192:208|232:192,1,70,4|8,0:0|0:0,0:0:0:0:
112,312,112523,1,4,0:0:0:0:
104,152,112696,1,8,0:0:0:0:
8,112,112868,1,4,0:0:0:0:
8,216,113041,5,8,0:0:0:0:
152,152,113213,2,0,B|184:152|184:152|208:104,1,70,12|0,0:0|0:0,0:0:0:0:
216,256,113558,1,12,0:0:0:0:
328,208,113730,5,0,0:0:0:0:
432,104,113903,2,0,B|424:136|424:136|384:152,1,70,12|0,0:0|0:0,0:0:0:0:
296,112,114247,1,12,0:0:0:0:
216,80,114420,5,0,0:0:0:0:
72,72,114592,2,0,B|80:112|80:112|112:144,1,70,12|0,0:0|0:0,0:0:0:0:
184,200,114937,1,12,0:0:0:0:
288,280,115109,5,0,0:0:0:0:
304,184,115282,2,0,B|288:192|264:192|232:184,1,70,12|0,0:0|0:0,0:0:0:0:
296,24,115626,1,12,0:0:0:0:
192,120,115799,1,0,0:0:0:0:
184,192,115972,2,0,B|184:208|184:208|168:208|168:208|176:224|176:224|160:216|160:216|168:240|168:240|144:232|144:232|160:248|160:248|144:248|144:248|144:264,1,140,12|12,0:0|0:0,0:0:0:0:
64,168,116489,1,0,0:0:0:0:
160,72,116661,5,4,0:0:0:0:
8,72,116834,2,0,P|24:120|24:160,2,70,0|12|0,0:0|0:0|0:0,0:0:0:0:
120,32,117351,1,12,0:0:0:0:
224,72,117523,1,0,0:0:0:0:
304,32,117696,2,0,P|288:80|296:128,1,70,12|0,0:0|0:0,0:0:0:0:
440,96,118041,1,12,0:0:0:0:
360,64,118213,5,0,0:0:0:0:
224,152,118385,2,0,B|256:120|256:120|272:152,1,70,12|0,0:0|0:0,0:0:0:0:
384,248,118730,2,0,B|376:288|376:288|336:312,1,70,12|0,0:0|0:0,0:0:0:0:
264,192,119075,5,4,0:0:0:0:
256,360,119247,1,0,0:0:0:0:
160,248,119420,2,0,B|152:288|152:288|176:320,1,70,12|0,0:0|0:0,0:0:0:0:
352,280,119764,5,12,0:0:0:0:
160,320,119937,1,0,0:0:0:0:
256,176,120109,2,0,B|216:192|216:192|184:216,1,70,12|0,0:0|0:0,0:0:0:0:
104,272,120454,5,12,0:0:0:0:
152,144,120626,1,0,0:0:0:0:
64,96,120799,1,12,0:0:0:0:
112,16,120972,5,8,0:0:0:0:
152,16,121058,1,2,0:0:0:0:
184,24,121143,1,4,0:0:0:0:
208,48,121230,1,2,0:0:0:0:
208,80,121316,1,8,0:0:0:0:
216,184,121489,2,0,P|272:192|296:208,1,70,12|0,0:0|0:0,0:0:0:0:
344,248,121834,5,12,0:0:0:0:
304,128,122006,1,0,0:0:0:0:
264,248,122178,1,12,0:0:0:0:
304,128,122351,1,0,0:0:0:0:
304,344,122523,2,0,P|336:304|344:272,1,70,12|0,0:0|0:0,0:0:0:0:
296,184,122868,2,0,P|240:192|216:208,1,70,12|0,0:0|0:0,0:0:0:0:
168,248,123213,5,12,0:0:0:0:
208,128,123385,1,0,0:0:0:0:
248,248,123557,1,12,0:0:0:0:
208,128,123730,1,0,0:0:0:0:
176,304,123902,2,0,P|144:264|136:232,1,70,12|0,0:0|0:0,0:0:0:0:
344,312,124247,2,0,B|352:256|352:256|336:224,1,70,12|0,0:0|0:0,0:0:0:0:
200,344,124592,6,0,P|168:312|152:280,1,70,12|0,0:0|0:0,0:0:0:0:
224,192,124936,1,12,0:0:0:0:
296,48,125109,2,0,P|288:80|312:136,1,70,0|12,0:0|0:0,0:0:0:0:
408,280,125454,2,0,P|432:248|464:216,1,70,0|12,0:0|0:0,0:0:0:0:
248,280,125798,1,0,0:0:0:0:
248,280,125971,1,12,0:0:0:0:
248,280,126143,1,0,0:0:0:0:
80,192,126316,2,0,P|80:224|96:288,1,70,12|0,0:0|0:0,0:0:0:0:
152,176,126661,1,12,0:0:0:0:
280,232,126833,1,0,0:0:0:0:
136,296,127006,2,0,P|160:336|208:352,1,70,12|0,0:0|0:0,0:0:0:0:
336,216,127351,1,12,0:0:0:0:
232,272,127523,5,0,0:0:0:0:
224,184,127695,1,12,0:0:0:0:
288,280,127868,1,0,0:0:0:0:
304,96,128040,2,0,P|312:144|352:160,1,70,12|0,0:0|0:0,0:0:0:0:
416,144,128385,2,0,P|448:96|440:64,1,70,12|0,0:0|0:0,0:0:0:0:
440,48,128730,1,12,0:0:0:0:
408,16,128903,6,0,P|384:8|368:8,2,35,8|2|4,0:0|0:0|0:0,0:0:0:0:
320,16,129247,1,0,0:0:0:0:
288,104,129420,1,12,0:0:0:0:
360,160,129592,6,0,L|400:152,2,35,8|2|12,0:0|0:0|0:0,0:0:0:0:
192,136,129937,1,0,0:0:0:0:
248,248,130110,1,12,0:0:0:0:
312,144,130282,1,0,0:0:0:0:
280,264,130454,1,12,0:0:0:0:
160,160,130627,1,0,0:0:0:0:
288,96,130799,5,12,0:0:0:0:
208,48,130972,1,0,0:0:0:0:
216,88,131058,1,0,0:0:0:0:
200,120,131144,1,4,0:0:0:0:
296,120,131316,2,0,L|328:152,2,35,8|2|12,0:0|0:0|0:0,0:0:0:0:
144,96,131661,1,0,0:0:0:0:
256,32,131834,1,4,0:0:0:0:
384,96,132006,6,8,L|424:88,4,35,8|10|12|2|8,0:0|0:0|0:0|0:0|0:0,0:0:0:0:
288,184,132523,2,0,P|232:192|208:208,1,70,8|8,0:0|0:0,0:0:0:0:
160,248,132868,1,12,0:0:0:0:
200,128,133040,1,8,0:0:0:0:
200,176,133127,1,0,0:0:0:0:
224,216,133212,1,12,0:0:0:0:
336,256,133385,5,8,0:0:0:0:
200,344,133557,6,0,P|168:304|160:272,1,70,12|0,0:0|0:0,0:0:0:0:
208,184,133902,2,0,P|264:192|288:208,1,70,12|8,0:0|0:0,0:0:0:0:
336,248,134247,1,12,0:0:0:0:
296,128,134419,1,8,0:0:0:0:
272,176,134506,1,0,0:0:0:0:
248,216,134591,1,4,0:0:0:0:
144,280,134764,5,8,0:0:0:0:
296,344,134937,2,0,P|328:304|336:272,1,70,12|8,0:0|0:0,0:0:0:0:
144,232,135281,2,0,P|104:216|80:176,1,70,12|0,0:0|0:0,0:0:0:0:
64,48,135626,2,0,P|64:88|72:128,1,70,12|8,0:0|0:0,0:0:0:0:
96,152,135885,1,0,0:0:0:0:
144,160,135972,5,12,0:0:0:0:
296,120,136143,2,0,P|288:80|312:48,1,70,8|12,0:0|0:0,0:0:0:0:
448,88,136488,2,0,P|432:112|392:144,1,70,0|12,0:0|0:0,0:0:0:0:
320,208,136834,1,0,0:0:0:0:
176,216,137005,1,12,0:0:0:0:
256,280,137177,1,0,0:0:0:0:
264,232,137265,5,0,0:0:0:0:
304,208,137350,2,0,P|328:240|336:296,1,70,12|0,0:0|0:0,0:0:0:0:
256,184,137695,1,12,0:0:0:0:
96,144,137867,5,0,0:0:0:0:
192,32,138041,2,0,P|168:8|112:16,1,70,12|8,0:0|0:0,0:0:0:0:
56,64,138385,1,12,0:0:0:0:
272,272,138557,1,8,0:0:0:0:
272,216,138644,1,0,0:0:0:0:
280,184,138729,1,12,0:0:0:0:
144,224,138902,5,0,0:0:0:0:
200,96,139074,2,0,P|192:144|152:160,1,70,12|0,0:0|0:0,0:0:0:0:
160,160,139419,2,0,P|112:152|80:128,1,70,12|0,0:0|0:0,0:0:0:0:
208,240,139764,1,12,0:0:0:0:
112,288,139937,2,0,P|117:318|136:336,2,35,0|12|0,0:0|0:0|0:0,0:0:0:0:
216,304,140281,5,0,0:0:0:0:
240,184,140454,1,12,0:0:0:0:
88,144,140627,2,0,P|136:160|168:144,1,70,0|12,0:0|0:0,0:0:0:0:
312,136,140971,5,0,0:0:0:0:
256,248,141144,1,12,0:0:0:0:
120,272,141316,1,0,0:0:0:0:
144,304,141403,1,0,0:0:0:0:
176,328,141489,1,12,0:0:0:0:
328,256,141661,1,0,0:0:0:0:
200,176,141833,5,12,0:0:0:0:
288,96,142006,1,0,0:0:0:0:
304,208,142178,1,12,0:0:0:0:
224,168,142351,2,0,P|176:192|168:216,1,70,0|12,0:0|0:0,0:0:0:0:
448,112,142696,1,4,0:0:0:0:
416,144,142782,1,4,0:0:0:0:
376,160,142868,1,12,0:0:0:0:
216,64,143041,5,8,0:0:0:0:
189,25,143127,1,0,0:0:0:0:
141,19,143213,1,12,0:0:0:0:
94,38,143299,1,0,0:0:0:0:
72,79,143385,1,8,0:0:0:0:
51,128,143472,1,0,0:0:0:0:
45,177,143558,6,0,P|55:216|33:257,1,70,12|8,0:0|0:0,0:0:0:0:
224,200,143903,1,12,0:0:0:0:
248,344,144075,1,8,0:0:0:0:
208,328,144161,1,0,0:0:0:0:
184,304,144247,1,12,0:0:0:0:
304,264,144420,1,8,0:0:0:0:
312,136,144592,6,0,P|360:160|400:152,1,70,12|0,0:0|0:0,0:0:0:0:
136,152,144937,2,0,P|88:144|64:112,1,70,12|0,0:0|0:0,0:0:0:0:
8,216,145282,1,12,0:0:0:0:
56,64,145454,1,8,0:0:0:0:
64,120,145541,1,0,0:0:0:0:
96,160,145626,1,12,0:0:0:0:
128,64,145799,5,0,0:0:0:0:
208,72,145971,2,0,P|200:120|168:144,1,70,4|0,0:0|0:0,0:0:0:0:
296,80,146316,2,0,P|304:112|336:144,1,70,12|0,0:0|0:0,0:0:0:0:
120,16,146661,6,0,P|80:40|72:80,1,70,12|0,0:0|0:0,0:0:0:0:
80,104,146920,1,0,0:0:0:0:
120,136,147005,1,12,0:0:0:0:
296,80,147178,6,8,P|304:112|336:144,1,70,0|12,0:0|0:0,0:0:0:0:
88,32,147523,2,0,P|64:48|64:88,1,70,8|12,0:0|0:0,0:0:0:0:
208,176,147867,5,0,0:0:0:0:
288,176,148040,1,12,0:0:0:0:
152,336,148212,1,0,0:0:0:0:
112,304,148299,1,0,0:0:0:0:
88,272,148385,5,12,0:0:0:0:
56,168,148558,1,8,0:0:0:0:
152,208,148730,5,12,0:0:0:0:
256,224,148902,1,8,0:0:0:0:
216,40,149075,2,0,P|248:32|296:40,1,70
336,168,149420,5,12,0:0:0:0:
208,120,149592,1,8,0:0:0:0:
184,152,149678,1,0,0:0:0:0:
216,192,149764,5,12,0:0:0:0:
288,64,149937,1,0,0:0:0:0:
304,288,150109,2,0,P|312:240|352:224,1,70,4|0,0:0|0:0,0:0:0:0:
416,240,150454,6,0,P|448:288|440:320,1,70,12|0,0:0|0:0,0:0:0:0:
440,336,150799,1,12,0:0:0:0:
408,368,150972,2,0,P|384:376|368:376,2,35,8|2|12,0:0|0:0|0:0,0:0:0:0:
320,368,151316,5,8,0:0:0:0:
288,280,151489,1,12,0:0:0:0:
360,224,151661,2,0,L|400:232,2,35,8|2|12,0:0|0:0|0:0,0:0:0:0:
192,248,152006,5,8,0:0:0:0:
248,136,152179,1,4,0:0:0:0:
312,240,152351,1,8,0:0:0:0:
280,120,152523,5,4,0:0:0:0:
160,224,152696,1,8,0:0:0:0:
288,288,152868,1,4,0:0:0:0:
208,336,153041,1,8,0:0:0:0:
200,176,153213,1,4,0:0:0:0:
296,264,153385,2,0,L|328:232,2,35,8|2|12,0:0|0:0|0:0,0:0:0:0:
144,288,153730,5,8,0:0:0:0:
256,352,153903,1,4,0:0:0:0:
384,288,154075,2,0,L|424:296,4,35,8|2|12|2|8,0:0|0:0|0:0|0:0|0:0,0:0:0:0:
224,208,154592,5,12,0:0:0:0:
256,160,160110,5,2,0:0:0:0:
120,40,165627,5,2,0:0:0:0:
176,144,165799,2,0,P|208:128|216:96,1,70
248,96,166144,1,0,0:0:0:0:
352,40,166316,5,2,0:0:0:0:
376,160,166489,2,0,P|328:160|304:136,1,70
136,88,167006,1,2,0:0:0:0:
208,40,167351,5,2,0:0:0:0:
280,160,167523,1,0,0:0:0:0:
368,88,167696,1,2,0:0:0:0:
256,32,167868,1,0,0:0:0:0:
88,72,168385,1,2,0:0:0:0:
232,184,168730,1,2,0:0:0:0:
272,136,168903,5,0,0:0:0:0:
320,72,169075,1,2,0:0:0:0:
360,152,169247,1,0,0:0:0:0:
224,160,169765,5,2,0:0:0:0:
160,328,170110,1,2,0:0:0:0:
168,240,170282,1,0,0:0:0:0:
280,160,170454,1,2,0:0:0:0:
264,248,170627,1,0,0:0:0:0:
176,88,171144,1,2,0:0:0:0:
344,152,171489,5,2,0:0:0:0:
432,120,171661,1,0,0:0:0:0:
392,88,171834,1,2,0:0:0:0:
344,8,172006,1,0,0:0:0:0:
112,88,172523,1,2,0:0:0:0:
296,72,172868,1,2,0:0:0:0:
344,152,173041,5,0,0:0:0:0:
352,88,173213,1,2,0:0:0:0:
440,112,173385,1,0,0:0:0:0:
200,88,173903,5,2,0:0:0:0:
368,160,174247,1,2,0:0:0:0:
296,104,174420,1,0,0:0:0:0:
432,88,174592,1,2,0:0:0:0:
344,56,174765,1,0,0:0:0:0:
144,112,175282,1,2,0:0:0:0:
304,24,175627,5,2,0:0:0:0:
304,112,175799,1,0,0:0:0:0:
384,112,175972,1,2,0:0:0:0:
352,24,176144,1,0,0:0:0:0:
160,224,176661,2,0,B|160:248|160:248|160:224|160:224|160:272|160:272,1,70,12|0,0:0|0:0,0:0:0:0:
224,184,177006,1,12,0:0:0:0:
312,216,177178,6,0,B|336:240|336:240|320:208|320:208|304:192,1,70
336,296,177523,1,0,0:0:0:0:
272,360,177696,2,0,P|216:360|192:336,1,70,12|0,0:0|0:0,0:0:0:0:
152,280,178041,2,12,P|176:336|192:352,1,70
352,224,178558,2,0,B|352:248|352:248|352:224|352:224|352:272|352:272,1,70,0|12,0:0|0:0,0:0:0:0:
288,184,178903,1,0,0:0:0:0:
200,216,179075,6,0,B|176:240|176:240|192:208|192:208|208:192,1,70,12|0,0:0|0:0,0:0:0:0:
128,160,179420,2,0,B|136:120|136:120|128:152,1,70,12|0,0:0|0:0,0:0:0:0:
216,136,179765,1,12,0:0:0:0:
296,104,179937,1,0,0:0:0:0:
360,160,180110,2,0,B|368:120|368:120|360:152,1,70,12|0,0:0|0:0,0:0:0:0:
304,72,180454,1,12,0:0:0:0:
280,184,180627,5,0,0:0:0:0:
144,272,180799,2,0,B|136:232|136:232|144:264,1,70,12|0,0:0|0:0,0:0:0:0:
216,136,181144,1,12,0:0:0:0:
336,240,181316,1,0,0:0:0:0:
400,312,181489,2,0,B|408:272|408:272|400:304,1,70,12|0,0:0|0:0,0:0:0:0:
256,328,181833,1,12,0:0:0:0:
248,192,182006,5,0,0:0:0:0:
384,160,182178,2,0,B|376:120|376:120|384:152,1,70,12|0,0:0|0:0,0:0:0:0:
296,136,182523,1,12,0:0:0:0:
216,104,182695,1,0,0:0:0:0:
152,160,182868,2,0,B|144:120|144:120|152:152,1,70,12|0,0:0|0:0,0:0:0:0:
208,72,183212,1,12,0:0:0:0:
288,104,183385,5,0,0:0:0:0:
384,160,183558,2,0,B|376:120|376:120|384:152,1,70,12|0,0:0|0:0,0:0:0:0:
296,136,183902,1,12,0:0:0:0:
216,104,184074,1,0,0:0:0:0:
152,160,184247,2,0,B|144:120|144:120|152:152,1,70,12|0,0:0|0:0,0:0:0:0:
208,72,184591,1,12,0:0:0:0:
288,104,184764,5,0,0:0:0:0:
400,152,184937,2,0,P|352:152|320:136,1,70,12|0,0:0|0:0,0:0:0:0:
296,56,185282,2,0,P|320:24|360:16,1,70,12|0,0:0|0:0,0:0:0:0:
424,32,185627,2,0,P|448:72|440:96,1,70,12|0,0:0|0:0,0:0:0:0:
360,8,185972,2,0,P|320:16|304:48,1,70,12|0,0:0|0:0,0:0:0:0:
304,128,186316,2,0,P|344:152|376:160,1,70,12|0,0:0|0:0,0:0:0:0:
424,136,186661,6,0,P|448:96|448:56,1,70,12|0,0:0|0:0,0:0:0:0:
336,48,187006,1,12,0:0:0:0:
208,72,187178,2,0,P|208:112|192:144,1,70,0|12,0:0|0:0,0:0:0:0:
64,112,187523,2,0,P|104:160|128:160,1,70,0|12,0:0|0:0,0:0:0:0:
80,256,187868,1,8,0:0:0:0:
136,352,188041,1,12,0:0:0:0:
288,264,188213,5,8,0:0:0:0:
208,272,188385,1,4,0:0:0:0:
264,192,188558,1,8,0:0:0:0:
368,168,188730,1,4,0:0:0:0:
392,256,188903,2,0,P|368:288|368:320,1,70,8|12,0:0|0:0,0:0:0:0:
280,352,189247,1,8,0:0:0:0:
160,312,189420,5,12,0:0:0:0:
200,200,189592,1,8,0:0:0:0:
248,280,189765,1,12,0:0:0:0:
352,296,189937,2,8,P|336:240|312:216,1,70,8|4,0:0|0:0,0:0:0:0:
168,240,190282,2,0,P|152:280|160:304,1,70,8|12,0:0|0:0,0:0:0:0:
392,328,190627,2,0,P|424:288|424:248,1,70,8|12,0:0|0:0,0:0:0:0:
248,240,190971,6,0,P|280:264|272:304,1,70,8|12,0:0|0:0,0:0:0:0:
200,176,191316,1,8,0:0:0:0:
288,88,191489,1,12,0:0:0:0:
160,152,191660,1,8,0:0:0:0:
248,152,191833,1,12,0:0:0:0:
408,136,192006,2,0,P|376:160|328:152,1,70,8|12,0:0|0:0,0:0:0:0:
208,120,192351,6,0,P|216:80|200:40,1,70,8|12,0:0|0:0,0:0:0:0:
88,216,192695,1,8,0:0:0:0:
216,240,192868,1,12,0:0:0:0:
112,320,193041,1,8,0:0:0:0:
152,184,193212,1,12,0:0:0:0:
288,280,193385,2,0,P|288:248|312:200,1,70,8|12,0:0|0:0,0:0:0:0:
24,200,193730,6,0,P|40:232|24:288,1,70,8|12,0:0|0:0,0:0:0:0:
288,240,194075,2,0,P|296:209|331:168,1,70,8|12,0:0|0:0,0:0:0:0:
32,232,194420,2,0,P|39:267|9:317,1,70,8|12,0:0|0:0,0:0:0:0:
288,200,194765,2,0,P|304:172|348:142,1,70,8|12,0:0|0:0,0:0:0:0:
32,256,195110,6,0,P|29:291|-12:332,1,70,8|12,0:0|0:0,0:0:0:0:
296,160,195455,2,0,P|312:132|356:102,1,70,8|12,0:0|0:0,0:0:0:0:
32,280,195800,6,0,P|29:315|72:352,1,70,8|12,0:0|0:0,0:0:0:0:
80,336,196058,1,2,0:0:0:0:
112,328,196144,1,8,0:0:0:0:
168,232,196316,5,12,0:0:0:0:
192,208,196403,1,0,0:0:0:0:
216,192,196489,1,8,0:0:0:0:
336,248,196661,5,12,0:0:0:0:
312,224,196747,1,0,0:0:0:0:
288,208,196834,1,8,0:0:0:0:
248,312,197006,1,12,0:0:0:0:
248,240,197178,1,0,0:0:0:0:
160,176,197351,2,0,L|216:176|256:176,1,70,12|0,0:0|0:0,0:0:0:0:
344,184,197696,6,0,L|272:176,1,70,12|0,0:0|0:0,0:0:0:0:
216,80,198041,1,12,0:0:0:0:
280,176,198213,1,0,0:0:0:0:
280,88,198385,1,12,0:0:0:0:
200,168,198558,1,0,0:0:0:0:
168,16,198730,1,12,0:0:0:0:
192,144,198903,6,0,P|144:160|112:152,1,70,0|12,0:0|0:0,0:0:0:0:
24,128,199248,1,0,0:0:0:0:
32,168,199420,1,12,0:0:0:0:
56,200,199592,2,0,P|72:232|88:272,1,70,0|12,0:0|0:0,0:0:0:0:
152,280,199937,1,0,0:0:0:0:
216,192,200110,1,12,0:0:0:0:
344,344,200282,5,0,0:0:0:0:
352,240,200454,2,0,P|320:208|280:192,1,70,4|0,0:0|0:0,0:0:0:0:
400,312,200799,1,12,0:0:0:0:
408,152,200972,1,0,0:0:0:0:
504,112,201144,1,12,0:0:0:0:
504,216,201317,1,0,0:0:0:0:
392,24,201489,6,0,B|384:64|384:64|352:40,1,70,12|0,0:0|0:0,0:0:0:0:
304,48,201834,1,12,0:0:0:0:
224,80,202006,1,0,0:0:0:0:
160,24,202179,6,0,B|152:64|152:64|200:80,1,70,12|0,0:0|0:0,0:0:0:0:
288,80,202523,1,12,0:0:0:0:
368,144,202696,1,0,0:0:0:0:
448,72,202868,6,0,B|440:112|440:112|408:136,1,70,12|0,0:0|0:0,0:0:0:0:
304,128,203213,1,12,0:0:0:0:
216,176,203385,1,0,0:0:0:0:
160,216,203558,6,0,B|152:256|152:256|160:304,1,70,12|0,0:0|0:0,0:0:0:0:
240,312,203902,1,12,0:0:0:0:
280,200,204075,1,0,0:0:0:0:
360,160,204247,2,0,P|400:160|424:136,2,70,12|0|12,0:0|0:0|0:0,0:0:0:0:
440,64,204765,1,0,0:0:0:0:
352,72,204937,1,12,0:0:0:0:
504,72,205110,6,0,P|488:120|488:160,2,70,0|12|0,0:0|0:0|0:0,0:0:0:0:
392,32,205627,1,12,0:0:0:0:
288,72,205799,1,0,0:0:0:0:
208,32,205972,6,0,P|224:80|216:128,1,70,12|0,0:0|0:0,0:0:0:0:
72,96,206317,5,12,0:0:0:0:
152,64,206489,1,0,0:0:0:0:
288,152,206661,2,0,B|256:120|256:120|240:152,1,70,12|0,0:0|0:0,0:0:0:0:
152,24,207006,6,0,B|160:64|160:64|112:48,1,70,12|0,0:0|0:0,0:0:0:0:
80,64,207351,1,12,0:0:0:0:
136,152,207523,1,0,0:0:0:0:
192,208,207696,6,0,B|216:192|216:192|256:184,1,70,12|0,0:0|0:0,0:0:0:0:
320,120,208040,1,4,0:0:0:0:
248,80,208213,1,0,0:0:0:0:
152,24,208385,6,0,B|160:64|160:64|200:64,1,70,12|0,0:0|0:0,0:0:0:0:
288,48,208730,1,12,0:0:0:0:
368,48,208902,1,0,0:0:0:0:
408,136,209075,5,12,0:0:0:0:
400,16,209248,1,8,0:0:0:0:
360,16,209334,1,0,0:0:0:0:
328,24,209420,1,12,0:0:0:0:
304,48,209506,1,0,0:0:0:0:
304,80,209592,1,8,0:0:0:0:
296,184,209765,6,0,P|240:192|216:208,1,70,12|0,0:0|0:0,0:0:0:0:
168,248,210110,1,12,0:0:0:0:
208,128,210282,1,0,0:0:0:0:
248,248,210454,5,12,0:0:0:0:
208,128,210627,1,0,0:0:0:0:
208,344,210799,2,0,P|176:304|168:272,1,70,12|0,0:0|0:0,0:0:0:0:
216,184,211144,6,0,P|272:192|296:208,1,70,12|0,0:0|0:0,0:0:0:0:
344,248,211489,1,12,0:0:0:0:
304,128,211661,1,0,0:0:0:0:
264,248,211833,5,12,0:0:0:0:
304,128,212006,1,0,0:0:0:0:
304,344,212178,2,0,P|336:304|344:272,1,70,12|0,0:0|0:0,0:0:0:0:
168,152,212523,2,0,P|128:160|88:136,1,70,12|0,0:0|0:0,0:0:0:0:
336,152,212868,2,0,P|384:160|416:128,1,70,12|0,0:0|0:0,0:0:0:0:
264,248,213212,1,12,0:0:0:0:
208,104,213385,6,0,P|216:80|200:32,1,70,0|12,0:0|0:0,0:0:0:0:
296,112,213730,2,0,P|288:80|312:32,1,70,0|12,0:0|0:0,0:0:0:0:
256,192,214074,1,0,0:0:0:0:
264,280,214247,1,12,0:0:0:0:
256,184,214419,1,0,0:0:0:0:
480,144,214592,2,0,P|480:176|512:232,1,70,12|0,0:0|0:0,0:0:0:0:
360,176,214937,5,12,0:0:0:0:
208,248,215109,1,0,0:0:0:0:
280,360,215282,2,0,P|248:368|200:336,1,70,4|0,0:0|0:0,0:0:0:0:
176,216,215627,1,12,0:0:0:0:
280,272,215799,1,0,0:0:0:0:
288,184,215971,1,12,0:0:0:0:
224,280,216144,5,0,0:0:0:0:
208,96,216316,2,0,P|200:144|160:160,1,70,12|0,0:0|0:0,0:0:0:0:
96,144,216661,2,0,P|64:96|72:64,1,70,12|0,0:0|0:0,0:0:0:0:
72,48,217006,5,12,0:0:0:0:
104,16,217179,2,0,P|128:8|144:8,2,35,8|8|12,0:0|0:0|0:0,0:0:0:0:
192,16,217523,1,0,0:0:0:0:
224,104,217696,1,12,0:0:0:0:
152,160,217868,2,0,L|112:152,2,35,8|0|12,0:0|0:0|0:0,0:0:0:0:
320,136,218213,1,0,0:0:0:0:
264,248,218386,5,12,0:0:0:0:
200,144,218558,1,0,0:0:0:0:
232,264,218730,1,12,0:0:0:0:
352,160,218903,1,0,0:0:0:0:
224,96,219075,1,12,0:0:0:0:
304,48,219248,1,0,0:0:0:0:
312,208,219420,5,12,0:0:0:0:
216,120,219592,2,0,L|184:152,2,35,8|0|12,0:0|0:0|0:0,0:0:0:0:
368,96,219937,1,0,0:0:0:0:
256,32,220110,1,12,0:0:0:0:
128,96,220282,2,0,L|88:88,4,35,8|0|12|0|8,0:0|0:0|0:0|0:0|0:0,0:0:0:0:
344,16,220799,1,12,0:0:0:0:
320,144,220972,6,0,P|368:160|400:152,1,70,8|12,0:0|0:0,0:0:0:0:
496,104,221317,1,8,0:0:0:0:
512,168,221489,1,12,0:0:0:0:
448,208,221661,2,0,P|432:240|416:280,1,70,8|12,0:0|0:0,0:0:0:0:
360,280,222006,1,8,0:0:0:0:
296,192,222179,1,12,0:0:0:0:
168,344,222351,5,8,0:0:0:0:
160,240,222523,2,0,P|192:208|232:192,1,70,12|8,0:0|0:0,0:0:0:0:
112,312,222868,1,12,0:0:0:0:
104,152,223041,1,8,0:0:0:0:
8,112,223213,1,12,0:0:0:0:
8,216,223386,1,8,0:0:0:0:
120,24,223558,6,0,B|128:64|128:64|88:80,1,70,12|8,0:0|0:0,0:0:0:0:
32,120,223903,1,12,0:0:0:0:
64,216,224075,1,8,0:0:0:0:
208,128,224248,6,0,B|192:152|192:152|144:160,1,70,12|8,0:0|0:0,0:0:0:0:
72,192,224592,1,12,0:0:0:0:
168,232,224765,1,8,0:0:0:0:
152,296,224937,6,0,B|160:336|160:336|216:360,1,70,12|8,0:0|0:0,0:0:0:0:
248,272,225282,1,12,0:0:0:0:
312,208,225454,1,8,0:0:0:0:
336,272,225627,6,0,B|344:312|344:312|312:352,1,70,12|8,0:0|0:0,0:0:0:0:
192,344,225971,1,12,0:0:0:0:
240,184,226144,1,8,0:0:0:0:
144,256,226316,1,12,0:0:0:0:
280,272,226489,1,8,0:0:0:0:
176,208,226661,1,12,0:0:0:0:
256,360,226834,5,8,0:0:0:0:
144,304,227006,1,12,0:0:0:0:
64,216,227179,2,0,L|80:264|96:312,2,70,8|12|8,0:0|0:0|0:0,0:0:0:0:
64,104,227696,1,12,0:0:0:0:
192,128,227868,1,8,0:0:0:0:
304,32,228041,2,0,P|288:80|296:128,1,70,12|8,0:0|0:0,0:0:0:0:
440,96,228386,5,12,0:0:0:0:
360,64,228558,1,8,0:0:0:0:
224,152,228730,2,0,B|256:120|256:120|272:152,1,70,12|8,0:0|0:0,0:0:0:0:
360,24,229075,6,0,B|354:49|354:49|352:64|352:64|400:64,1,70,12|8,0:0|0:0,0:0:0:0:
272,48,229420,1,12,0:0:0:0:
192,80,229592,1,8,0:0:0:0:
128,24,229765,6,0,B|120:64|120:64|121:59|64:64,1,70,12|8,0:0|0:0,0:0:0:0:
184,112,230109,1,12,0:0:0:0:
264,80,230282,1,8,0:0:0:0:
336,128,230454,6,0,B|328:168|328:168|352:216,1,70,12|8,0:0|0:0,0:0:0:0:
272,48,230799,1,12,0:0:0:0:
192,80,230971,1,8,0:0:0:0:
64,96,231144,5,12,0:0:0:0:
112,16,231317,1,8,0:0:0:0:
152,16,231403,1,0,0:0:0:0:
184,24,231488,1,12,0:0:0:0:
208,48,231575,1,0,0:0:0:0:
208,80,231661,1,8,0:0:0:0:
216,184,231834,6,0,P|272:192|296:208,1,70,12|8,0:0|0:0,0:0:0:0:
344,248,232179,1,12,0:0:0:0:
304,128,232351,1,8,0:0:0:0:
264,248,232523,5,12,0:0:0:0:
304,128,232696,1,8,0:0:0:0:
304,344,232868,2,0,P|336:304|344:272,1,70,12|8,0:0|0:0,0:0:0:0:
296,184,233213,6,0,P|240:192|216:208,1,70,12|8,0:0|0:0,0:0:0:0:
168,248,233558,1,12,0:0:0:0:
208,128,233730,1,8,0:0:0:0:
248,248,233902,5,12,0:0:0:0:
208,128,234075,1,8,0:0:0:0:
208,344,234247,2,0,P|176:304|168:272,1,70,12|8,0:0|0:0,0:0:0:0:
424,352,234592,2,0,P|456:328|488:296,1,70,12|8,0:0|0:0,0:0:0:0:
320,200,234937,2,0,P|272:176|232:184,1,70,12|8,0:0|0:0,0:0:0:0:
168,240,235281,1,12,0:0:0:0:
80,352,235454,6,0,P|48:328|16:296,1,70,8|12,0:0|0:0,0:0:0:0:
136,160,235799,2,0,P|184:136|208:104,1,70,8|12,0:0|0:0,0:0:0:0:
368,168,236143,1,8,0:0:0:0:
424,256,236316,1,12,0:0:0:0:
336,312,236488,1,8,0:0:0:0:
168,224,236661,2,0,P|168:256|136:312,1,70,12|8,0:0|0:0,0:0:0:0:
152,176,237006,5,12,0:0:0:0:
256,160,237178,1,8,0:0:0:0:
232,360,237351,2,0,P|264:368|312:336,1,70,12|8,0:0|0:0,0:0:0:0:
336,216,237696,1,12,0:0:0:0:
232,272,237868,1,8,0:0:0:0:
224,184,238040,1,12,0:0:0:0:
288,280,238213,5,8,0:0:0:0:
304,96,238385,2,0,P|312:144|352:160,1,70,12|8,0:0|0:0,0:0:0:0:
416,144,238730,2,0,P|448:96|440:64,1,70,12|8,0:0|0:0,0:0:0:0:
440,48,239075,5,12,0:0:0:0:
408,16,239247,2,0,P|384:8|368:8,2,35,8|0|12,0:0|0:0|0:0,0:0:0:0:
320,16,239592,1,8,0:0:0:0:
288,104,239765,5,12,0:0:0:0:
360,160,239937,2,0,L|400:152,2,35,8|0|12,0:0|0:0|0:0,0:0:0:0:
192,136,240282,1,8,0:0:0:0:
248,248,240455,5,12,0:0:0:0:
312,144,240627,1,8,0:0:0:0:
280,264,240799,1,12,0:0:0:0:
160,160,240972,5,8,0:0:0:0:
288,96,241144,1,12,0:0:0:0:
208,48,241317,1,8,0:0:0:0:
200,208,241489,5,12,0:0:0:0:
296,120,241661,2,0,L|328:152,2,35,8|0|12,0:0|0:0|0:0,0:0:0:0:
144,96,242006,1,8,0:0:0:0:
256,32,242179,5,12,0:0:0:0:
384,96,242351,2,0,L|424:88,4,35,8|0|12|0|8,0:0|0:0|0:0|0:0|0:0,0:0:0:0:
168,16,242868,1,4,0:0:0:0:
64,96,243041,1,0,0:0:0:0:
192,144,243213,2,0,P|176:152|152:160,3,35,8|12|0|0,0:0|0:0|0:0|0:0,0:0:0:0:
136,200,243558,1,12,0:0:0:0:
64,208,243730,6,0,P|80:240|96:280,1,70,8|12,0:0|0:0,0:0:0:0:
152,280,244075,1,8,0:0:0:0:
256,272,244248,1,12,0:0:0:0:
344,344,244420,5,8,0:0:0:0:
408,272,244592,1,12,0:0:0:0:
288,200,244765,1,0,0:0:0:0:
240,184,244851,1,0,0:0:0:0:
192,200,244937,1,12,0:0:0:0:
408,152,245110,1,8,0:0:0:0:
504,112,245282,1,12,0:0:0:0:
504,216,245455,1,8,0:0:0:0:
392,24,245627,6,0,B|384:64|384:64|344:64,1,70,12|8,0:0|0:0,0:0:0:0:
248,104,245972,1,12,0:0:0:0:
160,16,246144,1,8,0:0:0:0:
120,16,246230,1,0,0:0:0:0:
72,32,246317,6,0,B|64:72|64:72|72:112,1,70,12|8,0:0|0:0,0:0:0:0:
216,112,246661,1,12,0:0:0:0:
296,80,246834,1,8,0:0:0:0:
392,24,247006,6,0,B|384:64|384:64|408:80,1,70,12|8,0:0|0:0,0:0:0:0:
448,216,247351,1,12,0:0:0:0:
320,320,247523,1,8,0:0:0:0:
336,280,247610,1,0,0:0:0:0:
336,240,247696,6,0,B|328:200|328:200|280:184,1,70,12|0,0:0|0:0,0:0:0:0:
216,112,248040,1,12,0:0:0:0:
296,80,248213,1,8,0:0:0:0:
216,160,248385,6,0,P|272:160|312:184,1,70,12|8,0:0|0:0,0:0:0:0:
352,256,248730,1,12,0:0:0:0:
400,136,248903,1,8,0:0:0:0:
368,112,248989,1,0,0:0:0:0:
352,72,249075,1,12,0:0:0:0:
504,72,249247,2,0,P|488:120|488:160,2,70,8|12|8,0:0|0:0|0:0,0:0:0:0:
392,32,249765,1,12,0:0:0:0:
288,72,249937,5,8,0:0:0:0:
208,32,250110,2,0,P|224:80|200:120,1,70,12|8,0:0|0:0,0:0:0:0:
200,128,250368,1,0,0:0:0:0:
168,144,250455,1,12,0:0:0:0:
232,248,250627,1,8,0:0:0:0:
288,152,250799,2,0,B|256:120|256:120|240:152,1,70,12|8,0:0|0:0,0:0:0:0:
152,24,251144,2,0,B|160:64|160:64|200:80,1,70,12|8,0:0|0:0,0:0:0:0:
248,128,251489,5,12,0:0:0:0:
368,16,251661,1,8,0:0:0:0:
400,24,251747,1,0,0:0:0:0:
424,72,251834,2,12,B|440:96|440:96|416:136,1,70,12|8,0:0|0:0,0:0:0:0:
320,200,252178,1,12,0:0:0:0:
440,208,252351,1,8,0:0:0:0:
288,80,252523,2,0,B|296:120|296:120|344:152,1,70,12|8,0:0|0:0,0:0:0:0:
192,184,252868,5,12,0:0:0:0:
80,120,253040,1,8,0:0:0:0:
64,88,253127,1,0,0:0:0:0:
64,56,253213,5,12,0:0:0:0:
216,48,253386,1,8,0:0:0:0:
216,88,253472,1,0,0:0:0:0:
224,120,253557,1,12,0:0:0:0:
248,144,253644,1,0,0:0:0:0:
280,144,253730,1,8,0:0:0:0:
344,248,253903,6,0,P|312:216|280:192,1,70,12|8,0:0|0:0,0:0:0:0:
168,248,254248,1,12,0:0:0:0:
208,128,254420,1,8,0:0:0:0:
224,176,254506,1,0,0:0:0:0:
240,224,254592,5,12,0:0:0:0:
128,176,254765,1,8,0:0:0:0:
208,344,254937,2,0,P|176:304|168:272,1,70,12|8,0:0|0:0,0:0:0:0:
216,184,255282,6,0,P|272:192|296:208,1,70,12|8,0:0|0:0,0:0:0:0:
344,248,255627,1,12,0:0:0:0:
304,128,255799,1,8,0:0:0:0:
288,176,255885,1,0,0:0:0:0:
248,200,255971,5,12,0:0:0:0:
376,184,256144,1,8,0:0:0:0:
328,320,256316,2,0,P|344:280|336:240,1,70,12|8,0:0|0:0,0:0:0:0:
352,152,256661,2,0,P|312:136|288:96,1,70,12|8,0:0|0:0,0:0:0:0:
64,64,257006,2,0,P|80:112|96:144,1,70,12|8,0:0|0:0,0:0:0:0:
128,160,257265,1,0,0:0:0:0:
176,160,257350,1,12,0:0:0:0:
328,232,257523,6,0,P|304:200|256:192,1,70,8|12,0:0|0:0,0:0:0:0:
120,320,257868,2,0,L|104:288|80:240,1,70,8|12,0:0|0:0,0:0:0:0:
24,320,258212,1,8,0:0:0:0:
24,192,258385,1,12,0:0:0:0:
176,224,258557,1,8,0:0:0:0:
224,200,258644,1,0,0:0:0:0:
264,176,258730,2,0,P|264:208|256:272,1,70,12|8,0:0|0:0,0:0:0:0:
328,112,259075,5,12,0:0:0:0:
256,160,259247,1,8,0:0:0:0:
280,360,259420,2,0,P|248:368|200:336,1,70,12|8,0:0|0:0,0:0:0:0:
176,216,259765,1,12,0:0:0:0:
280,272,259937,1,8,0:0:0:0:
288,224,260023,1,0,0:0:0:0:
288,184,260109,1,12,0:0:0:0:
224,280,260282,5,8,0:0:0:0:
200,96,260454,2,0,P|192:144|152:160,1,70,12|8,0:0|0:0,0:0:0:0:
112,264,260799,2,0,P|80:216|88:184,1,70,12|8,0:0|0:0,0:0:0:0:
8,120,261144,1,12,0:0:0:0:
104,16,261317,2,0,P|128:8|184:16,1,70,8|12,0:0|0:0,0:0:0:0:
256,112,261661,1,8,0:0:0:0:
248,232,261834,5,12,0:0:0:0:
152,160,262006,2,0,P|127:154|80:128,1,70,8|12,0:0|0:0,0:0:0:0:
320,136,262351,1,0,0:0:0:0:
264,248,262524,1,2,0:0:0:0:
200,144,262696,1,0,0:0:0:0:
232,264,262868,1,2,0:0:0:0:
352,160,263041,5,0,0:0:0:0:
224,96,263213,1,2,0:0:0:0:
304,48,263386,1,0,0:0:0:0:
312,208,263558,1,2,0:0:0:0:
216,120,263730,2,0,P|184:152|152:160,1,70
368,96,264075,1,2,0:0:0:0:
304,32,264248,5,8,0:0:0:0:
344,16,264334,1,0,0:0:0:0:
392,24,264420,1,8,0:0:0:0:
424,56,264506,5,0,0:0:0:0:
432,104,264592,1,0,0:0:0:0:
400,136,264678,1,0,0:0:0:0:
360,152,264765,5,8,0:0:0:0:
320,168,264851,1,0,0:0:0:0:
272,176,264937,2,0,P|224:192|192:208,1,70,12|8,0:0|0:0,0:0:0:0:
336,224,265282,5,12,0:0:0:0:
488,120,265455,1,8,0:0:0:0:
456,304,265626,1,12,0:0:0:0:
320,144,265799,1,8,0:0:0:0:
416,16,265972,2,0,P|448:56|448:96,1,70,12|8,0:0|0:0,0:0:0:0:
448,208,266317,2,0,P|424:264|408:296,1,70,12|8,0:0|0:0,0:0:0:0:
248,144,266662,5,12,0:0:0:0:
40,144,266835,1,8,0:0:0:0:
144,320,267006,1,12,0:0:0:0:
128,160,267179,1,8,0:0:0:0:
128,8,267352,2,0,P|80:40|64:72,1,70,12|8,0:0|0:0,0:0:0:0:
320,144,267696,2,0,P|304:120|288:80,1,70,12|8,0:0|0:0,0:0:0:0:
352,248,268041,5,12,0:0:0:0:
224,256,268214,1,8,0:0:0:0:
320,344,268385,1,12,0:0:0:0:
256,144,268558,1,8,0:0:0:0:
192,336,268731,2,0,P|176:312|176:256,1,70,12|8,0:0|0:0,0:0:0:0:
352,240,269075,2,0,P|352:280|344:320,1,70,12|8,0:0|0:0,0:0:0:0:
440,120,269420,5,12,0:0:0:0:
280,80,269593,1,8,0:0:0:0:
408,8,269764,1,12,0:0:0:0:
360,160,269937,1,8,0:0:0:0:
288,64,270110,2,0,P|288:96|320:144,1,70,12|8,0:0|0:0,0:0:0:0:
488,144,270454,2,0,P|472:112|488:56,1,70,12|8,0:0|0:0,0:0:0:0:
416,248,270800,5,12,0:0:0:0:
248,144,270973,1,8,0:0:0:0:
352,56,271144,1,12,0:0:0:0:
312,240,271316,1,8,0:0:0:0:
128,352,271490,2,0,P|80:320|64:296,1,70,12|8,0:0|0:0,0:0:0:0:
176,224,271835,2,0,P|208:192|256:192,1,70,12|8,0:0|0:0,0:0:0:0:
248,368,272178,5,12,0:0:0:0:
400,312,272351,1,8,0:0:0:0:
312,136,272524,1,12,0:0:0:0:
288,280,272697,1,8,0:0:0:0:
384,168,272868,2,0,P|432:136|448:104,1,70,12|8,0:0|0:0,0:0:0:0:
192,24,273214,2,0,P|208:48|224:88,1,70,12|8,0:0|0:0,0:0:0:0:
88,88,273559,5,12,0:0:0:0:
168,152,273730,1,8,0:0:0:0:
192,16,273903,1,12,0:0:0:0:
264,152,274076,1,8,0:0:0:0:
432,32,274247,2,0,P|448:56|448:112,1,70,12|8,0:0|0:0,0:0:0:0:
304,120,274593,1,12,0:0:0:0:
304,40,274765,5,8,0:0:0:0:
416,144,274938,1,12,0:0:0:0:
360,8,275111,1,8,0:0:0:0:
320,176,275282,5,12,0:0:0:0:
328,320,275455,1,8,0:0:0:0:
216,336,275541,5,0,0:0:0:0:
216,304,275627,1,12,0:0:0:0:
216,264,275713,2,0,P|232:240|256:240,1,35,0|8,0:0|0:0,0:0:0:0:
496,240,275972,6,0,P|464:296|456:328,1,70,12|8,0:0|0:0,0:0:0:0:
312,216,276317,1,12,0:0:0:0:
192,344,276490,1,8,0:0:0:0:
88,160,276661,1,12,0:0:0:0:
56,312,276834,1,8,0:0:0:0:
248,168,277006,2,0,P|200:200|184:232,1,70,12|8,0:0|0:0,0:0:0:0:
384,152,277351,6,0,P|416:152|440:120,1,70,12|8,0:0|0:0,0:0:0:0:
264,184,277697,1,12,0:0:0:0:
448,112,277868,1,8,0:0:0:0:
264,56,278041,1,12,0:0:0:0:
344,224,278214,1,8,0:0:0:0:
384,8,278385,2,0,P|432:40|448:72,1,70,12|8,0:0|0:0,0:0:0:0:
192,144,278731,6,0,P|208:120|224:80,1,70,12|8,0:0|0:0,0:0:0:0:
160,248,279076,1,12,0:0:0:0:
344,248,279247,1,8,0:0:0:0:
208,368,279420,1,12,0:0:0:0:
256,160,279593,1,8,0:0:0:0:
320,336,279766,2,0,P|336:312|336:256,1,70,12|8,0:0|0:0,0:0:0:0:
160,240,280110,6,0,P|160:280|168:320,1,70,12|8,0:0|0:0,0:0:0:0:
56,112,280455,1,12,0:0:0:0:
240,96,280628,1,8,0:0:0:0:
112,8,280799,1,12,0:0:0:0:
152,168,280972,1,8,0:0:0:0:
296,64,281145,2,0,P|296:96|320:144,1,70,12|8,0:0|0:0,0:0:0:0:
80,128,281490,6,0,P|72:96|80:40,1,70,12|8,0:0|0:0,0:0:0:0:
96,248,281835,1,12,0:0:0:0:
256,248,282006,1,8,0:0:0:0:
168,120,282179,1,12,0:0:0:0:
168,328,282352,1,8,0:0:0:0:
392,320,282523,2,0,P|424:264|440:232,1,70,12|8,0:0|0:0,0:0:0:0:
320,320,282868,6,0,P|288:352|240:352,1,70,12|8,0:0|0:0,0:0:0:0:
248,176,283213,1,12,0:0:0:0:
112,312,283385,1,8,0:0:0:0:
192,88,283559,1,12,0:0:0:0:
224,280,283730,1,8,0:0:0:0:
128,168,283903,2,0,P|80:136|64:104,1,70,12|8,0:0|0:0,0:0:0:0:
56,80,284161,1,0,0:0:0:0:
80,32,284248,6,0,P|104:16|144:16,1,70,12|8,0:0|0:0,0:0:0:0:
336,208,284592,2,0,P|360:248|352:272,1,70,12|8,0:0|0:0,0:0:0:0:
184,344,284937,2,0,P|160:296|160:248,1,70,12|8,0:0|0:0,0:0:0:0:
80,32,285282,2,0,P|64:56|64:112,1,70,12|8,0:0|0:0,0:0:0:0:
80,128,285541,1,0,0:0:0:0:
120,144,285628,1,4,0:0:0:0:
192,56,285800,5,8,0:0:0:0:
216,72,285886,1,0,0:0:0:0:
216,104,285972,1,12,0:0:0:0:
200,136,286058,1,0,0:0:0:0:
176,160,286144,1,8,0:0:0:0:
272,144,286317,1,12,0:0:0:0:
344,208,286490,5,8,0:0:0:0:
352,240,286575,1,0,0:0:0:0:
360,272,286662,1,12,0:0:0:0:
352,304,286748,1,0,0:0:0:0:
344,336,286834,1,12,0:0:0:0:
320,360,286920,1,0,0:0:0:0:
32,152,287006,6,0,P|40:112|32:56,1,70,12|8,0:0|0:0,0:0:0:0:
184,200,287351,1,12,0:0:0:0:
296,112,287524,1,8,0:0:0:0:
336,144,287610,1,0,0:0:0:0:
376,168,287695,1,12,0:0:0:0:
240,48,287868,1,8,0:0:0:0:
448,80,288041,2,0,P|424:120|384:128,1,70,4|8,0:0|0:0,0:0:0:0:
168,232,288386,6,0,P|152:288|160:320,1,70,12|8,0:0|0:0,0:0:0:0:
248,184,288731,1,12,0:0:0:0:
64,120,288903,2,0,L|96:152,2,35,0|2|0,0:0|0:0|0:0,0:0:0:0:
128,160,289248,1,0,0:0:0:0:
128,8,289421,2,0,P|80:40|64:72,1,70,12|0,0:0|0:0,0:0:0:0:
320,144,289765,2,0,P|304:120|288:80,1,70
352,248,290110,5,0,0:0:0:0:
320,336,290282,2,0,B|344:304|344:304|328:320,2,35,0|0|12,0:0|0:0|0:0,0:0:0:0:
264,192,290627,1,0,0:0:0:0:
192,336,290800,6,0,P|176:312|176:256,1,70
352,240,291144,2,0,P|352:280|344:320,1,70,12|0,0:0|0:0,0:0:0:0:
440,120,291489,1,0,0:0:0:0:
416,32,291661,6,0,L|440:64,2,35,0|0|12,0:0|0:0|0:0,0:0:0:0:
360,160,292006,1,0,0:0:0:0:
224,64,292179,2,0,P|224:96|200:144,1,70,0|12,0:0|0:0,0:0:0:0:
488,144,292524,6,0,P|472:112|488:56,1,70,12|8,0:0|0:0,0:0:0:0:
416,248,292869,1,12,0:0:0:0:
288,184,293042,1,8,0:0:0:0:
312,216,293127,1,0,0:0:0:0:
336,256,293213,1,12,0:0:0:0:
136,216,293386,1,8,0:0:0:0:
40,64,293559,6,0,P|24:120|16:160,1,70,12|8,0:0|0:0,0:0:0:0:
160,288,293904,2,0,P|168:320|208:344,1,70,12|8,0:0|0:0,0:0:0:0:
264,176,294247,1,12,0:0:0:0:
392,328,294420,1,0,0:0:0:0:
408,296,294506,1,0,0:0:0:0:
416,264,294593,1,0,0:0:0:0:
288,280,294766,5,8,0:0:0:0:
384,168,294937,2,0,P|432:136|448:104,1,70,12|0,0:0|0:0,0:0:0:0:
288,80,295283,2,0,P|304:104|320:144,1,70
208,56,295628,5,0,0:0:0:0:
168,152,295799,1,0,0:0:0:0:
200,128,295885,1,0,0:0:0:0:
216,88,295972,1,12,0:0:0:0:
264,152,296145,1,0,0:0:0:0:
432,32,296316,2,0,P|448:56|448:112,1,70,12|8,0:0|0:0,0:0:0:0:
304,120,296662,5,12,0:0:0:0:
304,40,296834,1,0,0:0:0:0:
416,144,297007,1,0,0:0:0:0:
248,160,297178,1,0,0:0:0:0:
280,168,297265,1,0,0:0:0:0:
312,184,297351,1,12,0:0:0:0:
152,200,297524,5,0,0:0:0:0:
216,336,297610,5,0,0:0:0:0:
216,304,297696,1,0,0:0:0:0:
216,264,297782,2,0,P|232:240|256:240,1,35
496,240,298041,6,0,P|464:296|456:328,1,70,12|8,0:0|0:0,0:0:0:0:
272,208,298386,1,12,0:0:0:0:
448,56,298559,1,8,0:0:0:0:
208,32,298730,1,12,0:0:0:0:
360,144,298903,1,8,0:0:0:0:
336,8,299076,2,0,P|312:48|272:72,1,70,12|8,0:0|0:0,0:0:0:0:
120,160,299421,6,0,P|144:216|144:256,1,70,12|8,0:0|0:0,0:0:0:0:
296,128,299766,1,12,0:0:0:0:
392,256,299937,1,0,0:0:0:0:
368,288,300023,1,0,0:0:0:0:
360,328,300110,1,12,0:0:0:0:
320,208,300283,1,0,0:0:0:0:
424,96,300454,6,0,P|392:144|360:160,1,70,12|8,0:0|0:0,0:0:0:0:
304,104,300800,2,0,P|304:72|336:40,1,70
392,160,301145,1,0,0:0:0:0:
288,256,301316,1,0,0:0:0:0:
280,296,301403,1,0,0:0:0:0:
240,312,301489,1,12,0:0:0:0:
248,192,301662,5,0,0:0:0:0:
320,336,301835,2,0,P|336:312|336:256,1,70
160,240,302179,2,0,P|160:280|168:320,1,70,12|0,0:0|0:0,0:0:0:0:
72,120,302524,5,0,0:0:0:0:
216,104,302697,1,0,0:0:0:0:
216,72,302782,1,0,0:0:0:0:
200,40,302868,1,12,0:0:0:0:
152,160,303041,1,0,0:0:0:0:
288,64,303214,2,0,P|288:96|312:144,1,70,12|8,0:0|0:0,0:0:0:0:
184,200,303559,6,0,P|216:192|272:192,1,70,12|0,0:0|0:0,0:0:0:0:
96,248,303904,1,12,0:0:0:0:
224,184,304075,1,8,0:0:0:0:
224,232,304161,1,0,0:0:0:0:
224,280,304247,1,12,0:0:0:0:
360,104,304421,1,8,0:0:0:0:
448,328,304592,2,0,P|480:272|496:240,1,70,12|8,0:0|0:0,0:0:0:0:
296,192,304937,6,0,P|320:200|352:248,1,70,12|8,0:0|0:0,0:0:0:0:
232,72,305282,1,12,0:0:0:0:
144,280,305454,1,0,0:0:0:0:
152,248,305541,1,0,0:0:0:0:
168,216,305628,1,12,0:0:0:0:
224,280,305799,1,0,0:0:0:0:
128,168,305972,6,0,P|80:136|64:104,1,70,12|0,0:0|0:0,0:0:0:0:
320,24,306317,2,0,P|304:48|288:88,1,70
248,184,306661,1,0,0:0:0:0:
296,104,306834,1,0,0:0:0:0:
256,88,306920,1,0,0:0:0:0:
216,112,307006,1,12,0:0:0:0:
136,152,307178,5,0,0:0:0:0:
80,32,307351,2,0,P|64:56|64:112,1,70
80,128,307610,1,0,0:0:0:0:
120,144,307697,1,12,0:0:0:0:
208,40,307869,1,0,0:0:0:0:
216,72,307955,1,0,0:0:0:0:
216,104,308041,1,0,0:0:0:0:
200,136,308127,1,0,0:0:0:0:
176,160,308213,1,0,0:0:0:0:
272,144,308386,5,12,0:0:0:0:
344,208,308559,1,0,0:0:0:0:
352,240,308644,1,0,0:0:0:0:
360,272,308731,1,0,0:0:0:0:
352,304,308817,1,0,0:0:0:0:
344,336,308903,1,0,0:0:0:0:
320,360,308989,5,0,0:0:0:0:
288,360,309075,2,0,P|232:352|216:336,1,70,12|0,0:0|0:0,0:0:0:0:
200,184,309420,2,0,P|176:224|160:264,1,70,12|0,0:0|0:0,0:0:0:0:
326,120,309765,2,0,P|316:87|328:56,2,70,4|0|12,0:0|0:0|0:0,0:0:0:0:
344,216,310282,1,0,0:0:0:0:
184,240,310454,1,0,0:0:0:0:
346,312,310626,6,0,B|344:312|344:312|320:304|320:304|304:344,1,70,0|12,0:0|0:0,0:0:0:0:
440,240,310971,1,0,0:0:0:0:
296,80,311144,2,0,P|304:136|336:160,1,70,12|0,0:0|0:0,0:0:0:0:
448,112,311488,5,4,0:0:0:0:
224,104,311661,2,0,P|208:56|184:48,1,70,0|12,0:0|0:0,0:0:0:0:
80,128,312006,1,0,0:0:0:0:
192,200,312178,1,0,0:0:0:0:
304,120,312351,1,0,0:0:0:0:
224,288,312523,2,0,P|248:320|288:320,1,70,12|0,0:0|0:0,0:0:0:0:
288,232,312868,5,0,0:0:0:0:
168,264,313040,2,0,P|176:304|208:336,1,70,0|12,0:0|0:0,0:0:0:0:
360,304,313385,1,0,0:0:0:0:
400,168,313557,1,0,0:0:0:0:
256,184,313730,1,0,0:0:0:0:
288,96,313902,2,0,P|240:88|216:112,1,70,12|0,0:0|0:0,0:0:0:0:
216,240,314247,5,12,0:0:0:0:
112,240,314420,2,0,P|128:280|128:320,1,70,0|12,0:0|0:0,0:0:0:0:
16,224,314764,1,0,0:0:0:0:
64,64,314937,2,0,P|88:120|120:128,1,70
187,120,315281,2,0,P|197:87|184:56,1,70
272,152,315626,1,0,0:0:0:0:
168,216,315799,5,0,0:0:0:0:
328,240,315971,1,0,0:0:0:0:
167,312,316144,2,0,B|168:312|168:312|192:304|192:304|208:344,2,70
72,240,316661,1,12,0:0:0:0:
192,184,316833,1,0,0:0:0:0:
64,112,317005,1,12,0:0:0:0:
288,104,317178,6,0,P|304:56|328:48,1,70,8|0,0:0|0:0,0:0:0:0:
432,128,317523,1,0,0:0:0:0:
320,200,317695,1,0,0:0:0:0:
208,120,317868,1,0,0:0:0:0:
288,288,318040,2,0,P|264:320|224:320,1,70,12|8,0:0|0:0,0:0:0:0:
224,232,318385,1,0,0:0:0:0:
344,264,318557,6,0,P|336:304|304:336,1,70,0|12,0:0|0:0,0:0:0:0:
152,304,318902,1,0,0:0:0:0:
112,168,319074,1,0,0:0:0:0:
256,184,319247,1,0,0:0:0:0:
224,96,319419,2,0,P|272:88|296:112,1,70,12|0,0:0|0:0,0:0:0:0:
304,128,319678,1,0,0:0:0:0:
336,152,319765,1,0,0:0:0:0:
368,152,319851,1,0,0:0:0:0:
408,144,319937,2,0,P|432:104|440:56,1,70,8|12,0:0|0:0,0:0:0:0:
496,224,320281,5,0,0:0:0:0:
368,280,320454,2,0,P|344:224|312:216,1,70
184,256,320799,2,0,P|174:288|187:320,2,70
344,160,321316,5,0,0:0:0:0:
168,144,321488,1,0,0:0:0:0:
280,144,321661,2,0,B|264:112|264:112|256:112|256:112|248:152,2,70
392,48,322178,1,12,0:0:0:0:
320,88,322350,1,0,0:0:0:0:
176,48,322522,1,12,0:0:0:0:
224,88,322695,6,0,P|208:136|184:144,1,70,8|0,0:0|0:0,0:0:0:0:
264,248,323040,1,0,0:0:0:0:
360,160,323212,1,0,0:0:0:0:
200,208,323385,1,0,0:0:0:0:
80,72,323557,2,0,P|104:40|144:40,1,70,12|8,0:0|0:0,0:0:0:0:
264,136,323902,1,4,0:0:0:0:
440,104,324074,6,0,P|432:64|400:32,1,70,8|12,0:0|0:0,0:0:0:0:
296,104,324419,5,8,0:0:0:0:
408,152,324591,1,0,0:0:0:0:
352,224,324764,1,0,0:0:0:0:
288,344,324937,2,0,P|240:352|216:328,1,70,12|8,0:0|0:0,0:0:0:0:
280,256,325281,1,12,0:0:0:0:
200,136,325454,2,0,P|216:96|216:56,1,70,8|0,0:0|0:0,0:0:0:0:
160,48,325798,5,0,0:0:0:0:
40,80,325971,2,0,P|40:136|32:176,1,70
304,120,326316,2,0,P|294:87|307:55,2,70
400,312,326833,1,0,0:0:0:0:
344,208,327005,1,0,0:0:0:0:
496,216,327178,2,0,B|495:216|495:216|480:176|480:176|480:128,2,70
488,336,327695,5,0,0:0:0:0:
432,232,327867,1,0,0:0:0:0:
480,150,328041,1,0,0:0:0:0:
304,80,328212,2,0,P|320:128|344:136,1,70
344,240,328557,1,0,0:0:0:0:
240,184,328729,1,0,0:0:0:0:
352,152,328902,5,0,0:0:0:0:
208,296,329074,2,0,P|232:328|272:328,1,70
304,192,329419,1,0,0:0:0:0:
200,152,329592,1,0,0:0:0:0:
208,120,329678,1,0,0:0:0:0:
216,88,329765,1,0,0:0:0:0:
120,160,329936,5,0,0:0:0:0:
256,160,330110,1,0,0:0:0:0:
288,176,330196,1,0,0:0:0:0:
312,200,330281,1,0,0:0:0:0:
312,32,330454,1,0,0:0:0:0:
224,48,330626,1,0,0:0:0:0:
192,24,330713,5,0,0:0:0:0:
152,8,330799,1,0,0:0:0:0:
112,8,330885,1,0,0:0:0:0:
