osu file format v14

[General]
AudioFilename: CaliburnE.mp3
AudioLeadIn: 0
PreviewTime: 212
Countdown: 0
SampleSet: Soft
StackLeniency: 0.7
Mode: 0
LetterboxInBreaks: 1
WidescreenStoryboard: 1

[Editor]
DistanceSpacing: 1
BeatDivisor: 4
GridSize: 4
TimelineZoom: 1

[Metadata]
Title:Caliburne ~Story of the Legendary sword~
TitleUnicode:Caliburne ~Story of the Legendary sword~
Artist:Project Grimoire
ArtistUnicode:Project Grimoire
Creator:Mikkuri
Version:Normal
Source:maimai ORANGE
Tags:Team Grimoire Ice あま猫 Verdammt iyasine
BeatmapID:744713
BeatmapSetID:335665

[Difficulty]
HPDrainRate:3
CircleSize:3.5
OverallDifficulty:4
ApproachRate:5
SliderMultiplier:1.1
SliderTickRate:1

[Events]
//Background and Video events
0,0,"BG.jpg",0,0
//Break Periods
//Storyboard Layer 0 (Background)
//Storyboard Layer 1 (Fail)
//Storyboard Layer 2 (Pass)
//Storyboard Layer 3 (Foreground)
//Storyboard Sound Samples

[TimingPoints]
-419,315.789473684211,3,2,1,30,1,0
528,-133.333333333333,3,2,1,30,0,0
844,-133.333333333333,3,2,4,70,0,0
923,-133.333333333333,3,2,1,30,0,0
2738,-133.333333333333,3,2,4,70,0,0
2817,-133.333333333333,3,2,1,30,0,0
4633,-133.333333333333,3,2,4,70,0,0
4712,-133.333333333333,3,2,1,30,0,0
6528,-133.333333333333,3,2,4,70,0,0
6607,-133.333333333333,3,2,1,30,0,0
8423,-133.333333333333,3,2,4,70,0,0
8502,-133.333333333333,3,2,1,30,0,0
10317,-133.333333333333,3,2,4,70,0,0
10396,-133.333333333333,3,2,1,30,0,0
11896,-100,3,1,1,80,0,0
13791,-100,3,1,1,90,0,0
15370,-100,3,2,1,90,0,0
15449,-100,3,1,1,70,0,0
30844,-133.333333333333,3,2,2,70,0,0
30923,-133.333333333333,3,2,2,30,0,0
31791,-133.333333333333,3,2,2,70,0,0
31870,-133.333333333333,3,2,2,30,0,0
33686,-133.333333333333,3,2,2,70,0,0
33765,-133.333333333333,3,2,2,30,0,0
35581,-133.333333333333,3,2,2,70,0,0
35659,-133.333333333333,3,2,2,30,0,0
37475,-133.333333333333,3,2,2,70,0,0
37554,-133.333333333333,3,2,2,30,0,0
39370,-133.333333333333,3,2,2,70,0,0
39449,-133.333333333333,3,2,2,30,0,0
41265,-133.333333333333,3,2,2,70,0,0
41344,-133.333333333333,3,2,2,30,0,0
43159,-133.333333333333,3,2,2,70,0,0
43238,-133.333333333333,3,2,2,30,0,0
45054,-133.333333333333,3,2,2,70,0,0
46002,-100,3,1,1,80,0,0
61159,-100,3,2,1,80,0,0
64791,-100,3,2,1,60,0,0
64949,-100,3,1,1,80,0,0
68738,-100,3,2,1,80,0,0
72370,-100,3,2,1,60,0,0
72528,-100,3,1,1,80,0,0
76317,-100,3,2,1,70,0,0
79949,-100,3,2,1,50,0,0
80107,-100,3,2,1,70,0,0
85633,-100,3,2,1,50,0,0
85791,-100,3,2,1,70,0,0
87686,-100,3,1,1,80,0,0
88633,-100,3,1,1,90,0,0
91475,-133.333333333333,3,2,1,70,0,0
91554,-133.333333333333,3,2,1,20,0,0
93370,-133.333333333333,3,2,1,40,0,0
93449,-133.333333333333,3,2,1,20,0,0
95265,-133.333333333333,3,2,1,40,0,0
96212,-133.333333333333,3,2,1,50,0,0
98107,-133.333333333333,3,1,1,70,0,0
99054,-100,3,1,1,80,0,0
108528,-100,3,1,1,90,0,0
112317,-100,3,1,1,80,0,1
118949,-100,3,1,1,90,0,1
127791,-100,3,1,1,80,0,1
131265,-100,3,2,1,5,0,0
132214,329.67032967033,3,2,1,20,1,0
132214,-133.333333333333,3,2,1,20,0,0
133203,359.281437125748,3,2,1,20,1,0
133203,-133.333333333333,3,2,1,20,0,0
134288,394.736842105263,3,2,1,15,1,0
134288,-133.333333333333,3,2,1,15,0,0
135495,437.956204379562,3,2,1,15,1,0
135495,-133.333333333333,3,2,1,15,0,0
136387,444.444444444444,3,2,1,15,1,0
136387,-133.333333333333,3,2,1,15,0,0
136864,545.454545454546,3,2,1,15,1,0
140136,-100,3,2,1,5,0,0

[Colours]
Combo1 : 255,192,0
Combo2 : 18,124,255
Combo3 : 242,24,57

[HitObjects]
296,124,528,6,0,P|380:104|436:152,1,165.000006294251
436,232,1475,2,0,P|373:280|296:258,1,165.000006294251
216,280,2423,2,0,L|56:232,1,165.000006294251
60,152,3370,2,0,L|220:104,1,165.000006294251
264,36,4317,6,0,P|300:108|260:176,1,165.000006294251
192,220,5265,2,0,L|104:216,1,82.5000031471254
40,260,5896,1,0,0:0:0:0:
84,328,6212,2,0,B|144:352|208:328|208:328|268:304|332:328,1,247.500009441376
408,336,7475,1,0,0:0:0:0:
472,284,7791,1,0,0:0:0:0:
480,200,8107,6,0,P|436:136|472:64,1,165.000006294251
396,32,9054,2,0,L|232:48,1,165.000006294251
148,56,10002,2,0,B|152:96|188:124|188:124|164:208,1,165.000006294251
88,236,10949,2,0,P|144:288|224:264,1,165.000006294251
324,220,11896,6,0,L|436:228,2,110
244,148,12844,2,0,L|132:156,2,110
324,72,13791,2,0,P|380:64|432:92,2,110
360,176,14738,1,0,0:0:0:0:
308,272,15054,2,0,B|228:288|228:288|172:272|172:272|92:288,1,220,0|4,0:0|0:0,0:0:0:0:
28,196,16002,6,0,L|143:173,1,110,0|8,0:0|2:0,0:0:0:0:
196,84,16633,1,0,0:0:0:0:
196,84,16949,2,0,L|311:107,1,110,0|8,0:0|2:0,0:0:0:0:
404,60,17581,5,0,0:0:0:0:
484,136,17896,2,0,P|492:200|468:256,1,110,0|8,0:0|2:0,0:0:0:0:
376,284,18528,1,0,0:0:0:0:
292,216,18844,2,0,P|228:208|172:232,1,110,0|8,0:0|2:0,0:0:0:0:
100,292,19475,5,0,0:0:0:0:
100,292,19791,2,0,L|80:184,1,110,0|8,0:0|2:0,0:0:0:0:
56,76,20423,1,0,0:0:0:0:
160,108,20738,2,0,P|216:112|264:84,1,110,0|8,0:0|2:0,0:0:0:0:
360,36,21370,6,0,L|480:44,2,110,0|0|8,0:0|0:0|2:0,0:0:0:0:
320,140,22317,1,0,0:0:0:0:
412,204,22633,1,0,0:0:0:0:
368,304,22949,2,0,L|376:360,2,55,8|0|4,0:2|0:0|0:0,0:0:0:0:
268,348,23581,6,0,P|212:356|160:332,1,110,0|8,0:0|0:2,0:0:0:0:
120,236,24212,1,0,0:0:0:0:
184,148,24528,2,0,P|240:140|292:164,1,110,0|8,0:0|0:2,0:0:0:0:
364,240,25159,6,0,L|476:228,2,110,0|0|8,0:0|0:0|0:2,0:0:0:0:
264,284,26107,2,0,P|212:280|164:308,2,110,0|0|8,0:0|0:0|0:2,0:0:0:0:
248,180,27054,5,4,0:2:0:0:
168,104,27370,1,0,0:0:0:0:
96,188,27686,2,0,L|36:180,2,55,8|0|4,1:2|2:0|1:2,2:0:0:0:
176,264,28317,1,0,0:0:0:0:
248,180,28633,2,0,L|304:188,1,55,8|0,0:2|2:0,0:0:0:0:
344,200,28949,6,0,P|384:96|308:36,1,220,4|12,0:2|0:2,0:0:0:0:
200,36,29896,2,0,P|125:106|168:200,1,220,4|12,0:2|0:2,0:0:0:0:
256,136,30844,6,0,B|288:200|256:256|256:256|224:312|256:372,2,247.500009441376,4|2|0,1:0|0:0|0:0,0:0:0:0:
404,48,33686,1,2,0:0:0:0:
488,200,34633,6,0,P|460:316|348:320,1,247.500009441376,0|2,0:0|0:0,0:0:0:0:
212,212,36528,2,0,P|112:244|112:372,1,247.500009441376,0|2,0:0|0:0,0:0:0:0:
280,324,38423,6,0,B|300:276|280:232|280:232|344:188|332:96,2,247.500009441376,0|2|0,0:0|0:0|0:0,0:0:0:0:
208,128,41265,1,2,0:0:0:0:
104,284,42212,6,0,P|200:344|312:288,1,247.500009441376,0|2,0:0|0:0,0:0:0:0:
312,124,43791,1,0,0:0:0:0:
312,124,44107,2,0,P|216:64|104:120,1,247.500009441376,0|2,0:0|0:0,0:0:0:0:
336,296,46002,6,0,P|392:292|440:320,2,110,4|0|8,0:0|0:0|0:0,0:0:0:0:
228,324,46949,2,0,L|112:332,2,110,0|0|8,0:0|0:0|0:0,0:0:0:0:
292,232,47896,5,0,0:0:0:0:
181,222,48212,1,0,0:0:0:0:
134,122,48528,1,8,0:0:0:0:
197,32,48844,1,0,0:0:0:0:
308,42,49159,1,0,0:0:0:0:
354,141,49475,1,8,0:0:0:0:
292,232,49791,6,0,P|280:288|288:340,1,110,0|0,0:0|0:0,0:0:0:0:
384,288,50423,1,8,0:0:0:0:
480,236,50738,2,0,L|488:124,2,110,0|0|8,0:0|0:0|0:0,0:0:0:0:
384,288,51686,6,0,P|336:292|280:268,1,110,0|0,0:0|0:0,0:0:0:0:
228,172,52317,1,8,0:0:0:0:
140,236,52633,2,0,L|28:252,1,110,0|0,0:0|0:0,0:0:0:0:
16,144,53265,2,0,L|72:136,1,55,8|0,0:0|0:0,0:0:0:0:
108,112,53581,6,0,P|164:108|220:124,1,110,4|0,0:2|0:0,0:0:0:0:
312,180,54212,1,8,0:0:0:0:
420,156,54528,2,0,L|432:44,2,110,0|0|8,0:0|0:0|0:0,0:0:0:0:
356,244,55475,5,0,0:0:0:0:
280,324,55791,1,0,0:0:0:0:
240,220,56107,1,8,0:0:0:0:
164,300,56423,1,0,0:0:0:0:
124,196,56738,1,0,0:0:0:0:
48,276,57054,1,12,0:2:0:0:
8,172,57370,6,0,P|88:108|204:92,1,220,4|12,0:2|0:2,0:0:0:0:
312,92,58317,2,0,P|419:105|505:172,1,220,4|12,0:2|0:2,0:0:0:0:
432,256,59265,6,0,L|408:364,1,110,4|0,0:2|0:0,0:0:0:0:
308,316,59896,2,0,B|256:296|256:296|204:316,1,110,8|0,0:0|0:0,0:0:0:0:
104,364,60528,2,0,L|80:256,1,110,0|8,0:0|0:0,0:0:0:0:
116,152,61159,6,0,P|175:138|219:102,1,110,4|0,1:2|0:0,0:0:0:0:
244,76,61633,2,0,L|355:91,1,110,4|0,1:2|0:0,0:0:0:0:
396,100,62107,1,4,1:2:0:0:
396,100,62423,1,4,1:2:0:0:
440,200,62738,1,0,0:0:0:0:
360,276,63054,6,0,P|308:288|276:336,1,110,4|0,1:2|0:0,0:0:0:0:
248,364,63528,2,0,L|136:356,1,110,4|0,1:2|0:0,0:0:0:0:
96,372,64002,1,4,1:2:0:0:
96,372,64317,1,4,1:2:0:0:
104,264,64633,2,0,L|108:208,1,55,0|0,0:0|1:0,0:0:0:0:
92,168,64949,6,0,B|168:164|168:164|224:200|224:200|304:196,1,220,4|8,0:2|0:0,0:0:0:0:
272,92,65896,2,0,P|376:116|408:224,1,220,0|8,0:0|0:0,0:0:0:0:
336,296,66844,6,0,B|276:304|240:344|240:344|184:316|128:332,1,220,0|8,0:0|0:0,0:0:0:0:
120,220,67791,1,4,0:2:0:0:
84,116,68107,1,4,0:2:0:0:
192,136,68423,1,8,0:0:0:0:
288,88,68738,6,0,P|344:88|400:76,1,110,4|0,1:2|0:0,0:0:0:0:
440,64,69212,2,0,L|428:176,1,110,4|0,1:2|0:0,0:0:0:0:
424,220,69686,1,4,1:2:0:0:
368,312,70002,1,4,1:2:0:0:
284,244,70317,1,0,0:0:0:0:
220,332,70633,6,0,P|168:340|120:312,1,110,4|0,1:2|0:0,0:0:0:0:
100,272,71107,2,0,B|112:220|112:220|108:164,1,110,4|0,1:2|0:0,0:0:0:0:
100,120,71581,1,4,1:2:0:0:
180,44,71896,1,4,1:2:0:0:
260,120,72212,2,0,L|264:176,1,55,0|0,0:0|1:0,0:0:0:0:
268,220,72528,6,0,P|356:272|428:200,1,220,4|12,0:2|0:2,0:0:0:0:
388,96,73475,2,0,P|440:88|496:112,2,110,4|0|12,0:2|0:0|0:2,0:0:0:0:
320,184,74423,6,0,P|337:237|369:280,1,110,4|0,0:2|0:0,0:0:0:0:
303,369,75054,2,0,P|247:357|194:363,1,110,8|0,0:0|0:0,0:0:0:0:
151,262,75686,2,0,P|188:219|210:170,1,110,0|8,0:0|0:0,0:0:0:0:
224,64,76317,6,0,B|168:60|132:96|132:96|68:84,2,165,4|0|0,1:2|1:0|1:0,0:0:0:0:
324,108,77581,2,0,L|436:96,1,110,0|0,1:0|1:0,0:0:0:0:
456,204,78212,6,0,P|492:268|476:356,2,165,0|0|0,1:0|1:0|1:0,0:0:0:0:
372,136,79475,2,0,L|260:128,1,110,0|0,1:0|0:0,0:0:0:0:
232,96,79949,1,0,1:0:0:0:
204,60,80107,6,0,L|92:52,2,110,0|0|0,1:0|1:0|1:0,0:0:0:0:
160,160,81054,2,0,P|140:236|176:316,1,165,0|0,1:0|1:0,0:0:0:0:
208,340,81686,1,0,1:0:0:0:
296,276,82002,6,0,B|352:280|388:332|388:332|444:324,2,165,2|2|2,1:2|1:2|1:2,0:0:0:0:
240,180,83265,1,2,1:2:0:0:
264,72,83581,2,0,L|212:56,1,55,4|0,1:2|0:0,0:0:0:0:
168,44,83896,6,0,B|140:84|136:132|136:132|100:136|68:160,2,165,4|0|0,1:2|1:0|1:0,0:0:0:0:
240,124,85159,2,0,P|260:172|252:228,1,110,0|0,1:0|0:0,0:0:0:0:
236,268,85633,1,0,1:0:0:0:
252,308,85791,6,0,L|416:300,1,165,0|0,1:0|1:0,0:0:0:0:
460,300,86423,1,0,1:0:0:0:
488,196,86738,2,2,B|448:200|448:200|420:192|420:192|376:196,1,110,0|0,1:0|1:0,1:0:0:0:
272,172,87370,2,0,P|264:152|256:120,1,55,4|0,1:2|0:0,0:0:0:0:
248,76,87686,6,2,P|192:88|136:84,1,110,4|0,0:2|0:0,0:0:0:0:
28,136,88317,2,0,B|20:164|16:192,1,55,12|0,0:2|2:0,0:0:0:0:
28,232,88633,2,2,B|40:284|40:284|36:340,1,110,4|0,0:2|0:0,0:0:0:0:
168,344,89265,2,0,L|172:288,1,55,12|0,0:2|2:0,0:0:0:0:
204,256,89581,6,0,L|196:144,2,110,4|0|8,0:2|0:0|0:0,0:0:0:0:
308,172,90528,2,0,L|316:60,2,110,0|0|8,0:0|0:0|0:0,0:0:0:0:
392,280,91475,6,0,P|256:360|100:200,1,412.500015735627,4|0,1:0|1:0,0:0:0:0:
120,104,93370,2,0,P|256:24|412:184,1,412.500015735627,0|0,1:0|1:0,0:0:0:0:
400,264,95265,6,0,L|232:288,1,165.000006294251,0|0,1:0|1:0,0:0:0:0:
220,208,96212,2,0,L|388:184,1,165.000006294251,0|0,1:0|1:0,0:0:0:0:
428,116,97159,2,0,L|512:104,2,82.5000031471254,2|0|2,1:0|0:0|1:0,0:0:0:0:
400,40,98107,2,2,L|484:28,2,82.5000031471254,2|0|2,0:0|0:0|0:0,0:0:0:0:
300,84,99054,6,0,P|200:116|104:60,1,220,4|8,0:0|0:0,0:0:0:0:
36,148,100002,2,0,P|114:218|114:329,1,220,0|8,0:0|0:0,0:0:0:0:
224,340,100949,2,0,P|247:237|343:182,1,220,0|8,0:0|0:0,0:0:0:0:
412,268,101896,2,0,P|452:172|376:80,1,220,0|12,0:0|0:2,0:0:0:0:
280,96,102844,6,0,L|168:84,2,110,4|0|12,0:2|0:0|0:2,0:0:0:0:
228,192,103791,2,0,L|116:204,2,110,4|0|12,0:2|0:0|0:2,0:0:0:0:
220,300,104738,2,0,P|120:340|36:280,1,220,4|8,0:2|0:0,0:0:0:0:
43,171,105686,2,0,P|143:131|227:191,1,220,4|8,0:2|0:0,0:0:0:0:
292,104,106633,6,0,P|324:140|336:204,2,110,4|0|0,0:2|0:0|0:0,0:0:0:0:
188,72,107581,2,0,L|80:88,2,110,4|0|0,0:2|0:0|0:0,0:0:0:0:
292,104,108528,2,0,L|400:88,2,110,4|0|0,0:2|0:0|0:0,0:0:0:0:
188,72,109475,2,0,P|152:108|144:168,2,110,4|0|4,0:2|0:0|0:2,0:0:0:0:
292,104,110423,6,0,B|348:108|348:108|400:124,1,110,4|0,0:2|0:0,0:0:0:0:
384,232,111054,2,0,B|328:228|328:228|276:212,1,110,0|4,0:0|0:2,0:0:0:0:
96,56,112317,6,0,P|72:96|76:160,1,110,4|0,0:0|0:0,0:0:0:0:
136,248,112949,1,8,0:0:0:0:
136,248,113265,2,0,L|248:260,1,110,0|0,0:0|0:0,0:0:0:0:
348,300,113896,2,0,L|404:288,1,55,8|0,0:0|2:0,0:0:0:0:
428,252,114212,6,0,P|452:152|364:96,1,220,0|8,0:0|0:0,0:0:0:0:
256,124,115159,2,0,L|144:116,1,110,0|0,0:0|0:0,0:0:0:0:
48,68,115791,2,0,P|40:100|40:128,1,55,8|0,0:0|2:0,0:0:0:0:
48,164,116107,6,0,B|76:224|60:284|60:284|112:284|152:316,1,220,0|8,0:0|0:0,0:0:0:0:
252,356,117054,2,0,L|364:352,1,110
416,256,117686,1,8,0:0:0:0:
352,168,118002,6,0,B|243:172|243:172|211:124|151:116,1,220,0|8,0:0|0:0,0:0:0:0:
148,228,118949,1,4,0:2:0:0:
246,274,119265,1,4,0:2:0:0:
201,373,119581,1,12,0:2:0:0:
101,327,119896,6,0,P|60:292|40:240,1,110,4|0,0:2|0:0,0:0:0:0:
84,140,120528,2,0,L|80:80,2,55,8|0|4,0:0|0:0|0:2,0:0:0:0:
192,168,121159,1,0,0:0:0:0:
292,120,121475,2,0,P|348:120|400:144,1,110,12|0,0:2|0:0,0:0:0:0:
456,236,122107,5,4,0:2:0:0:
420,340,122423,1,8,0:0:0:0:
360,248,122738,2,0,L|232:264,1,110,4|0,0:2|0:0,0:0:0:0:
148,304,123370,2,0,P|140:276|140:248,1,55,12|0,1:2|2:0,0:0:0:0:
152,208,123686,6,0,P|152:152|132:100,1,110,4|0,0:2|0:0,0:0:0:0:
100,72,124159,2,0,L|104:16,1,55,0|12,2:0|0:2,0:0:0:0:
208,56,124633,2,0,P|232:112|240:160,1,110,4|0,0:2|0:0,0:0:0:0:
340,208,125265,1,12,0:2:0:0:
400,116,125581,6,0,L|512:128,2,110,4|0|8,0:2|0:0|0:0,0:0:0:0:
332,32,126528,2,0,L|444:20,2,110,4|0|8,0:2|0:0|0:0,0:0:0:0:
240,92,127475,6,0,B|273:149|339:145|339:145|307:199|326:261|326:261|264:242|211:278|211:278|209:218|165:183|165:183|205:159|221:124,1,550,4|0,0:2|0:0,0:0:0:0:
256,192,129370,12,0,131265,0:0:0:0:
144,176,132214,6,0,P|172:244|256:280,1,165.000006294251,2|0,0:0|0:0,0:0:0:0:
332,276,133203,2,0,L|416:272,2,82.5000031471254,2|0|0,0:0|0:0|0:0,0:0:0:0:
248,308,134288,6,0,P|208:300|160:304,1,82.5000031471254
84,344,135077,1,0,0:0:0:0:
20,284,135495,2,0,L|28:200,1,82.5000031471254,2|0,0:0|0:0,0:0:0:0:
92,136,136387,2,0,L|140:128,1,41.2500015735627
208,84,136864,6,0,L|264:92,1,55,0|2,0:0|0:0,0:0:0:0:
256,192,137273,12,0,140136,0:0:0:0:
