osu file format v14

[General]
AudioFilename: CaliburnE.mp3
AudioLeadIn: 0
PreviewTime: 212
Countdown: 0
SampleSet: Soft
StackLeniency: 0.7
Mode: 0
LetterboxInBreaks: 1
WidescreenStoryboard: 1

[Editor]
DistanceSpacing: 1.2
BeatDivisor: 4
GridSize: 4
TimelineZoom: 1

[Metadata]
Title:Caliburne ~Story of the Legendary sword~
TitleUnicode:Caliburne ~Story of the Legendary sword~
Artist:Project Grimoire
ArtistUnicode:Project Grimoire
Creator:Mikkuri
Version:Insane
Source:maimai ORANGE
Tags:Team Grimoire Ice あま猫 Verdammt iyasine
BeatmapID:756941
BeatmapSetID:335665

[Difficulty]
HPDrainRate:5.5
CircleSize:4
OverallDifficulty:7
ApproachRate:8.5
SliderMultiplier:1.7
SliderTickRate:1

[Events]
//Background and Video events
0,0,"BG.jpg",0,0
//Break Periods
//Storyboard Layer 0 (Background)
//Storyboard Layer 1 (Fail)
//Storyboard Layer 2 (Pass)
//Storyboard Layer 3 (Foreground)
//Storyboard Sound Samples

[TimingPoints]
-419,315.789473684211,3,2,2,30,1,0
212,-133.333333333333,3,2,2,30,0,0
844,-133.333333333333,3,2,2,70,0,0
923,-133.333333333333,3,2,2,30,0,0
1949,-133.333333333333,3,2,2,10,0,0
2028,-133.333333333333,3,2,2,30,0,0
2738,-133.333333333333,3,2,2,70,0,0
2817,-133.333333333333,3,2,2,30,0,0
3844,-133.333333333333,3,2,2,15,0,0
3923,-133.333333333333,3,2,2,30,0,0
4633,-133.333333333333,3,2,2,70,0,0
4712,-133.333333333333,3,2,2,30,0,0
5738,-133.333333333333,3,2,2,15,0,0
5817,-133.333333333333,3,2,2,30,0,0
6528,-133.333333333333,3,2,2,70,0,0
6607,-133.333333333333,3,2,2,30,0,0
7002,-133.333333333333,3,2,2,50,0,0
7159,-133.333333333333,3,2,2,60,0,0
7791,-133.333333333333,3,2,2,30,0,0
8423,-133.333333333333,3,2,2,70,0,0
8502,-133.333333333333,3,2,2,30,0,0
9528,-133.333333333333,3,2,2,15,0,0
9607,-133.333333333333,3,2,2,30,0,0
10317,-133.333333333333,3,2,2,70,0,0
10396,-133.333333333333,3,2,2,30,0,0
11581,-133.333333333333,3,2,2,70,0,0
11896,-100,3,2,1,80,0,0
13791,-100,3,2,1,90,0,0
14738,-200,3,2,1,90,0,0
15370,-100,3,2,3,90,0,0
15686,-100,3,2,1,70,0,0
30844,-200,3,2,2,70,0,0
30923,-200,3,2,2,30,0,0
31791,-200,3,2,2,70,0,0
31870,-200,3,2,2,30,0,0
33686,-200,3,2,2,70,0,0
33765,-200,3,2,2,30,0,0
35581,-200,3,2,2,70,0,0
35659,-200,3,2,2,30,0,0
37475,-200,3,2,2,70,0,0
37554,-200,3,2,2,30,0,0
39370,-200,3,2,2,70,0,0
39449,-200,3,2,2,30,0,0
41265,-200,3,2,2,70,0,0
41344,-200,3,2,2,30,0,0
43159,-200,3,2,2,70,0,0
43238,-200,3,2,2,30,0,0
45054,-200,3,2,2,70,0,0
45133,-200,3,2,2,30,0,0
45686,-133.333333333333,3,2,2,30,0,0
45923,-133.333333333333,3,2,2,5,0,0
46002,-100,3,2,1,80,0,0
64791,-100,3,2,1,60,0,0
64949,-100,3,2,1,80,0,0
72370,-100,3,2,1,60,0,0
72528,-100,3,2,1,80,0,0
76317,-100,3,2,1,70,0,0
78054,-100,3,2,1,50,0,0
78212,-100,3,2,1,70,0,0
79949,-100,3,2,1,50,0,0
80107,-100,3,2,1,70,0,0
85633,-100,3,2,1,50,0,0
85791,-100,3,2,1,70,0,0
87686,-100,3,2,1,80,0,0
88633,-90.9090909090909,3,2,1,90,0,0
89581,-83.3333333333333,3,2,1,90,0,0
91475,-200,3,2,1,70,0,0
91554,-200,3,2,1,20,0,0
93212,-200,3,2,1,30,0,0
93370,-200,3,2,1,40,0,0
93449,-200,3,2,1,20,0,0
95107,-200,3,2,1,30,0,0
95265,-200,3,2,1,40,0,0
96212,-200,3,2,1,50,0,0
98107,-133.333333333333,3,2,1,70,0,0
99054,-100,3,2,1,80,0,0
106633,-100,3,1,1,80,0,0
107581,-90.9090909090909,3,1,1,80,0,0
108528,-83.3333333333333,3,1,1,90,0,0
109475,-76.9230769230769,3,1,1,90,0,0
110423,-71.4285714285714,3,1,1,90,0,0
112002,-133.333333333333,3,2,1,80,0,0
112238,-133.333333333333,3,2,1,5,0,0
112317,-83.3333333333333,3,2,1,80,0,1
118949,-76.9230769230769,3,2,1,90,0,1
119265,-71.4285714285714,3,2,1,90,0,1
119581,-66.6666666666667,3,2,1,90,0,1
119896,-83.3333333333333,3,2,1,90,0,1
127475,-100,3,1,1,90,0,1
131265,-133.333333333333,3,2,1,5,0,0
131896,-133.333333333333,3,2,1,30,0,0
132214,329.67032967033,3,2,1,20,1,0
132214,-200,3,2,1,20,0,0
133203,359.281437125748,3,2,1,20,1,0
133203,-200,3,2,1,20,0,0
134288,394.736842105263,3,2,1,15,1,0
134288,-200,3,2,1,15,0,0
135495,437.956204379562,3,2,1,15,1,0
135495,-200,3,2,1,15,0,0
136387,444.444444444444,3,2,1,15,1,0
136387,-200,3,2,1,15,0,0
136864,545.454545454546,3,2,1,15,1,0
140136,-100,3,2,1,5,0,0

[Colours]
Combo1 : 255,192,0
Combo2 : 18,124,255
Combo3 : 242,24,57

[HitObjects]
376,104,212,5,0,0:0:0:0:
376,104,528,2,0,P|396:160|380:224,1,127.500004863739,0|2,0:0|0:0,0:0:0:0:
336,288,1002,2,0,L|272:300,1,63.7500024318696
132,356,1475,2,0,B|108:316|124:264|124:264|144:216|120:172,1,191.250007295609
120,92,2107,2,0,P|108:60|104:28,1,63.7500024318696
196,40,2423,6,0,P|260:28|312:60,1,127.500004863739,0|2,0:0|0:0,0:0:0:0:
336,132,2896,2,0,L|328:196,1,63.7500024318696
304,348,3370,2,0,P|288:288|184:312,1,191.250007295609
116,356,4002,2,0,L|52:364,1,63.7500024318696
12,292,4317,6,0,P|20:232|68:184,1,127.500004863739,0|2,0:0|0:0,0:0:0:0:
232,208,4949,1,0,0:0:0:0:
232,208,5265,2,0,P|304:260|392:224,1,191.250007295609
448,168,5896,1,0,0:0:0:0:
448,168,6212,6,0,B|456:120|456:120|448:88|448:88|456:40,2,127.500004863739,0|2|0,0:0|0:0|0:0,0:0:0:0:
396,228,7002,1,0,0:0:0:0:
396,228,7159,2,0,B|400:280|400:280|388:304|388:304|392:356,2,127.500004863739
300,108,8107,6,0,P|240:120|172:112,1,127.500004863739,0|2,0:0|0:0,0:0:0:0:
104,84,8581,1,0,0:0:0:0:
104,84,8738,1,0,0:0:0:0:
64,232,9054,2,0,B|128:240|184:216|184:216|220:228|264:224,1,191.250007295609
328,212,9686,2,0,P|360:220|392:224,1,63.7500024318696
464,240,10002,6,0,B|468:192|436:164|436:164|440:120,1,127.500004863739,0|2,0:0|0:0,0:0:0:0:
372,48,10475,2,0,L|364:112,1,63.7500024318696
310,332,10949,2,0,P|336:272|328:212,1,127.500004863739
256,108,11581,1,0,0:0:0:0:
256,108,11738,1,0,0:0:0:0:
176,140,11896,6,0,P|136:132|96:112,2,85,0|0|0,1:0|1:0|1:0,0:0:0:0:
256,172,12370,1,0,1:0:0:0:
248,256,12528,2,0,P|244:296|236:340,1,85,0|0,1:0|1:0,0:0:0:0:
256,172,12844,6,0,P|300:160|344:160,1,85,0|0,1:0|1:0,0:0:0:0:
496,128,13159,2,0,P|456:132|408:124,1,85,0|0,1:0|1:0,0:0:0:0:
368,0,13475,2,0,P|360:44|344:84,1,85,0|0,1:0|1:0,0:0:0:0:
256,172,13791,6,0,L|248:256,1,85,0|0,1:0|1:0,0:0:0:0:
128,324,14107,2,0,L|136:240,1,85,0|0,1:0|1:0,0:0:0:0:
28,152,14423,2,0,L|20:236,1,85,0|0,1:0|1:0,0:0:0:0:
116,88,14738,6,0,P|160:88|200:104,2,85,0|0|0,1:0|1:0|0:0,0:0:0:0:
88,92,15409,2,0,L|52:84,7,21.25,0|0|0|0|0|0|0|4,0:0|0:0|0:0|0:0|0:0|0:0|0:0|1:0,0:0:0:0:
340,48,16002,6,0,P|352:88|352:132,1,85,0|0,1:0|0:0,0:0:0:0:
312,208,16317,1,8,0:0:0:0:
376,268,16475,1,0,0:0:0:0:
448,220,16633,2,0,P|448:316|380:356,1,170,0|0,1:0|1:0,0:0:0:0:
312,324,17107,1,0,0:0:0:0:
312,324,17265,2,0,L|224:332,1,85,8|0,0:0|0:0,0:0:0:0:
132,260,17581,6,0,L|301:244,2,170,0|0|8,1:0|1:0|0:0,0:0:0:0:
88,188,18370,1,0,0:0:0:0:
108,104,18528,2,0,P|100:60|76:28,1,85,0|0,1:0|0:0,0:0:0:0:
16,176,18844,2,0,P|24:220|48:252,1,85,0|0,1:0|0:0,0:0:0:0:
132,260,19159,2,0,L|220:268,1,85,8|0,0:0|0:0,0:0:0:0:
296,236,19475,6,0,B|340:244|376:264|376:264|420:252|464:260,2,170,0|0|8,1:0|1:0|0:0,0:0:0:0:
240,300,20265,1,0,0:0:0:0:
240,300,20423,2,0,P|200:309|156:305,1,85,0|0,1:0|0:0,0:0:0:0:
96,184,20738,2,0,P|136:175|180:179,1,85,0|0,1:0|0:0,0:0:0:0:
179,178,20975,1,0,0:0:0:0:
179,178,21054,1,8,0:0:0:0:
320,164,21212,1,0,0:0:0:0:
300,28,21370,5,0,1:0:0:0:
248,108,21528,1,0,0:0:0:0:
248,108,21607,1,0,0:0:0:0:
248,108,21686,2,0,L|164:88,1,85,0|0,1:0|0:0,0:0:0:0:
48,144,22002,2,0,P|36:188|40:232,1,85,8|0,0:0|0:0,0:0:0:0:
152,288,22317,6,0,L|184:316,3,42.5,0|0|0|0,1:0|0:0|0:0|0:0,0:0:0:0:
224,304,22633,2,0,L|264:292,3,42.5,0|0|0|0,1:0|0:0|0:0|0:0,0:0:0:0:
308,284,22949,2,0,L|340:312,3,42.5,8|0|0|0,1:2|0:0|1:0|0:0,0:0:0:0:
384,304,23265,6,0,P|436:240|452:156,1,170,4|0,1:0|1:0,0:0:0:0:
448,52,23738,1,0,0:0:0:0:
340,60,23896,1,8,1:2:0:0:
348,160,24054,1,0,0:0:0:0:
340,60,24212,2,0,P|256:40|180:72,1,170,0|0,1:0|1:0,0:0:0:0:
132,140,24686,2,0,P|88:148|48:144,2,85,0|8|0,0:0|1:2|0:0,0:0:0:0:
204,184,25159,6,0,L|212:356,1,170,0|0,1:0|1:0,0:0:0:0:
132,320,25633,2,0,P|92:320|48:332,2,85,0|8|0,0:0|1:2|0:0,0:0:0:0:
280,268,26107,2,0,P|320:276|364:296,1,85,2|0,1:2|0:0,0:0:0:0:
360,293,26423,1,0,1:0:0:0:
432,176,26581,1,2,0:0:0:0:
432,176,26659,1,0,0:0:0:0:
432,176,26738,2,0,P|384:184|344:180,1,85,8|0,1:2|0:0,0:0:0:0:
244,104,27054,6,0,B|188:88|180:116|128:104|128:104|148:120|160:148,1,170,4|0,1:2|1:0,0:0:0:0:
188,228,27528,2,0,P|188:280|180:312,2,85,0|8|0,0:0|1:2|0:0,0:0:0:0:
296,360,28002,6,0,P|312:280|308:192,1,170,4|0,1:2|1:0,0:0:0:0:
288,108,28475,2,0,L|296:20,2,85,0|8|0,0:0|1:2|0:0,0:0:0:0:
212,144,28949,5,4,1:2:0:0:
112,164,29107,1,0,1:0:0:0:
216,268,29265,1,0,1:0:0:0:
116,256,29423,1,0,1:0:0:0:
284,204,29581,2,0,P|328:220|360:248,1,85,12|0,1:2|1:0,0:0:0:0:
420,336,29896,5,4,1:2:0:0:
428,316,29975,1,0,1:0:0:0:
436,296,30054,1,0,1:0:0:0:
444,276,30133,1,0,1:0:0:0:
452,256,30212,2,0,L|448:212,3,42.5,0|0|0|0,1:0|1:0|1:0|1:0,0:0:0:0:
460,196,30528,2,0,L|456:152,3,42.5,12|0|0|0,1:2|1:0|1:0|1:0,0:0:0:0:
468,136,30844,6,0,L|460:52,2,85,4|0|0,1:0|0:0|0:0,0:0:0:0:
312,204,31791,2,0,L|304:292,1,85,2|0,0:0|0:0,0:0:0:0:
140,268,32423,1,0,0:0:0:0:
140,268,32738,6,0,P|96:268|52:280,2,85
180,100,33686,2,0,P|188:140|188:184,1,85,2|0,0:0|0:0,0:0:0:0:
232,256,34159,1,0,0:0:0:0:
360,240,34317,1,0,0:0:0:0:
232,256,34475,1,0,0:0:0:0:
360,240,34633,6,0,P|404:248|444:260,2,85
208,164,35581,2,0,P|164:172|124:184,1,85,2|0,0:0|0:0,0:0:0:0:
80,348,36212,1,0,0:0:0:0:
80,348,36528,6,0,P|72:304|72:260,2,85
316,256,37475,2,0,P|324:300|324:344,2,85,2|0|0,0:0|0:0|0:0,0:0:0:0:
252,100,38423,6,0,L|168:108,1,85
167,108,39054,1,0,0:0:0:0:
320,180,39370,2,0,L|404:172,1,85,2|0,0:0|0:0,0:0:0:0:
404,171,40002,1,0,0:0:0:0:
332,324,40317,6,0,P|240:356|168:280,1,212.5
92,316,41265,2,0,P|180:352|264:284,1,212.5,2|0,0:0|0:0,0:0:0:0:
268,200,42212,6,0,P|280:152|300:120,2,85
148,80,43159,2,0,P|136:128|116:160,2,85,2|0|0,0:0|0:0|0:0,0:0:0:0:
148,80,44107,1,0,0:0:0:0:
212,136,44265,1,0,0:0:0:0:
292,120,44423,2,0,B|352:132|416:116|416:116|400:132|376:140,1,170,0|2,0:0|0:0,0:0:0:0:
372,160,45686,6,0,P|368:200|380:256,1,95.6250036478044
388,276,46002,6,0,B|344:292|320:324|320:324|284:304|236:304,1,170,4|0,1:0|1:0,0:0:0:0:
152,316,46475,1,0,0:0:0:0:
152,316,46633,2,0,P|156:272|180:240,1,85,8|0,1:0|0:0,0:0:0:0:
292,236,46949,2,0,B|314:244|314:244|341:246|374:237,1,85,0|0,1:0|0:0,0:0:0:0:
377,86,47265,2,0,B|358:100|358:100|342:122|334:156,1,85,0|0,1:0|0:0,0:0:0:0:
464,232,47581,2,0,B|459:207|459:207|448:183|424:159,1,85,8|0,1:0|0:0,0:0:0:0:
240,124,47896,6,0,L|155:111,1,85,0|0,1:0|0:0,0:0:0:0:
104,200,48212,2,0,L|20:188,1,85,0|0,1:0|0:0,0:0:0:0:
208,312,48528,2,0,L|124:300,1,85,8|0,1:0|0:0,0:0:0:0:
288,224,48844,1,0,1:0:0:0:
288,224,49159,1,0,1:0:0:0:
288,224,49475,1,8,1:0:0:0:
368,248,49633,1,0,0:0:0:0:
428,188,49791,6,0,L|448:20,2,170,0|0|8,1:0|1:0|1:0,0:0:0:0:
368,248,50581,1,0,0:0:0:0:
364,332,50738,1,0,1:0:0:0:
116,220,51054,2,0,P|128:180|132:132,1,85,0|0,1:0|0:0,0:0:0:0:
196,28,51370,2,0,P|204:68|216:112,1,85,8|0,1:0|0:0,0:0:0:0:
268,184,51686,6,0,P|344:208|424:172,2,170,0|0|8,1:0|1:0|1:0,0:0:0:0:
223,112,52475,1,0,0:0:0:0:
144,140,52633,2,0,B|108:144|108:144|60:132,1,85,0|0,1:0|0:0,0:0:0:0:
16,224,52949,2,0,B|52:220|52:220|100:232,1,85,0|0,1:0|0:0,0:0:0:0:
196,200,53265,1,8,1:0:0:0:
292,240,53423,1,0,1:0:0:0:
376,180,53581,6,0,B|408:180|436:196|436:196|448:152|448:152|476:168|508:164,2,170,4|0|8,1:2|1:0|1:0,0:0:0:0:
196,132,54528,2,0,P|160:148|128:180,1,85,0|0,1:0|0:0,0:0:0:0:
136,264,54844,2,0,P|167:287|211:298,1,85,0|0,1:0|0:0,0:0:0:0:
280,248,55159,2,0,P|284:208|272:165,1,85,8|0,1:0|0:0,0:0:0:0:
188,52,55475,6,0,B|100:40|100:40|68:52|68:52|20:44,2,170,0|0|8,1:0|1:0|1:0,0:0:0:0:
188,52,56423,2,0,P|192:96|184:136,1,85,0|0,1:0|0:0,0:0:0:0:
64,246,56738,2,0,P|104:231|140:208,1,85,0|0,1:0|0:0,0:0:0:0:
295,255,57054,2,0,P|262:228|225:210,1,85,12|0,1:2|0:0,0:0:0:0:
364,156,57370,6,0,P|400:132|440:120,2,85,4|0|0,1:2|1:0|1:0,0:0:0:0:
295,255,57844,1,0,1:0:0:0:
332,368,58002,2,0,P|292:372|248:364,1,85,12|0,1:2|1:0,0:0:0:0:
128,324,58317,2,0,L|44:336,1,85,4|0,1:2|1:0,0:0:0:0:
43,336,58633,1,0,1:0:0:0:
100,196,58791,1,0,1:0:0:0:
100,196,58870,1,0,0:0:0:0:
100,196,58949,2,0,L|184:208,1,85,12|0,1:2|1:0,0:0:0:0:
180,68,59265,5,4,1:2:0:0:
188,88,59344,1,0,1:0:0:0:
196,108,59423,1,0,1:0:0:0:
204,128,59502,1,0,1:0:0:0:
212,148,59581,2,0,L|256:140,3,42.5,0|0|0|0,1:0|1:0|1:0|1:0,0:0:0:0:
268,156,59896,2,0,L|312:148,3,42.5,8|0|0|0,1:0|1:0|1:0|1:0,0:0:0:0:
332,144,60212,5,0,1:0:0:0:
328,164,60291,1,0,1:0:0:0:
324,184,60370,1,0,1:0:0:0:
320,204,60449,1,0,1:0:0:0:
316,224,60528,2,0,L|324:268,3,42.5,0|0|0|0,1:0|1:0|1:0|1:0,0:0:0:0:
312,284,60844,2,0,L|320:328,3,42.5,8|0|0|0,1:0|1:0|1:0|1:0,0:0:0:0:
308,344,61159,6,0,L|264:340,1,42.5,4|0,1:2|0:0,0:0:0:0:
184,332,61317,1,0,0:0:0:0:
336,196,61633,2,0,L|292:200,1,42.5,4|0,1:2|0:0,0:0:0:0:
212,208,61791,1,0,0:0:0:0:
48,84,62107,2,0,L|24:48,2,42.5,4|0|0,1:2|0:0|0:0,0:0:0:0:
132,64,62423,2,0,L|140:20,2,42.5,4|0|0,1:2|0:0|0:0,0:0:0:0:
108,144,62738,2,0,P|108:192|116:228,1,85
184,280,63054,6,0,L|230:274,1,42.5,4|0,1:2|0:0,0:0:0:0:
308,264,63212,1,0,0:0:0:0:
464,132,63528,2,0,L|418:126,1,42.5,4|0,1:2|0:0,0:0:0:0:
340,116,63686,1,0,0:0:0:0:
220,300,64002,2,0,L|208:344,2,42.5,4|0|0,1:2|0:0|0:0,0:0:0:0:
304,288,64317,2,0,L|328:324,2,42.5,4|0|0,1:2|0:0|0:0,0:0:0:0:
252,220,64633,2,0,P|240:184|232:136,1,85,0|0,0:0|1:0,0:0:0:0:
160,92,64949,6,0,P|128:176|76:240,1,170,4|0,1:2|1:0,0:0:0:0:
16,296,65423,1,0,0:0:0:0:
96,320,65581,2,0,P|136:324|180:336,1,85,8|0,1:0|0:0,0:0:0:0:
264,352,65896,2,0,P|308:348|352:336,1,85,0|0,1:0|0:0,0:0:0:0:
416,284,66212,2,0,L|424:200,1,85,0|0,1:0|0:0,0:0:0:0:
368,56,66528,2,0,L|360:141,1,85,8|0,1:0|0:0,0:0:0:0:
196,224,66844,6,0,B|272:264|272:264|352:232,2,170,0|0|8,1:0|1:0|1:0,0:0:0:0:
144,292,67633,1,0,0:0:0:0:
144,292,67791,2,0,P|184:312|220:336,1,85,4|0,1:2|0:0,0:0:0:0:
396,312,68107,2,0,P|356:320|316:340,2,85,4|0|8,1:2|0:0|1:0,0:0:0:0:
460,152,68738,6,0,L|464:196,1,42.5,4|0,1:2|0:0,0:0:0:0:
472,272,68896,1,0,0:0:0:0:
328,132,69212,2,0,L|332:88,1,42.5,4|0,1:2|0:0,0:0:0:0:
340,12,69370,1,0,0:0:0:0:
184,192,69686,2,0,P|224:204|272:204,1,85,4|0,1:2|0:0,0:0:0:0:
408,280,70002,2,0,P|364:280|320:268,1,85,4|0,1:2|0:0,0:0:0:0:
192,356,70317,2,0,P|220:324|240:284,1,85
260,152,70633,6,0,L|256:108,1,42.5,4|0,1:2|0:0,0:0:0:0:
248,32,70791,1,0,0:0:0:0:
36,56,71107,2,0,L|40:100,1,42.5,4|0,1:2|0:0,0:0:0:0:
48,176,71265,1,0,0:0:0:0:
164,300,71581,2,0,L|176:344,2,42.5,4|0|0,1:2|0:0|0:0,0:0:0:0:
88,260,71896,2,0,L|44:268,2,42.5,4|0|0,1:2|0:0|0:0,0:0:0:0:
160,216,72212,2,0,P|192:188|212:140,1,85,0|0,0:0|1:0,0:0:0:0:
236,68,72528,6,0,B|296:48|296:48|344:76|400:56,1,170,4|0,1:2|1:0,0:0:0:0:
480,32,73002,1,0,0:0:0:0:
460,116,73159,2,0,L|452:200,1,85,12|0,1:2|0:0,0:0:0:0:
416,280,73475,1,4,1:2:0:0:
336,92,73791,1,0,1:0:0:0:
212,256,74107,1,12,1:2:0:0:
416,280,74423,6,0,B|372:288|336:308,2,85,4|0|0,1:2|1:0|1:0,0:0:0:0:
280,228,74896,2,0,B|236:220|200:200,2,85,0|8|0,1:0|1:0|1:0,0:0:0:0:
176,316,75370,2,0,L|132:324,3,42.5,0|0|0|0,1:0|1:0|1:0|1:0,0:0:0:0:
108,292,75686,2,0,L|64:280,3,42.5,0|0|0|0,1:0|1:0|1:0|1:0,0:0:0:0:
64,236,76002,2,0,L|40:200,3,42.5,8|0|0|0,1:0|1:0|1:0|1:0,0:0:0:0:
64,164,76317,6,0,P|64:120|56:80,1,85,4|0,1:2|0:0,0:0:0:0:
55,79,76633,1,0,0:0:0:0:
164,120,76791,2,0,P|172:76|184:36,1,85,0|0,1:0|0:0,0:0:0:0:
183,37,77107,1,0,0:0:0:0:
292,100,77265,1,0,1:0:0:0:
292,100,77581,1,0,1:0:0:0:
292,100,77896,2,0,P|336:104|376:96,1,85,0|0,0:0|1:0,0:0:0:0:
448,140,78212,5,0,1:0:0:0:
460,224,78370,2,0,P|452:184|448:140,1,85
356,204,78686,1,0,1:0:0:0:
344,287,78844,2,0,P|352:247|356:203,1,85
292,100,79159,2,0,L|120:88,2,170,0|0|0,1:0|1:0|0:0,0:0:0:0:
256,176,79949,1,0,1:0:0:0:
172,168,80107,6,0,P|92:168|0:184,1,170,0|0,1:0|0:0,1:0:0:0:
16,268,80581,2,0,L|4:352,2,85,0|0|0,1:0|0:0|0:0,0:0:0:0:
92,304,81054,2,0,P|172:304|264:288,1,170,0|0,1:0|0:0,1:0:0:0:
328,236,81528,1,0,1:0:0:0:
408,268,81686,1,0,0:0:0:0:
408,268,82002,6,0,B|408:312|424:360,1,85,2|0,1:2|0:0,0:0:0:0:
421,351,82317,1,0,0:0:0:0:
508,204,82475,2,0,P|504:252|492:292,1,85,2|0,1:2|0:0,0:0:0:0:
493,287,82791,1,0,0:0:0:0:
424,188,82949,2,0,P|432:104|468:24,1,170,2|2,1:2|0:0,0:0:0:0:
380,36,83423,2,0,P|336:44|296:40,2,85,0|4|0,1:0|0:0|0:0,0:0:0:0:
352,116,83896,6,0,P|308:116|268:108,1,85,4|0,1:2|0:0,0:0:0:0:
176,240,84212,2,0,P|198:201|224:171,1,85,0|0,0:0|1:0,0:0:0:0:
156,24,84528,2,0,P|178:62|191:100,1,85
256,272,84844,1,0,1:0:0:0:
256,272,85159,1,0,1:0:0:0:
256,272,85475,2,0,L|344:264,1,85,0|0,0:0|1:0,0:0:0:0:
416,304,85791,6,0,P|424:248|344:180,1,170,0|0,1:0|0:0,0:0:0:0:
260,192,86265,1,0,1:0:0:0:
184,152,86423,1,0,0:0:0:0:
184,152,86738,2,2,B|164:176|132:188|132:188|144:232|144:232|116:244|96:268,1,170,0|0,1:0|1:0,0:1:0:0:
96,267,87370,2,0,P|96:308|104:352,1,85,4|0,1:2|0:0,0:0:0:0:
184,384,87686,6,2,L|352:364,1,170,4|0,1:2|1:0,0:1:0:0:
420,312,88159,2,0,P|460:320|492:348,2,85,0|12|0,0:0|1:2|0:0,0:0:0:0:
364,248,88633,6,2,L|180:220,1,187.000005706787,4|0,1:2|1:0,0:1:0:0:
92,180,89107,2,0,P|44:184|12:216,2,93.5000028533936,0|12|0,0:0|1:2|0:0,0:0:0:0:
156,108,89581,6,2,L|360:80,1,203.999993774414,4|0,1:2|1:0,0:1:0:0:
452,124,90054,2,0,P|460:76|444:24,2,101.999996887207,0|8|0,1:0|1:0|1:0,0:0:0:0:
400,200,90528,5,0,1:0:0:0:
380,204,90607,1,0,1:0:0:0:
360,208,90686,1,0,1:0:0:0:
340,212,90765,1,0,1:0:0:0:
320,216,90844,1,0,1:0:0:0:
300,220,90923,1,0,1:0:0:0:
280,224,91002,1,0,1:0:0:0:
260,228,91081,1,0,1:0:0:0:
240,232,91159,2,0,L|180:244,3,50.9999984436036,8|0|0|0,1:0|1:0|1:0|1:0,0:0:0:0:
160,248,91475,6,0,B|40:272|40:272|8:196|60:112|144:120,1,340,4|0,1:0|0:0,0:0:0:0:
304,156,93054,5,0,1:0:0:0:
304,156,93212,1,0,1:0:0:0:
304,156,93370,2,0,B|352:196|352:196|356:248|336:304|336:304|384:272|440:268|440:268|488:308,1,340,0|0,1:0|0:0,0:0:0:0:
456,136,94949,5,0,1:0:0:0:
456,136,95107,1,0,1:0:0:0:
456,136,95265,2,0,P|412:68|328:76,1,170,0|0,1:0|1:0,0:0:0:0:
272,196,96212,2,0,P|316:264|400:256,1,170,0|0,1:0|1:0,0:0:0:0:
320,120,97159,2,0,P|280:108|232:112,2,85,2|0|2,1:0|0:0|1:0,0:0:0:0:
224,32,98107,6,2,P|288:28|356:48,2,127.500004863739,2|0|0,1:0|1:0|1:0,0:1:0:0:
224,32,98896,1,2,1:0:0:0:
104,100,99054,6,0,P|108:184|116:276,1,170,4|0,1:2|1:0,0:0:0:0:
188,224,99528,1,0,0:0:0:0:
188,224,99686,2,0,P|184:188|180:124,1,85,8|0,1:0|0:0,0:0:0:0:
256,176,100002,2,0,P|340:172|428:180,1,170,0|0,1:0|1:0,0:0:0:0:
425,179,100633,1,8,1:0:0:0:
512,172,100791,1,0,0:0:0:0:
488,92,100949,6,0,P|480:48|480:8,2,85,0|0|0,1:0|0:0|1:0,0:0:0:0:
436,192,101423,1,0,0:0:0:0:
436,192,101502,1,0,0:0:0:0:
436,192,101581,2,0,P|440:232|436:280,1,85,8|0,1:0|0:0,0:0:0:0:
364,324,101896,2,0,P|300:280|216:308,1,170,0|0,1:0|1:0,0:0:0:0:
52,340,102528,1,12,1:2:0:0:
52,340,102686,1,0,0:0:0:0:
88,264,102844,6,0,P|88:224|80:180,1,85,4|0,1:2|0:0,0:0:0:0:
188,208,103159,2,0,P|188:168|196:124,1,85,0|0,1:0|0:0,0:0:0:0:
112,100,103475,2,0,P|100:60|76:24,1,85,12|0,1:2|0:0,0:0:0:0:
176,40,103791,2,0,P|260:48|348:32,2,170,4|0|12,1:2|1:0|1:2,0:0:0:0:
180,124,104581,1,0,0:0:0:0:
264,120,104738,5,4,1:2:0:0:
264,120,105054,2,0,L|276:296,1,170,0|8,1:0|1:0,0:0:0:0:
156,212,105686,1,4,1:2:0:0:
384,196,106002,1,4,1:2:0:0:
156,212,106317,2,0,L|148:128,1,85,12|0,1:2|0:0,0:0:0:0:
64,256,106633,6,0,L|72:344,2,85,4|0|0,0:2|0:0|0:0,0:0:0:0:
68,144,107107,1,0,0:0:0:0:
156,212,107265,1,0,0:0:0:0:
160,100,107423,1,0,0:0:0:0:
240,152,107581,6,0,P|284:156|336:140,2,93.5000028533936,4|0|0,0:2|0:0|0:0,0:0:0:0:
232,256,108054,1,0,0:0:0:0:
336,264,108212,1,0,0:0:0:0:
420,324,108370,1,0,0:0:0:0:
464,232,108528,6,0,P|468:176|480:128,2,101.999996887207,4|0|0,0:2|0:0|0:0,0:0:0:0:
420,324,109002,1,0,0:0:0:0:
276,340,109159,1,0,0:0:0:0:
332,204,109317,1,0,0:0:0:0:
188,224,109475,6,0,L|76:236,2,110.499994941712,4|0|0,0:2|0:0|0:0,0:0:0:0:
336,264,109949,1,0,0:0:0:0:
472,196,110107,1,4,0:2:0:0:
324,156,110265,1,0,0:0:0:0:
188,224,110423,6,0,L|124:216,11,59.4999981842042,4|0|0|0|0|0|0|0|0|0|0|0,0:2|0:0|0:0|0:0|0:0|0:0|0:0|0:0|0:0|0:0|0:0|0:0,0:0:0:0:
60,236,111370,1,4,0:2:0:0:
60,236,112002,6,2,P|56:184|72:140,1,95.6250036478044,0|0,0:0|0:0,0:1:0:0:
88,124,112317,6,0,P|188:148|272:100,1,203.999993774414,4|0,1:0|1:0,0:0:0:0:
356,44,112791,1,0,0:0:0:0:
448,88,112949,2,0,L|460:192,1,101.999996887207,8|0,1:0|0:0,0:0:0:0:
348,248,113265,2,0,L|364:148,2,101.999996887207,0|0|0,1:0|0:0|1:0,0:0:0:0:
280,324,113738,1,0,0:0:0:0:
184,284,113896,2,0,P|132:280|88:300,1,101.999996887207,8|0,1:0|0:0,0:0:0:0:
28,216,114212,6,0,P|120:180|228:192,1,203.999993774414,0|0,1:0|1:0,0:0:0:0:
316,232,114686,1,0,0:0:0:0:
316,232,114765,1,0,0:0:0:0:
316,232,114844,2,0,P|324:180|308:132,1,101.999996887207,8|0,1:0|0:0,0:0:0:0:
216,88,115159,2,0,B|120:112|120:112|12:104,2,203.999993774414,0|0|8,1:0|1:0|1:0,0:0:0:0:
216,88,115949,1,0,0:0:0:0:
316,56,116107,6,0,P|400:72|424:176,1,203.999993774414,0|0,1:0|1:0,0:0:0:0:
384,272,116581,1,0,0:0:0:0:
384,272,116738,2,0,L|400:376,1,101.999996887207,8|0,1:0|0:0,0:0:0:0:
268,216,117054,2,0,L|256:320,2,101.999996887207,0|0|0,1:0|0:0|1:0,0:0:0:0:
284,116,117528,1,0,0:0:0:0:
188,152,117686,2,0,P|132:156|88:144,1,101.999996887207,8|0,1:0|0:0,0:0:0:0:
284,116,118002,6,0,P|340:112|384:124,1,101.999996887207,0|0,1:0|0:0,0:0:0:0:
464,188,118317,2,0,L|480:88,1,101.999996887207,0|0,1:0|0:0,0:0:0:0:
376,224,118633,2,0,L|360:324,1,101.999996887207,8|0,1:0|0:0,0:0:0:0:
272,260,118949,6,2,P|196:280|108:272,1,165.749992412568,4|0,1:2|0:0,0:1:0:0:
28,232,119265,6,2,P|110:223|204:252,1,178.499994552612,4|0,1:2|0:0,0:1:0:0:
272,188,119581,6,2,P|180:200|84:168,1,191.250007295609,12|0,1:2|0:0,0:1:0:0:
32,88,119896,6,0,P|116:56|216:104,1,203.999993774414,4|0,1:2|1:0,0:0:0:0:
272,188,120370,1,0,0:0:0:0:
356,128,120528,2,0,L|368:24,1,101.999996887207,8|0,1:0|1:0,0:0:0:0:
472,36,120844,2,0,L|448:240,1,203.999993774414,4|0,1:2|1:0,0:0:0:0:
376,312,121317,1,0,0:0:0:0:
280,276,121475,2,0,P|228:272|176:284,1,101.999996887207,12|0,1:2|1:0,0:0:0:0:
100,344,121791,5,0,0:0:0:0:
100,344,121870,1,0,0:0:0:0:
100,344,121949,1,0,0:0:0:0:
20,280,122107,2,0,P|12:232|28:180,1,101.999996887207,4|0,1:2|0:0,0:0:0:0:
40,76,122423,2,0,P|85:93|122:132,1,101.999996887207,8|0,1:0|1:0,0:0:0:0:
208,192,122738,2,0,P|170:222|117:235,1,101.999996887207,4|0,1:2|0:0,0:0:0:0:
40,76,123054,2,0,P|78:46|131:33,1,101.999996887207,0|0,1:0|0:0,0:0:0:0:
240,80,123370,1,12,1:2:0:0:
240,80,123528,1,0,0:0:0:0:
348,44,123686,6,0,P|348:120|252:196,1,203.999993774414,4|0,1:2|1:0,0:0:0:0:
132,188,124159,1,0,0:0:0:0:
128,312,124317,1,12,1:2:0:0:
128,312,124633,2,0,L|332:324,2,203.999993774414,4|0|12,1:2|1:0|1:2,0:0:0:0:
312,248,125581,6,0,P|364:256|400:288,1,101.999996887207,4|0,1:2|1:0,0:0:0:0:
276,115,125896,2,0,P|257:66|267:19,1,101.999996887207,0|0,1:0|1:0,0:0:0:0:
179,212,126212,2,0,P|146:253|100:268,1,101.999996887207,8|0,1:0|1:0,0:0:0:0:
340,168,126528,6,0,L|444:160,1,101.999996887207,4|0,1:2|1:0,0:0:0:0:
234,276,126844,2,0,L|189:370,1,101.999996887207,0|0,1:0|1:0,0:0:0:0:
193,131,127159,2,0,L|134:45,1,101.999996887207,8|0,1:0|1:0,0:0:0:0:
340,168,127475,5,4,0:2:0:0:
344,200,127554,1,0,0:0:0:0:
336,232,127633,1,0,0:0:0:0:
308,252,127712,1,0,0:0:0:0:
276,256,127791,1,0,0:0:0:0:
244,248,127870,1,0,0:0:0:0:
224,220,127949,1,0,0:0:0:0:
216,188,128028,1,0,0:0:0:0:
224,156,128107,2,0,L|228:112,3,42.5
256,96,128423,2,0,L|252:52,3,42.5
220,44,128738,5,0,0:0:0:0:
192,64,128817,1,0,0:0:0:0:
160,68,128896,1,0,0:0:0:0:
128,60,128975,1,0,0:0:0:0:
104,36,129054,1,0,0:0:0:0:
72,28,129133,1,0,0:0:0:0:
40,32,129212,1,0,0:0:0:0:
12,52,129291,1,0,0:0:0:0:
0,80,129370,1,4,0:0:0:0:
256,192,129449,12,0,131265,0:0:0:0:
240,104,131896,6,0,L|244:168,1,63.7500024318696
248,240,132214,2,0,P|216:284|144:288,1,127.5,2|0,0:0|0:0,0:0:0:0:
147,289,132873,1,0,0:0:0:0:
324,300,133203,2,0,P|366:302|408:308,2,85,2|0|0,0:0|0:0|0:0,0:0:0:0:
152,292,134288,6,0,P|156:252|156:208,1,85
155,207,135077,1,0,0:0:0:0:
256,220,135495,2,0,P|248:176|248:132,1,85,2|0,0:0|0:0,0:0:0:0:
332,72,136387,2,0,L|376:76,1,42.5
464,44,136864,6,0,L|508:40,2,42.5,0|0|2,0:0|0:0|0:0,0:0:0:0:
256,192,137273,12,0,140136,0:0:0:0:
