osu file format v14

[General]
AudioFilename: CaliburnE.mp3
AudioLeadIn: 0
PreviewTime: 212
Countdown: 0
SampleSet: Soft
StackLeniency: 0.7
Mode: 0
LetterboxInBreaks: 1
WidescreenStoryboard: 1

[Editor]
DistanceSpacing: 1
BeatDivisor: 4
GridSize: 4
TimelineZoom: 1

[Metadata]
Title:Caliburne ~Story of the Legendary sword~
TitleUnicode:Caliburne ~Story of the Legendary sword~
Artist:Project Grimoire
ArtistUnicode:Project Grimoire
Creator:Mikkuri
Version:Hard
Source:maimai ORANGE
Tags:Team Grimoire Ice あま猫 Verdammt iyasine
BeatmapID:743127
BeatmapSetID:335665

[Difficulty]
HPDrainRate:5
CircleSize:4
OverallDifficulty:7
ApproachRate:8
SliderMultiplier:1.6
SliderTickRate:1

[Events]
//Background and Video events
0,0,"BG.jpg",0,0
//Break Periods
//Storyboard Layer 0 (Background)
//Storyboard Layer 1 (Fail)
//Storyboard Layer 2 (Pass)
//Storyboard Layer 3 (Foreground)
//Storyboard Sound Samples

[TimingPoints]
-419,315.789473684211,3,2,2,30,1,0
212,-133.333333333333,3,2,2,30,0,0
844,-133.333333333333,3,2,2,70,0,0
923,-133.333333333333,3,2,2,30,0,0
2738,-133.333333333333,3,2,2,70,0,0
2817,-133.333333333333,3,2,2,30,0,0
4633,-133.333333333333,3,2,2,70,0,0
4712,-133.333333333333,3,2,2,30,0,0
6528,-133.333333333333,3,2,2,70,0,0
6607,-133.333333333333,3,2,2,30,0,0
7002,-133.333333333333,3,2,2,50,0,0
7159,-133.333333333333,3,2,2,60,0,0
7791,-133.333333333333,3,2,2,30,0,0
8423,-133.333333333333,3,2,2,70,0,0
8502,-133.333333333333,3,2,2,30,0,0
10317,-133.333333333333,3,2,2,70,0,0
10396,-133.333333333333,3,2,2,30,0,0
11581,-133.333333333333,3,2,2,70,0,0
11896,-100,3,2,1,80,0,0
13791,-100,3,2,1,90,0,0
15370,-100,3,2,3,90,0,0
15686,-100,3,2,1,70,0,0
30844,-133.333333333333,3,2,2,70,0,0
30923,-133.333333333333,3,2,2,30,0,0
31791,-133.333333333333,3,2,2,70,0,0
31870,-133.333333333333,3,2,2,30,0,0
33686,-133.333333333333,3,2,2,70,0,0
33765,-133.333333333333,3,2,2,30,0,0
35581,-133.333333333333,3,2,2,70,0,0
35659,-133.333333333333,3,2,2,30,0,0
37475,-133.333333333333,3,2,2,70,0,0
37554,-133.333333333333,3,2,2,30,0,0
39370,-133.333333333333,3,2,2,70,0,0
39449,-133.333333333333,3,2,2,30,0,0
41265,-133.333333333333,3,2,2,70,0,0
41344,-133.333333333333,3,2,2,30,0,0
43159,-133.333333333333,3,2,2,70,0,0
43238,-133.333333333333,3,2,2,30,0,0
45054,-133.333333333333,3,2,2,70,0,0
45133,-133.333333333333,3,2,2,30,0,0
46002,-100,3,2,1,80,0,0
76317,-100,3,2,1,70,0,0
78054,-100,3,2,1,50,0,0
78212,-100,3,2,1,70,0,0
79949,-100,3,2,1,50,0,0
80107,-100,3,2,1,70,0,0
85633,-100,3,2,1,50,0,0
85791,-100,3,2,1,70,0,0
87686,-100,3,2,1,80,0,0
88633,-100,3,2,1,90,0,0
91475,-133.333333333333,3,2,1,70,0,0
91554,-133.333333333333,3,2,1,20,0,0
93212,-133.333333333333,3,2,1,30,0,0
93370,-133.333333333333,3,2,1,40,0,0
93449,-133.333333333333,3,2,1,20,0,0
95107,-133.333333333333,3,2,1,30,0,0
95265,-133.333333333333,3,2,1,40,0,0
96212,-133.333333333333,3,2,1,50,0,0
98107,-100,3,2,1,70,0,0
99054,-100,3,2,1,80,0,0
106633,-100,3,1,1,80,0,0
107581,-90.9090909090909,3,1,1,80,0,0
108528,-83.3333333333333,3,1,1,90,0,0
109475,-76.9230769230769,3,1,1,90,0,0
110423,-71.4285714285714,3,1,1,90,0,0
112002,-100,3,2,1,80,0,0
112317,-100,3,2,1,80,0,1
118949,-90.9090909090909,3,2,1,90,0,1
119265,-83.3333333333333,3,2,1,90,0,1
119581,-76.9230769230769,3,2,1,90,0,1
119896,-100,3,2,1,90,0,1
127475,-100,3,1,1,90,0,1
131265,-133.333333333333,3,2,1,5,0,0
131896,-133.333333333333,3,2,1,30,0,0
132214,329.67032967033,3,2,1,20,1,0
132214,-133.333333333333,3,2,1,20,0,0
133203,359.281437125748,3,2,1,20,1,0
133203,-133.333333333333,3,2,1,20,0,0
134288,394.736842105263,3,2,1,15,1,0
134288,-133.333333333333,3,2,1,15,0,0
135495,437.956204379562,3,2,1,15,1,0
135495,-133.333333333333,3,2,1,15,0,0
136387,444.444444444444,3,2,1,15,1,0
136387,-133.333333333333,3,2,1,15,0,0
136864,545.454545454546,3,2,1,15,1,0
140136,-100,3,2,1,5,0,0

[Colours]
Combo1 : 255,192,0
Combo2 : 18,124,255
Combo3 : 242,24,57

[HitObjects]
344,280,212,5,0,0:0:0:0:
204,168,528,2,0,P|148:160|100:196,1,120.000004577637,0|2,0:0|0:0,0:0:0:0:
100,288,1002,2,0,L|104:348,1,60.0000022888184
204,168,1475,2,0,L|196:48,1,120.000004577637
336,160,2107,1,0,0:0:0:0:
420,132,2265,1,0,0:0:0:0:
484,196,2423,6,0,P|492:256|468:312,1,120.000004577637,0|2,0:0|0:0,0:0:0:0:
384,336,2896,2,0,L|320:344,1,60.0000022888184
148,240,3370,2,0,L|268:224,1,120.000004577637
96,168,4002,1,0,0:0:0:0:
60,248,4159,1,0,0:0:0:0:
148,240,4317,6,0,P|160:296|140:356,1,120.000004577637,0|2,0:0|0:0,0:0:0:0:
328,360,4949,1,0,0:0:0:0:
328,360,5265,2,0,P|316:304|336:244,1,120.000004577637
436,116,5896,1,0,0:0:0:0:
436,116,6212,6,0,L|316:108,1,120.000004577637,0|2,0:0|0:0,0:0:0:0:
144,168,6844,2,0,L|204:164,1,60.0000022888184
236,80,7159,1,0,0:0:0:0:
236,80,7475,1,0,0:0:0:0:
260,260,7791,1,0,0:0:0:0:
428,196,8107,6,0,L|308:184,1,120.000004577637,0|2,0:0|0:0,0:0:0:0:
260,260,8581,2,0,L|200:252,1,60.0000022888184
44,340,9054,2,0,P|32:280|72:240,1,120.000004577637
220,144,9686,1,0,0:0:0:0:
292,196,9844,1,0,0:0:0:0:
380,176,10002,6,0,B|412:180|436:200|436:200|460:184|492:184,1,120.000004577637,0|2,0:0|0:0,0:0:0:0:
488,272,10475,2,0,L|492:332,1,60.0000022888184
484,104,10949,2,0,P|440:72|376:80,1,120.000004577637
200,72,11581,1,0,0:0:0:0:
200,72,11738,1,0,0:0:0:0:
244,140,11896,6,0,P|204:152|160:144,1,80,0|0,1:0|1:0,0:0:0:0:
300,85,12212,2,0,P|340:73|384:81,1,80,0|0,1:0|1:0,0:0:0:0:
440,136,12528,1,0,1:0:0:0:
440,136,12686,1,0,1:0:0:0:
400,204,12844,6,0,L|404:284,1,80,0|0,1:0|1:0,0:0:0:0:
268,292,13159,2,0,L|264:212,1,80,0|0,1:0|1:0,0:0:0:0:
328,164,13475,1,0,1:0:0:0:
328,164,13633,1,0,1:0:0:0:
300,85,13791,6,0,L|208:89,1,80,0|0,1:0|1:0,0:0:0:0:
76,132,14107,2,0,L|168:136,1,80,0|0,1:0|1:0,0:0:0:0:
288,192,14423,2,0,L|196:196,1,80,0|0,1:0|1:0,0:0:0:0:
64,240,14738,1,0,1:0:0:0:
256,344,15054,1,0,1:0:0:0:
448,240,15370,2,0,L|444:216,8,20,0|0|0|0|0|0|0|0|4,0:0|0:0|0:0|0:0|0:0|0:0|0:0|0:0|1:0,0:0:0:0:
492,84,16002,6,0,L|412:92,1,80,0|0,1:0|0:0,0:0:0:0:
360,152,16317,2,0,L|280:148,1,80,8|0,0:0|0:0,0:0:0:0:
208,112,16633,2,0,B|96:124|96:124|56:152,2,160,0|0|8,1:0|1:0|0:0,0:0:0:0:
256,176,17423,1,0,0:0:0:0:
212,244,17581,6,0,B|152:248|152:248|136:260,1,80,0|0,1:0|0:0,0:0:0:0:
256,312,17896,2,0,B|316:308|316:308|332:296,1,80,0|0,1:0|0:0,0:0:0:0:
384,236,18212,1,8,0:0:0:0:
384,236,18370,1,0,0:0:0:0:
464,248,18528,2,0,P|464:168|424:100,2,160,0|0|8,1:0|1:0|0:0,0:0:0:0:
412,308,19317,1,0,0:0:0:0:
332,296,19475,6,0,P|292:304|248:304,1,80,0|0,1:0|0:0,0:0:0:0:
172,300,19791,2,0,P|131:293|90:278,1,80,0|0,1:0|0:0,0:0:0:0:
60,208,20107,2,0,L|64:124,1,80,8|0,0:0|0:0,0:0:0:0:
140,212,20423,2,0,L|148:52,2,160,0|0|8,1:0|1:0|0:0,0:0:0:0:
220,220,21212,1,0,0:0:0:0:
284,172,21370,6,0,P|296:132|292:92,1,80,0|0,1:0|0:0,0:0:0:0:
368,64,21686,2,0,P|396:94|433:110,1,80,0|0,1:0|0:0,0:0:0:0:
420,192,22002,2,0,P|379:201|346:225,1,80,8|0,0:0|0:0,0:0:0:0:
312,296,22317,2,0,L|152:308,2,160,0|0|8,1:0|1:0|1:2,0:0:0:0:
388,324,23107,1,0,1:0:0:0:
456,280,23265,6,0,P|468:232|468:196,1,80,4|0,1:0|0:0,0:0:0:0:
444,52,23581,2,0,P|432:100|432:136,1,80,0|0,1:0|0:0,0:0:0:0:
372,184,23896,1,8,1:2:0:0:
296,160,24054,1,0,0:0:0:0:
224,192,24212,2,0,P|164:232|152:328,2,160,0|0|8,1:0|1:0|1:2,0:0:0:0:
296,160,25002,1,0,0:0:0:0:
228,116,25159,6,0,P|156:116|76:148,1,160,0|0,1:0|1:0,0:0:0:0:
48,224,25633,2,0,L|40:304,2,80,0|8|0,0:0|1:2|0:0,0:0:0:0:
140,272,26107,2,0,L|156:352,2,80,2|0|0,1:2|0:0|1:0,0:0:0:0:
244,292,26581,2,0,L|280:364,2,80,2|8|0,0:2|1:2|0:0,0:0:0:0:
348,288,27054,6,0,P|404:236|412:156,1,160,4|0,1:2|1:0,0:0:0:0:
344,112,27528,1,0,0:0:0:0:
268,136,27686,2,0,L|188:128,1,80,8|0,1:2|0:0,0:0:0:0:
48,56,28002,6,0,P|84:124|52:196,1,160,4|0,1:2|1:0,0:0:0:0:
12,264,28475,1,0,0:0:0:0:
56,332,28633,2,0,L|136:324,1,80,8|0,1:2|0:0,0:0:0:0:
256,328,28949,5,4,1:2:0:0:
272,248,29107,1,0,1:0:0:0:
336,296,29265,1,0,1:0:0:0:
352,216,29423,1,0,1:0:0:0:
416,264,29581,1,12,1:2:0:0:
432,184,29738,1,0,1:0:0:0:
496,232,29896,6,0,L|504:272,12,40,4|0|0|0|0|0|0|0|12|0|0|0|4,1:2|1:0|1:0|1:0|1:0|1:0|1:0|1:0|1:2|1:0|1:0|1:0|1:0,0:0:0:0:
16,152,31791,1,2,0:0:0:0:
496,176,32738,1,0,0:0:0:0:
16,208,33686,1,2,0:0:0:0:
408,60,34633,6,0,B|316:136|316:136|256:120|196:136|196:136|104:60,1,360.000013732911,0|2,0:0|0:0,0:0:0:0:
8,132,35896,1,0,0:0:0:0:
8,252,36212,1,0,0:0:0:0:
104,324,36528,2,0,B|196:248|196:248|256:264|316:248|316:248|408:324,1,360.000013732911,0|2,0:0|0:0,0:0:0:0:
504,252,37791,1,0,0:0:0:0:
504,132,38107,1,0,0:0:0:0:
400,72,38423,6,0,P|352:96|328:156,1,120.000004577637
360,272,39054,1,0,0:0:0:0:
408,152,39370,2,0,P|411:98|371:47,1,120.000004577637,2|0,0:0|0:0,0:0:0:0:
252,40,40002,1,0,0:0:0:0:
152,104,40317,6,0,P|56:192|124:324,1,300.000011444092
200,332,41265,2,0,P|296:244|228:112,1,300.000011444092,2|0,0:0|0:0,0:0:0:0:
268,48,42212,6,0,B|356:96|372:188|372:188|388:152|404:136,1,240.000009155274
444,252,43159,2,0,P|344:280|276:176,1,240.000009155274,2|0,0:0|0:0,0:0:0:0:
172,120,44107,1,0,0:0:0:0:
172,120,44265,1,0,0:0:0:0:
172,120,44423,2,0,P|188:228|80:264,1,240.000009155274,0|2,0:0|0:0,0:0:0:0:
68,256,45686,1,0,0:0:0:0:
68,256,46002,6,0,P|108:272|132:300,1,80,4|0,1:0|0:0,0:0:0:0:
204,336,46317,2,0,L|284:332,1,80,0|0,1:0|0:0,0:0:0:0:
356,296,46633,2,0,L|436:300,1,80,8|0,1:0|0:0,0:0:0:0:
480,232,46949,2,0,P|476:192|484:152,1,80,0|0,1:0|0:0,0:0:0:0:
492,72,47265,2,0,L|412:80,1,80,0|0,1:0|0:0,0:0:0:0:
340,116,47581,1,8,1:0:0:0:
340,116,47896,6,0,L|180:104,2,160,0|0|8,1:0|1:0|1:0,0:0:0:0:
380,188,48686,1,0,0:0:0:0:
420,256,48844,2,0,L|500:264,1,80,0|0,1:0|0:0,0:0:0:0:
380,188,49159,2,0,L|300:196,1,80,0|0,1:0|0:0,0:0:0:0:
168,248,49475,2,0,L|248:256,1,80,8|0,1:0|0:0,0:0:0:0:
76,172,49791,6,0,L|84:332,2,160,0|0|8,1:0|1:0|1:0,0:0:0:0:
120,104,50581,1,0,0:0:0:0:
196,132,50738,2,0,B|232:116|232:116|264:88,1,80,0|0,1:0|0:0,0:0:0:0:
332,132,51054,2,0,B|327:171|327:171|336:212,1,80,0|0,1:0|0:0,0:0:0:0:
268,252,51370,2,0,B|236:228|236:228|195:215,1,80,8|0,1:0|0:0,0:0:0:0:
140,272,51686,6,0,P|76:308|8:268,2,160,0|0|8,1:0|1:0|1:0,0:0:0:0:
76,224,52475,1,0,0:0:0:0:
116,156,52633,2,0,L|104:76,1,80,0|0,1:0|0:0,0:0:0:0:
200,168,52949,2,0,L|188:88,1,80,0|0,1:0|0:0,0:0:0:0:
284,180,53265,2,0,L|272:100,1,80,8|0,1:0|1:0,0:0:0:0:
368,192,53581,6,0,P|328:252|244:256,2,160,4|0|8,1:2|1:0|1:0,0:0:0:0:
424,136,54370,1,0,0:0:0:0:
444,212,54528,2,0,L|464:292,1,80,0|0,1:0|0:0,0:0:0:0:
368,272,54844,2,0,L|359:354,1,80,0|0,1:0|0:0,0:0:0:0:
276,304,55159,2,0,L|239:378,1,80,8|0,1:0|0:0,0:0:0:0:
180,300,55475,6,0,P|108:260|40:288,2,160,0|0|8,1:0|1:0|1:0,0:0:0:0:
224,232,56265,1,0,0:0:0:0:
156,188,56423,2,0,P|152:144|160:108,1,80,0|0,1:0|0:0,0:0:0:0:
300,116,56738,2,0,P|263:141|228:152,1,80,0|0,1:0|0:0,0:0:0:0:
164,28,57054,2,0,P|204:46|231:71,1,80,12|0,1:2|0:0,0:0:0:0:
300,204,57370,5,4,1:2:0:0:
364,252,57528,1,0,1:0:0:0:
436,220,57686,2,0,P|444:184|440:140,2,80,0|0|12,1:0|1:0|1:2,0:0:0:0:
364,252,58159,1,0,1:0:0:0:
292,284,58317,5,4,1:2:0:0:
228,236,58475,1,0,1:0:0:0:
156,268,58633,2,0,P|148:304|152:348,2,80,0|0|12,1:0|1:0|1:2,0:0:0:0:
228,236,59107,1,0,1:0:0:0:
300,204,59265,6,0,L|304:164,3,40,4|0|0|0,1:2|1:0|1:0|1:0,0:0:0:0:
344,152,59581,2,0,L|336:112,3,40,0|0|0|0,1:0|1:0|1:0|1:0,0:0:0:0:
368,88,59896,2,0,L|344:56,3,40,8|0|0|0,1:0|1:0|1:0|1:0,0:0:0:0:
372,24,60212,6,0,L|412:12,3,40,0|0|0|0,1:0|1:0|1:0|1:0,0:0:0:0:
436,44,60528,2,0,L|476:52,3,40,0|0|0|0,1:0|1:0|1:0|1:0,0:0:0:0:
488,88,60844,2,0,L|504:124,3,40,8|0|0|0,1:0|1:0|1:0|1:0,0:0:0:0:
488,160,61159,6,0,L|480:240,1,80,4|0,1:2|0:0,0:0:0:0:
32,228,61633,2,0,L|40:148,1,80,4|0,1:2|0:0,0:0:0:0:
304,248,62107,2,0,L|224:260,1,80,4|0,1:2|0:0,0:0:0:0:
208,136,62423,2,0,L|288:124,1,80,4|0,1:2|0:0,0:0:0:0:
368,112,62738,1,0,0:0:0:0:
368,112,62896,1,0,0:0:0:0:
316,48,63054,6,0,L|236:32,1,80,4|0,1:2|0:0,0:0:0:0:
196,336,63528,2,0,L|276:352,1,80,4|0,1:2|0:0,0:0:0:0:
184,160,64002,2,0,L|200:240,1,80,4|0,1:2|0:0,0:0:0:0:
332,224,64317,2,0,L|316:144,1,80,4|0,1:2|0:0,0:0:0:0:
256,92,64633,1,0,0:0:0:0:
256,92,64791,1,0,1:0:0:0:
192,44,64949,6,0,P|112:36|52:104,1,160,4|0,1:2|1:0,0:0:0:0:
80,164,65423,1,0,0:0:0:0:
24,220,65581,2,0,L|40:300,1,80,8|0,1:0|0:0,0:0:0:0:
112,332,65896,2,0,P|184:312|252:360,1,160,0|0,1:0|1:0,0:0:0:0:
308,300,66370,1,0,0:0:0:0:
388,312,66528,2,0,P|428:304|464:288,1,80,8|0,1:0|0:0,0:0:0:0:
504,356,66844,6,0,B|496:296|496:296|508:272|508:272|496:200,1,160,0|0,1:0|1:0,0:0:0:0:
476,124,67317,1,0,0:0:0:0:
416,68,67475,2,0,P|376:64|336:72,1,80,8|0,1:0|0:0,0:0:0:0:
288,136,67791,2,0,L|208:116,1,80,4|0,1:2|0:0,0:0:0:0:
68,192,68107,2,0,L|148:172,1,80,4|0,1:2|0:0,0:0:0:0:
160,40,68423,1,8,1:0:0:0:
160,40,68738,6,0,L|100:96,1,80,4|0,1:2|0:0,0:0:0:0:
352,344,69212,2,0,L|412:288,1,80,4|0,1:2|0:0,0:0:0:0:
200,168,69686,2,0,P|176:196|156:240,1,80,4|0,1:2|0:0,0:0:0:0:
304,155,70002,2,0,P|292:120|264:81,1,80,4|0,1:2|0:0,0:0:0:0:
263,252,70317,2,0,P|299:259|347:254,1,80
420,200,70633,6,0,L|436:280,1,80,4|0,1:2|0:0,0:0:0:0:
92,184,71107,2,0,L|76:104,1,80,4|0,1:2|0:0,0:0:0:0:
292,236,71581,2,0,P|316:264|332:304,1,80,4|0,1:2|0:0,0:0:0:0:
276,138,71896,2,0,P|288:104|314:70,1,80,4|0,1:2|0:0,0:0:0:0:
199,201,72212,1,0,0:0:0:0:
199,201,72370,1,0,1:0:0:0:
212,304,72528,6,0,P|132:324|68:280,1,160,4|0,1:2|1:0,0:0:0:0:
104,212,73002,1,0,0:0:0:0:
72,140,73159,2,0,P|68:96|76:60,1,80,12|0,1:2|0:0,0:0:0:0:
148,104,73475,2,0,L|228:108,1,80,4|0,1:2|0:0,0:0:0:0:
328,100,73791,2,0,L|284:167,1,80,0|0,1:0|0:0,0:0:0:0:
240,256,74107,2,0,L|203:184,1,80,12|0,1:2|0:0,0:0:0:0:
152,256,74423,5,4,1:2:0:0:
164,336,74581,1,0,1:0:0:0:
240,360,74738,1,0,1:0:0:0:
304,308,74896,1,0,1:0:0:0:
288,228,75054,1,8,1:0:0:0:
212,204,75212,1,0,1:0:0:0:
152,256,75370,2,0,L|112:252,11,40,0|0|0|0|0|0|0|0|8|0|0|0,1:0|1:0|1:0|1:0|1:0|1:0|1:0|1:0|1:0|1:0|1:0|1:0,0:0:0:0:
76,268,76317,6,0,P|84:228|76:188,1,80,4|0,1:2|0:0,0:0:0:0:
44,108,76633,1,0,0:0:0:0:
44,108,76791,2,0,L|128:116,1,80,0|0,1:0|0:0,0:0:0:0:
188,68,77107,1,0,0:0:0:0:
188,68,77265,2,0,B|252:76|252:76|276:92|276:92|344:100,2,160,0|0|0,1:0|1:0|0:0,0:0:0:0:
196,148,78054,1,0,1:0:0:0:
152,216,78212,6,0,P|168:252|172:300,1,80,0|0,1:0|0:0,0:0:0:0:
228,352,78528,1,0,0:0:0:0:
228,352,78686,2,0,L|312:360,2,80,0|0|0,1:0|0:0|0:0,0:0:0:0:
252,276,79159,2,0,L|412:292,2,160,0|0|0,1:0|1:0|0:0,0:0:0:0:
172,292,79949,1,0,1:0:0:0:
200,216,80107,6,0,P|196:172|204:136,1,80,0|0,1:0|0:0,0:0:0:0:
276,104,80423,2,0,P|316:122|343:147,1,80,0|0,0:0|1:0,0:0:0:0:
336,228,80738,2,0,P|299:253|264:264,1,80
200,216,81054,2,0,L|36:232,1,160,0|0,1:0|0:0,0:0:0:0:
32,152,81528,1,0,1:0:0:0:
32,152,81686,2,0,L|196:136,1,160,0|2,0:0|1:2,0:0:0:0:
264,168,82159,5,0,0:0:0:0:
308,100,82317,1,0,0:0:0:0:
384,116,82475,1,2,1:2:0:0:
392,196,82633,1,0,0:0:0:0:
320,228,82791,1,0,0:0:0:0:
264,168,82949,2,0,L|184:176,2,80,2|0|2,1:2|0:0|0:0,0:0:0:0:
320,228,83423,2,0,L|400:236,2,80,0|4|0,1:0|0:0|0:0,0:0:0:0:
264,284,83896,6,0,L|184:288,1,80,4|0,1:2|0:0,0:0:0:0:
116,328,84212,1,0,0:0:0:0:
116,328,84370,2,0,P|108:288|116:248,1,80,0|0,1:0|0:0,0:0:0:0:
188,212,84686,1,0,0:0:0:0:
188,212,84844,2,0,L|28:228,2,160,0|0|0,1:0|1:0|0:0,0:0:0:0:
256,256,85633,1,0,1:0:0:0:
312,200,85791,6,0,P|316:120|280:44,1,160,0|0,1:0|0:0,0:0:0:0:
384,72,86265,2,0,L|464:64,1,80,0|0,1:0|0:0,0:0:0:0:
240,136,86738,2,2,B|205:130|175:137|175:137|154:117|154:117|121:124|86:113,1,160,0|0,1:0|1:0,1:0:0:0:
89,113,87370,1,4,1:2:0:0:
44,180,87528,1,0,0:0:0:0:
80,252,87686,6,2,P|156:252|208:312,1,160,4|0,1:2|1:0,1:0:0:0:
276,272,88159,2,0,P|284:316|276:352,2,80,0|12|0,0:0|1:2|0:0,0:0:0:0:
240,200,88633,2,2,L|264:36,1,160,4|0,1:2|1:0,1:0:0:0:
340,64,89107,2,0,L|328:144,2,80,0|12|0,0:0|1:2|0:0,0:0:0:0:
408,108,89581,5,4,1:2:0:0:
412,28,89738,1,0,1:0:0:0:
480,72,89896,1,0,1:0:0:0:
476,152,90054,1,0,1:0:0:0:
404,188,90212,1,8,1:0:0:0:
336,144,90370,1,0,1:0:0:0:
340,64,90528,2,0,L|300:52,11,40,0|0|0|0|0|0|0|0|8|0|0|0,1:0|1:0|1:0|1:0|1:0|1:0|1:0|1:0|1:0|1:0|1:0|1:0,0:0:0:0:
272,44,91475,6,0,P|56:112|64:332,1,480.000018310548,4|0,1:0|0:0,0:0:0:0:
208,220,93054,2,0,L|220:280,1,60.0000022888184,0|0,1:0|1:0,0:0:0:0:
312,260,93370,6,0,P|288:140|136:304,1,480.000018310548,0|0,1:0|0:0,0:0:0:0:
300,352,94949,1,0,1:0:0:0:
300,352,95107,1,0,1:0:0:0:
384,316,95265,6,0,P|408:232|392:140,1,180.000006866455,0|0,1:0|1:0,0:0:0:0:
344,68,95896,1,0,1:0:0:0:
344,68,96212,6,0,B|276:72|276:72|240:96|240:96|168:100,1,180.000006866455,0|0,1:0|1:0,0:0:0:0:
80,104,96844,1,0,1:0:0:0:
80,104,97159,6,0,L|68:224,2,120.000004577637,2|0|2,1:0|0:0|1:0,0:0:0:0:
220,180,98107,6,2,L|236:344,2,160,2|0|0,1:0|1:0|1:0,0:1:0:0:
220,180,98896,1,2,1:0:0:0:
272,116,99054,6,0,P|340:96|408:144,1,160,4|0,1:0|1:0,0:0:0:0:
364,212,99528,1,0,0:0:0:0:
364,212,99686,2,0,L|372:296,1,80,8|0,1:0|0:0,0:0:0:0:
288,260,100002,2,0,P|212:280|152:336,2,160,0|0|8,1:0|1:0|1:0,0:0:0:0:
288,180,100791,1,0,0:0:0:0:
288,180,100949,6,0,P|212:160|152:104,1,160,0|0,1:0|1:0,0:0:0:0:
108,180,101423,1,0,0:0:0:0:
108,180,101502,1,0,0:0:0:0:
108,180,101581,2,0,B|116:220|116:220|108:260,1,80,8|0,1:0|0:0,0:0:0:0:
176,304,101896,2,0,P|104:288|32:332,2,160,0|0|12,1:0|1:0|1:2,0:0:0:0:
240,352,102686,1,0,0:0:0:0:
316,324,102844,6,0,P|352:328|392:348,1,80,4|0,1:2|0:0,0:0:0:0:
328,244,103159,2,0,P|363:235|407:240,1,80,0|0,1:0|0:0,0:0:0:0:
292,172,103475,2,0,P|322:151|365:141,1,80,12|0,1:2|0:0,0:0:0:0:
440,172,103791,2,0,L|452:332,2,160,4|0|12,1:2|1:0|1:2,0:0:0:0:
504,124,104581,1,0,0:0:0:0:
432,92,104738,5,4,1:2:0:0:
288,160,105054,1,0,1:0:0:0:
420,252,105370,1,8,1:0:0:0:
204,304,105686,5,4,1:2:0:0:
168,148,106002,1,4,1:2:0:0:
52,256,106317,1,12,1:2:0:0:
312,344,106633,6,0,P|352:356|392:360,2,80,4|0|0,0:2|0:0|0:0,0:0:0:0:
200,344,107107,2,0,P|160:356|120:360,2,80
312,280,107581,6,0,P|344:308|388:324,2,88.000002685547,4|0|0,0:2|0:0|0:0,0:0:0:0:
200,280,108054,2,0,P|168:308|124:324,2,88.000002685547
312,216,108528,6,0,P|336:252|380:284,2,95.9999970703126,4|0|0,0:2|0:0|0:0,0:0:0:0:
200,216,109002,2,0,P|176:252|132:284,2,95.9999970703126
312,152,109475,6,0,P|328:204|360:248,2,103.999995239258,4|0|0,0:2|0:0|0:0,0:0:0:0:
200,152,109949,2,0,P|184:204|152:248,2,103.999995239258,0|4|0,0:0|0:2|0:0,0:0:0:0:
256,64,110423,6,0,L|256:8,12,55.9999982910157,4|0|0|0|0|0|0|0|0|0|0|0|4,0:2|0:0|0:0|0:0|0:0|0:0|0:0|0:0|0:0|0:0|0:0|0:0|0:2,0:0:0:0:
432,128,112002,6,2,P|456:176|452:244,1,120,0|0,0:0|0:0,1:0:0:0:
444,264,112317,6,0,L|284:276,1,160,4|0,1:0|1:0,0:0:0:0:
224,332,112791,1,0,0:0:0:0:
152,296,112949,2,0,P|112:300|76:320,1,80,8|0,1:0|0:0,0:0:0:0:
24,260,113265,2,0,P|48:192|24:104,2,160,0|0|8,1:0|1:0|1:0,0:0:0:0:
77,318,114054,1,0,0:0:0:0:
152,296,114212,6,0,P|172:216|224:160,1,160,0|0,1:0|1:0,0:0:0:0:
272,96,114686,1,0,0:0:0:0:
272,96,114765,1,0,0:0:0:0:
272,96,114844,2,0,P|308:108|352:104,1,80,8|0,1:0|0:0,0:0:0:0:
424,72,115159,2,0,L|412:232,1,160,0|0,1:0|1:0,0:0:0:0:
412,231,115791,1,8,1:0:0:0:
456,300,115949,1,0,0:0:0:0:
376,304,116107,6,0,L|296:312,1,80,0|0,1:0|0:0,0:0:0:0:
228,352,116423,2,0,L|148:344,1,80,0|0,1:0|0:0,0:0:0:0:
96,284,116738,2,0,P|104:240|96:204,1,80,8|0,1:0|0:0,0:0:0:0:
24,168,117054,2,0,L|184:160,1,160,0|0,1:0|1:0,0:0:0:0:
344,152,117686,2,0,P|349:104|341:72,1,80,8|0,1:0|0:0,0:0:0:0:
412,36,118002,6,0,P|432:108|416:196,1,160,0|0,1:0|1:0,0:0:0:0:
272,252,118633,2,0,L|288:356,1,80,8|0,1:0|0:0,0:0:0:0:
196,244,118949,6,2,L|212:348,1,88.000002685547,4|0,1:2|0:0,0:1:0:0:
120,236,119265,6,2,L|136:340,1,95.9999970703126,4|0,1:2|0:0,0:1:0:0:
44,228,119581,6,2,L|60:332,1,103.999995239258,12|0,1:2|0:0,0:1:0:0:
172,268,119896,6,0,P|192:204|164:116,1,160,4|0,1:2|1:0,0:0:0:0:
92,84,120370,1,0,0:0:0:0:
156,40,120528,2,0,L|240:44,1,80,8|0,1:0|1:0,0:0:0:0:
304,88,120844,2,0,L|464:80,2,160,4|0|12,1:2|1:0|1:2,0:0:0:0:
260,156,121633,1,0,1:0:0:0:
192,116,121791,5,0,0:0:0:0:
192,116,121870,1,0,0:0:0:0:
192,116,121949,1,0,0:0:0:0:
192,196,122107,2,0,P|196:232|212:276,1,80,4|0,1:2|0:0,0:0:0:0:
272,324,122423,2,0,L|356:316,1,80,8|0,1:0|1:0,0:0:0:0:
196,352,122738,2,0,L|112:360,1,80,4|0,1:2|0:0,0:0:0:0:
64,300,123054,2,0,P|72:256|68:220,1,80,0|0,1:0|0:0,0:0:0:0:
16,160,123370,1,12,1:2:0:0:
44,84,123528,1,0,0:0:0:0:
96,148,123686,6,0,P|172:140|224:76,1,160,4|0,1:2|1:0,0:0:0:0:
288,32,124159,1,0,0:0:0:0:
360,64,124317,1,12,1:2:0:0:
360,64,124633,2,0,P|368:104|360:148,1,80,4|0,1:2|0:0,0:0:0:0:
300,196,124949,2,0,L|220:208,1,80,0|0,1:0|0:0,0:0:0:0:
164,264,125265,2,0,P|156:304|168:344,1,80,12|0,1:2|0:0,0:0:0:0:
236,300,125581,5,4,1:2:0:0:
316,316,125738,1,0,1:0:0:0:
392,288,125896,1,0,1:0:0:0:
432,220,126054,1,0,1:0:0:0:
424,140,126212,2,0,L|432:60,1,80,8|0,1:0|1:0,0:0:0:0:
304,52,126528,6,0,L|296:132,1,80,4|0,1:2|1:0,0:0:0:0:
216,148,126844,1,0,1:0:0:0:
156,200,127002,1,0,1:0:0:0:
152,280,127159,1,8,1:0:0:0:
200,344,127317,1,0,1:0:0:0:
280,360,127475,6,0,L|324:356,3,40,4|0|0|0,0:2|0:0|0:0|0:0,0:0:0:0:
316,316,127791,2,0,L|276:312,3,40
272,272,128107,2,0,L|316:268,3,40
308,228,128423,2,0,L|268:224,3,40
264,184,128738,2,0,L|308:180,3,40
300,140,129054,2,0,L|256:136,3,40
236,104,129370,1,4,0:0:0:0:
256,192,129449,12,0,131265,0:0:0:0:
204,148,131896,6,0,P|200:168|196:208,1,60.0000022888184
232,284,132214,2,0,L|416:288,1,180.000006866455,2|0,0:0|0:0,0:0:0:0:
480,232,132873,1,0,0:0:0:0:
480,232,133203,2,0,P|500:288|480:344,2,120.000004577637,2|0|0,0:0|0:0|0:0,0:0:0:0:
316,164,134288,6,0,L|180:176,2,120.000004577637
468,92,135495,2,0,P|488:144|480:208,1,120.000004577637,2|0,0:0|0:0,0:0:0:0:
320,288,136387,2,0,L|260:284,1,60.0000022888184
168,248,136864,6,0,L|124:252,2,40,0|0|2,0:0|0:0|0:0,0:0:0:0:
256,192,137273,12,0,140136,0:0:0:0:
