osu file format v14

[General]
AudioFilename: CaliburnE.mp3
AudioLeadIn: 0
PreviewTime: 212
Countdown: 0
SampleSet: Normal
StackLeniency: 0.7
Mode: 0
LetterboxInBreaks: 1
WidescreenStoryboard: 1

[Editor]
DistanceSpacing: 1.4
BeatDivisor: 4
GridSize: 4
TimelineZoom: 1

[Metadata]
Title:Caliburne ~Story of the Legendary sword~
TitleUnicode:Caliburne ~Story of the Legendary sword~
Artist:Project Grimoire
ArtistUnicode:Project Grimoire
Creator:Mikkuri
Version:Easy
Source:maimai ORANGE
Tags:Team Grimoire Ice あま猫 Verdammt iyasine
BeatmapID:745274
BeatmapSetID:335665

[Difficulty]
HPDrainRate:2
CircleSize:3
OverallDifficulty:2
ApproachRate:3
SliderMultiplier:0.600000005960464
SliderTickRate:1

[Events]
//Background and Video events
0,0,"BG.jpg",0,0
//Break Periods
//Storyboard Layer 0 (Background)
//Storyboard Layer 1 (Fail)
//Storyboard Layer 2 (Pass)
//Storyboard Layer 3 (Foreground)
//Storyboard Sound Samples

[TimingPoints]
-419,315.789473684211,3,2,1,30,1,0
528,-100,3,2,1,30,0,0
844,-100,3,2,4,70,0,0
923,-100,3,2,1,30,0,0
2738,-100,3,2,4,70,0,0
2817,-100,3,2,1,30,0,0
4633,-100,3,2,4,70,0,0
4712,-100,3,2,1,30,0,0
6528,-100,3,2,4,70,0,0
6607,-100,3,2,1,30,0,0
8423,-100,3,2,4,70,0,0
8502,-100,3,2,1,30,0,0
10317,-100,3,2,4,70,0,0
10396,-100,3,2,1,30,0,0
11896,-100,3,1,1,80,0,0
13791,-100,3,1,1,90,0,0
15686,-100,3,1,1,70,0,0
30844,-100,3,2,1,70,0,0
30923,-100,3,2,1,30,0,0
31791,-100,3,2,4,70,0,0
31870,-100,3,2,1,30,0,0
33686,-100,3,2,4,70,0,0
33765,-100,3,2,1,30,0,0
35581,-100,3,2,4,70,0,0
35659,-100,3,2,1,30,0,0
37475,-100,3,2,4,70,0,0
37554,-100,3,2,1,30,0,0
39370,-100,3,2,4,70,0,0
39449,-100,3,2,1,30,0,0
41265,-100,3,2,4,70,0,0
41344,-100,3,2,1,30,0,0
43159,-100,3,2,4,70,0,0
43238,-100,3,2,1,30,0,0
45054,-100,3,2,4,70,0,0
45133,-100,3,2,1,30,0,0
46002,-100,3,1,1,80,0,0
61159,-100,3,2,1,80,0,0
64949,-100,3,1,1,80,0,0
68738,-100,3,2,1,80,0,0
72528,-100,3,1,1,80,0,0
76317,-100,3,2,1,70,0,0
87686,-100,3,1,1,80,0,0
88633,-100,3,1,1,90,0,0
91475,-100,3,1,1,70,0,0
93370,-100,3,1,1,40,0,0
95265,-100,3,1,1,50,0,0
97159,-100,3,1,1,60,0,0
98107,-100,3,1,1,70,0,0
99054,-100,3,1,1,80,0,0
108528,-100,3,1,1,90,0,0
112317,-100,3,1,1,80,0,1
118949,-100,3,1,1,90,0,1
127791,-100,3,1,1,80,0,1
131265,-100,3,2,1,5,0,0
132214,329.67032967033,3,2,1,20,1,0
133203,359.281437125748,3,2,1,20,1,0
134288,394.736842105263,3,2,1,15,1,0
135495,437.956204379562,3,2,1,15,1,0
136387,444.444444444444,3,2,1,15,1,0
136864,545.454545454546,3,2,1,15,1,0
140136,-100,3,2,1,5,0,0

[Colours]
Combo1 : 255,192,0
Combo2 : 18,124,255
Combo3 : 242,24,57

[HitObjects]
208,136,528,6,0,P|292:76|384:208,1,300.000002980232
352,284,2423,2,0,B|272:272|204:296|204:296|148:264|56:268,1,300.000002980232
60,184,4317,6,0,P|120:184|180:168,1,120.000001192093
252,128,5265,2,0,P|312:128|372:144,1,120.000001192093
424,208,6212,2,0,L|436:328,2,120.000001192093
332,68,8107,6,0,P|228:152|88:88,1,300.000002980232
24,144,10002,2,0,B|64:204|136:228|136:228|164:308|248:340,1,300.000002980232
316,296,11896,6,0,P|376:288|436:292,1,120.000001192093
472,216,12844,2,0,P|435:167|408:114,1,120.000001192093
324,120,13791,2,0,P|300:175|267:225,1,120.000001192093
212,288,14738,1,0,0:0:0:0:
60,88,15686,6,0,P|116:76|184:84,1,120.000001192093,4|8,0:0|2:0,0:0:0:0:
256,116,16633,2,0,P|324:124|376:104,1,120.000001192093,0|8,0:0|2:0,0:0:0:0:
440,56,17581,1,0,0:0:0:0:
460,224,18212,1,8,2:0:0:0:
472,308,18528,2,0,P|420:300|380:248,1,120.000001192093,0|8,0:0|2:0,0:0:0:0:
352,172,19475,6,0,L|232:160,1,120.000001192093,0|8,0:0|2:0,0:0:0:0:
172,100,20423,2,0,P|168:68|168:40,2,60.0000005960464,0|0|8,0:0|0:0|2:0,0:0:0:0:
128,172,21370,2,0,P|132:232|116:292,1,120.000001192093,0|8,0:0|2:0,0:0:0:0:
184,340,22317,1,0,0:0:0:0:
328,252,22949,1,8,0:2:0:0:
396,304,23265,6,0,P|412:244|388:192,1,120.000001192093,4|8,0:0|0:2,0:0:0:0:
308,168,24212,2,0,L|188:176,1,120.000001192093,0|8,0:0|0:2,0:0:0:0:
112,140,25159,2,0,P|96:80|120:28,1,120.000001192093,0|8,0:0|0:2,0:0:0:0:
180,88,26107,2,0,L|300:80,1,120.000001192093,0|8,0:0|0:2,0:0:0:0:
376,116,27054,5,4,0:2:0:0:
316,272,27686,2,0,L|324:336,1,60.0000005960464,8|4,0:2|0:2,0:0:0:0:
188,228,28633,2,0,L|180:292,1,60.0000005960464,8|4,0:2|1:2,0:0:0:0:
56,176,29581,1,12,0:2:0:0:
25,98,29896,2,0,P|89:98|129:134,1,120.000001192093,4|12,0:2|0:2,0:0:0:0:
191,76,30844,6,0,B|239:92|279:72|279:72|275:108|275:108|315:88|363:104|363:104|411:120|451:108,1,300.000002980232,4|0,1:0|0:0,0:0:0:0:
464,192,32738,2,0,B|392:204|324:180|324:180|316:208|316:208|252:192|192:228,1,300.000002980232
132,288,34633,6,0,P|4:228|48:104,1,300.000002980232
128,76,36528,2,0,B|212:68|272:112|272:112|340:84|420:104,1,300.000002980232
404,188,38423,6,0,P|352:180|232:356,1,300.000002980232
148,356,40317,2,0,B|136:296|156:240|156:240|116:196|116:196|140:136|120:72,1,300.000002980232
204,64,42212,6,0,P|284:160|420:88,1,300.000002980232
476,152,44107,2,0,P|344:240|212:212,1,300.000002980232
140,172,46002,6,0,P|108:224|112:280,1,120.000001192093,4|8,0:0|0:0,0:0:0:0:
188,316,46949,2,0,L|312:308,1,120.000001192093,0|8,0:0|0:0,0:0:0:0:
388,332,47896,1,0,0:0:0:0:
408,164,48528,1,8,0:0:0:0:
460,96,48844,2,0,P|384:84|340:112,1,120.000001192093,0|8,0:0|0:0,0:0:0:0:
328,184,49791,6,0,B|280:188|240:168|240:168|148:176,1,180.000001788139
44,304,51370,1,8,0:0:0:0:
116,344,51686,2,0,B|200:320|200:320|296:336,1,180.000001788139
456,360,53265,1,8,0:0:0:0:
460,276,53581,6,0,L|448:156,1,120.000001192093,4|8,0:2|0:0,0:0:0:0:
384,100,54528,2,0,P|324:116|268:108,1,120.000001192093,0|8,0:0|0:0,0:0:0:0:
192,68,55475,2,0,P|104:52|20:88,2,180.000001788139,0|0|4,0:0|0:0|0:2,0:0:0:0:
344,136,58002,5,12,0:2:0:0:
412,184,58317,2,0,P|428:240|424:304,1,120.000001192093,4|12,0:2|0:2,0:0:0:0:
360,356,59265,2,0,L|180:348,1,180.000001788139,4|0,0:2|0:0,0:0:0:0:
136,180,60844,1,8,0:0:0:0:
116,100,61159,6,0,L|24:96,2,90.0000008940696,4|4|4,1:2|1:2|1:2,0:0:0:0:
200,104,62423,1,4,1:2:0:0:
264,260,63054,2,0,L|172:264,2,90.0000008940696,4|4|4,1:2|1:2|1:2,0:0:0:0:
348,256,64317,1,4,1:2:0:0:
428,108,64949,6,0,P|376:84|312:92,1,120.000001192093,4|8,0:2|0:0,0:0:0:0:
264,160,65896,2,0,P|269:217|308:268,1,120.000001192093,0|8,0:0|0:0,0:0:0:0:
384,276,66844,2,0,P|430:242|455:183,1,120.000001192093,0|8,0:0|0:0,0:0:0:0:
464,104,67791,2,0,L|468:44,2,60.0000005960464,4|4|8,0:2|0:2|0:0,0:0:0:0:
380,120,68738,6,0,L|385:26,2,90.0000008940696,4|4|4,1:2|1:2|1:2,0:0:0:0:
376,204,70002,1,4,1:2:0:0:
216,252,70633,2,0,L|210:158,2,90.0000008940696,4|4|4,1:2|1:2|1:2,0:0:0:0:
220,336,71896,1,4,1:2:0:0:
76,252,72528,6,0,P|52:200|60:140,1,120.000001192093,4|12,0:2|0:2,0:0:0:0:
120,80,73475,2,0,L|240:72,1,120.000001192093,4|12,0:2|0:2,0:0:0:0:
296,136,74423,2,0,L|416:144,1,120.000001192093,4|8,0:2|0:2,0:0:0:0:
408,228,75370,2,0,L|288:220,1,120.000001192093,0|8,0:2|0:2,0:0:0:0:
204,216,76317,6,0,L|196:308,2,90.0000008940696,4|0|0,1:2|1:0|1:0,0:0:0:0:
212,132,77581,1,0,1:0:0:0:
44,112,78212,2,0,L|52:20,2,90.0000008940696,0|0|0,1:0|1:0|1:0,0:0:0:0:
36,196,79475,1,0,1:0:0:0:
136,332,80107,6,0,P|104:336|76:344,2,60.0000005960464,0|0|0,1:0|1:0|1:0,0:0:0:0:
220,348,81054,2,0,L|344:336,1,120.000001192093,0|0,1:0|1:0,0:0:0:0:
408,284,82002,2,0,P|420:224|396:172,1,120.000001192093,2|0,1:2|1:2,0:0:0:0:
320,140,82949,2,0,L|200:148,1,120.000001192093,2|4,1:2|1:2,0:0:0:0:
136,204,83896,6,0,P|88:212|44:208,2,90.0000008940696,4|0|0,1:2|1:0|1:0,0:0:0:0:
200,147,85159,1,0,1:0:0:0:
360,192,85791,2,0,L|456:196,1,90.0000008940696,0|0,1:0|1:0,0:0:0:0:
448,324,86738,2,2,L|328:320,1,120.000001192093,0|4,1:0|1:2,1:0:0:0:
244,336,87686,6,2,P|192:316|128:324,1,120.000001192093,4|12,0:2|0:2,0:0:0:0:
72,260,88633,2,2,B|84:200|84:200|80:136,1,120.000001192093,4|12,0:2|0:2,0:0:0:0:
140,80,89581,2,0,L|200:84,1,60.0000005960464,4|0,0:2|0:0,0:0:0:0:
228,164,90212,2,0,L|288:160,1,60.0000005960464,8|0,0:0|0:0,0:0:0:0:
332,232,90844,2,0,L|392:220,1,60.0000005960464,0|8,0:0|0:0,0:0:0:0:
472,204,91475,5,4,1:0:0:0:
40,180,93370,1,0,1:0:0:0:
376,60,95265,5,0,1:0:0:0:
124,72,96212,1,0,1:0:0:0:
136,324,97159,1,0,1:0:0:0:
388,312,98107,1,0,1:0:0:0:
376,60,99054,6,0,P|320:56|268:88,1,120.000001192093,4|8,0:0|0:0,0:0:0:0:
220,158,100002,1,0,0:0:0:0:
324,288,100633,1,8,0:0:0:0:
388,344,100949,2,0,P|408:280|384:228,1,120.000001192093,0|8,0:0|0:0,0:0:0:0:
312,200,101896,2,0,L|192:210,1,120.000001192093,0|12,0:0|0:2,0:0:0:0:
124,260,102844,6,0,L|61:277,2,60.0000005960464,4|0|12,0:2|0:0|0:2,0:0:0:0:
116,176,103791,2,0,L|51:169,2,60.0000005960464,4|0|12,0:2|0:0|0:2,0:0:0:0:
164,108,104738,2,0,P|224:116|284:96,1,120.000001192093,4|8,0:2|0:0,0:0:0:0:
348,48,105686,1,4,0:2:0:0:
428,76,106002,1,4,0:2:0:0:
436,160,106317,1,12,0:2:0:0:
368,208,106633,6,0,B|356:268|356:268|372:328,1,120.000001192093,4|0,0:2|0:0,0:0:0:0:
288,344,107581,2,0,P|228:336|172:352,1,120.000001192093,4|0,0:2|0:0,0:0:0:0:
128,280,108528,2,0,B|160:264|196:256|196:256|224:212,1,120.000001192093,4|0,0:2|0:0,0:0:0:0:
204,132,109475,2,0,P|264:140|304:196,1,120.000001192093,4|4,0:2|0:2,0:0:0:0:
300,268,110423,6,0,B|359:275|359:275|411:245|411:245|436:184,1,180.000001788139,4|4,0:2|0:2,0:0:0:0:
220,56,112317,6,0,P|160:64|112:96,1,120.000001192093,4|8,0:0|0:0,0:0:0:0:
92,180,113265,2,0,L|80:304,1,120.000001192093,0|8,0:0|0:0,0:0:0:0:
148,352,114212,1,0,0:0:0:0:
308,300,114844,1,8,0:0:0:0:
392,304,115159,2,0,P|376:248|320:216,1,120.000001192093,0|8,0:0|0:0,0:0:0:0:
244,224,116107,6,0,P|194:193|177:136,1,120.000001192093,0|8,0:0|0:0,0:0:0:0:
260,144,117054,2,0,L|380:140,1,120.000001192093,0|8,0:0|0:0,0:0:0:0:
456,176,118002,2,0,P|464:236|448:292,1,120.000001192093,0|8,0:0|0:0,0:0:0:0:
368,320,118949,1,4,0:2:0:0:
292,284,119265,1,4,0:2:0:0:
212,312,119581,1,12,0:2:0:0:
136,276,119896,6,0,B|120:216|120:216|124:156,1,120.000001192093,4|8,0:2|0:0,0:0:0:0:
76,88,120844,2,0,P|144:76|188:104,1,120.000001192093,4|12,0:2|0:2,0:0:0:0:
228,172,121791,1,0,0:0:0:0:
356,64,122423,1,8,0:0:0:0:
436,88,122738,2,0,L|500:92,2,60.0000005960464,4|0|12,0:2|0:0|0:2,0:0:0:0:
376,148,123686,6,0,P|352:200|368:260,1,120.000001192093,4|8,0:2|0:0,0:0:0:0:
300,312,124633,2,0,P|248:288|188:304,1,120.000001192093,4|8,0:2|0:0,0:0:0:0:
136,236,125581,2,0,P|160:184|144:124,1,120.000001192093,4|8,0:2|0:0,0:0:0:0:
212,72,126528,2,0,P|264:96|324:80,1,120.000001192093,4|8,0:2|0:0,0:0:0:0:
363,154,127475,6,0,B|307:186|247:178|247:178|267:218|255:266|255:266|207:274|179:310,1,300.000002980232,4|0,0:2|0:0,0:0:0:0:
256,192,129370,12,0,131265,0:0:0:0:
200,280,132214,6,0,P|188:224|204:160,1,120.000001192093,2|0,0:0|0:0,0:0:0:0:
248,96,133203,2,0,L|240:36,2,60.0000005960464,2|0|0,0:0|0:0|0:0,0:0:0:0:
320,136,134288,6,0,L|440:124,1,120.000001192093
448,208,135495,2,0,L|328:220,1,120.000001192093,2|0,0:0|0:0,0:0:0:0:
252,248,136864,6,0,L|220:244,1,30.0000002980232,0|2,0:0|0:0,0:0:0:0:
256,192,137273,12,0,140136,0:0:0:0:
