osu file format v14

[General]
AudioFilename: butterfly effect.mp3
AudioLeadIn: 0
PreviewTime: 60597
Countdown: 0
SampleSet: Soft
StackLeniency: 0.7
Mode: 0
LetterboxInBreaks: 0
WidescreenStoryboard: 0

[Editor]
DistanceSpacing: 0.9
BeatDivisor: 4
GridSize: 4
TimelineZoom: 2.1

[Metadata]
Title:Butterfly Effect
TitleUnicode:Butterfly Effect
Artist:Prizmmy
ArtistUnicode:Prizmmy
Creator:iyasine
Version:Insane
Source:
Tags:
BeatmapID:1433612
BeatmapSetID:677931

[Difficulty]
HPDrainRate:6
CircleSize:4
OverallDifficulty:7
ApproachRate:9
SliderMultiplier:1.7
SliderTickRate:1

[Events]
//Background and Video events
0,0,"bg.jpg",0,0
//Break Periods
//Storyboard Layer 0 (Background)
//Storyboard Layer 1 (Fail)
//Storyboard Layer 2 (Pass)
//Storyboard Layer 3 (Foreground)
//Storyboard Sound Samples

[TimingPoints]
702,416.666666666667,4,2,1,60,1,0
702,-133.333333333333,4,2,30,50,0,0
1118,-133.333333333333,4,2,1,50,0,0
2368,-133.333333333333,4,2,31,50,0,0
2577,-133.333333333333,4,2,1,50,0,0
2993,-133.333333333333,4,2,9,50,0,0
3202,-133.333333333333,4,2,1,50,0,0
3618,-133.333333333333,4,2,30,50,0,0
4035,-133.333333333333,4,2,32,50,0,0
4452,-133.333333333333,4,2,1,50,0,0
5285,-133.333333333333,4,2,32,50,0,0
5493,-133.333333333333,4,2,1,50,0,0
5702,-133.333333333333,4,2,33,50,0,0
5910,-133.333333333333,4,2,1,50,0,0
6118,-133.333333333333,4,2,9,30,0,0
6327,-111.111111111111,4,2,33,50,0,0
6743,-111.111111111111,4,2,2,60,0,0
7368,-100,4,2,1,65,0,0
13618,-83.3333333333333,4,2,10,70,0,0
14035,-100,4,2,11,70,0,0
14452,-100,4,2,10,70,0,0
14868,-100,4,2,12,70,0,0
15077,-100,4,2,10,70,0,0
15285,-100,4,2,12,70,0,0
15493,-100,4,2,11,70,0,0
15702,-100,4,2,12,70,0,0
16327,-100,4,2,11,70,0,0
16535,-100,4,2,12,70,0,0
16743,-100,4,2,11,70,0,0
16952,-100,4,2,12,70,0,0
17160,-100,4,2,10,70,0,0
17368,-100,4,2,12,70,0,0
18410,-100,4,2,11,70,0,0
19035,-100,4,2,12,70,0,0
20702,-100,4,2,34,60,0,0
22368,-100,4,2,35,60,0,0
22785,-100,4,2,34,60,0,0
23410,-100,4,2,36,60,0,0
23827,-100,4,2,34,60,0,0
24035,-100,4,2,37,60,0,0
25493,-100,4,2,35,60,0,0
25702,-100,4,2,37,60,0,0
26327,-100,4,2,35,60,0,0
26743,-100,4,2,37,60,0,0
27368,-100,4,2,38,60,0,0
28618,-100,4,2,37,60,0,0
29035,-100,4,2,38,60,0,0
30702,-100,4,2,34,60,0,0
31327,-100,4,2,35,60,0,0
31743,-100,4,2,39,60,0,0
32577,-100,4,2,1,70,0,0
33931,-100,4,2,1,40,0,0
34035,-100,4,2,34,60,0,0
35702,-100,4,2,35,60,0,0
36327,-100,4,2,34,60,0,0
36952,-100,4,2,36,60,0,0
37160,-100,4,2,34,60,0,0
37368,-100,4,2,37,60,0,0
38827,-100,4,2,35,60,0,0
39035,-100,4,2,37,60,0,0
39660,-100,4,2,35,60,0,0
40077,-100,4,2,37,60,0,0
40702,-100,4,2,38,60,0,0
41952,-100,4,2,37,60,0,0
42368,-100,4,2,34,60,0,0
42993,-100,4,2,35,70,0,0
44035,-100,4,2,34,60,0,0
44660,-100,4,2,36,70,0,0
44868,-100,4,2,37,70,0,0
45077,-100,4,2,40,70,0,0
45806,-100,4,2,1,5,0,0
45910,-100,4,2,1,70,0,0
46222,-100,4,2,1,5,0,0
46327,-100,4,2,1,70,0,0
47368,-86.9565217391303,4,2,20,70,0,0
47785,-86.9565217391303,4,2,21,60,0,0
47993,-86.9565217391303,4,2,20,70,0,0
49139,-86.9565217391303,4,2,20,40,0,0
49243,-86.9565217391303,4,2,21,70,0,0
49868,-86.9565217391303,4,2,20,70,0,0
50285,-86.9565217391303,4,2,21,60,0,0
51327,-86.9565217391303,4,2,20,70,0,0
52472,-86.9565217391303,4,2,20,40,0,0
52577,-86.9565217391303,4,2,21,60,0,0
53202,-86.9565217391303,4,2,20,70,0,0
53618,-86.9565217391303,4,2,21,60,0,0
54035,-100,4,2,12,70,0,0
54660,-100,4,2,11,70,0,0
54868,-100,4,2,1,70,0,0
55285,-133.333333333333,4,2,12,70,0,0
55493,-100,4,2,11,70,0,0
55702,-100,4,2,1,70,0,0
55910,-100,4,2,12,70,0,0
56327,-100,4,2,13,70,0,0
56743,-100,4,2,13,80,0,0
57368,-100,4,2,12,80,0,0
57577,-100,4,2,1,70,0,0
59243,-100,4,2,9,70,0,0
59452,-100,4,2,10,60,0,0
60285,-66.6666666666667,4,2,11,60,0,0
60702,-90.9090909090909,4,2,11,70,0,1
62993,-90.9090909090909,4,2,15,70,0,1
63410,-90.9090909090909,4,2,11,70,0,1
64660,-90.9090909090909,4,2,12,70,0,1
65285,-90.9090909090909,4,2,10,80,0,1
65702,-90.9090909090909,4,2,11,70,0,1
66327,-90.9090909090909,4,2,14,70,0,1
66743,-90.9090909090909,4,2,11,70,0,1
67993,-90.9090909090909,4,2,10,70,0,1
68410,-90.9090909090909,4,2,13,70,0,1
68618,-90.9090909090909,4,2,11,70,0,1
69243,-90.9090909090909,4,2,12,70,0,1
69660,-90.9090909090909,4,2,14,70,0,1
70181,-90.9090909090909,4,2,15,70,0,1
70285,-90.9090909090909,4,2,11,70,0,1
70493,-90.9090909090909,4,2,16,80,0,1
70702,-90.9090909090909,4,2,15,80,0,1
71118,-90.9090909090909,4,2,1,70,0,1
71327,-90.9090909090909,4,2,17,80,0,1
71952,-90.9090909090909,4,2,1,70,0,1
72160,-90.9090909090909,4,2,14,70,0,1
72577,-90.9090909090909,4,2,9,70,0,1
72785,-90.9090909090909,4,2,10,70,0,1
73618,-90.9090909090909,4,2,11,70,0,1
76327,-90.9090909090909,4,2,15,70,0,1
76743,-90.9090909090909,4,2,11,70,0,1
77993,-90.9090909090909,4,2,12,70,0,1
78618,-90.9090909090909,4,2,10,70,0,1
79035,-90.9090909090909,4,2,11,70,0,1
79660,-90.9090909090909,4,2,14,70,0,1
80077,-90.9090909090909,4,2,11,70,0,1
80702,-90.9090909090909,4,2,1,70,0,0
84243,-83.3333333333333,4,2,1,70,0,0
86952,-133.333333333333,4,2,1,60,0,0

[Colours]
Combo1 : 128,255,255
Combo2 : 111,255,183
Combo3 : 255,166,210
Combo4 : 253,176,100
Combo5 : 249,232,111

[HitObjects]
120,240,702,6,0,P|201:270|263:262,1,127.500004863739,14|2,0:0|0:0,0:0:0:0:
240,267,1535,1,2,0:0:0:0:
274,349,1743,1,0,0:0:0:0:
359,320,1952,1,2,0:0:0:0:
323,233,2160,6,0,L|300:172,1,63.7500024318696,2|14,0:0|0:0,0:0:0:0:
366,95,2577,2,0,L|388:155,1,63.7500024318696,2|0,0:0|0:0,0:0:0:0:
481,176,2993,1,8,0:0:0:0:
440,71,3202,2,0,P|380:72|309:57,1,127.500004863739,2|12,0:0|0:0,0:0:0:0:
93,56,4035,6,0,P|95:119|77:180,1,127.500004863739,14|2,0:0|0:0,0:0:0:0:
77,180,4868,1,2,0:0:0:0:
54,263,5077,1,0,0:0:0:0:
5,134,5285,1,2,0:0:0:0:
100,184,5493,6,0,P|135:191|166:194,1,63.7500024318696,2|14,0:0|0:0,0:0:0:0:
223,325,5910,2,0,P|189:333|155:337,1,63.7500024318696,2|4,0:0|0:0,0:0:0:0:
307,265,6327,2,0,P|367:261|455:288,1,152.999995330811,14|0,0:0|3:0,0:0:0:0:
512,218,6952,1,0,3:0:0:0:
387,268,7160,1,0,3:0:0:0:
387,268,7264,1,0,0:0:0:0:
387,268,7368,6,0,L|368:355,2,85,4|2|0,1:0|0:0|3:0,0:0:0:0:
404,180,7993,1,4,1:0:0:0:
63,108,8410,1,0,3:0:0:0:
95,207,8618,1,2,0:0:0:0:
227,117,8827,1,4,1:0:0:0:
7,238,9243,5,0,3:0:0:0:
197,277,9452,1,2,3:2:0:0:
95,207,9660,2,0,L|79:296,1,85,4|0,1:0|0:0,0:0:0:0:
182,189,10077,1,2,3:2:0:0:
286,334,10285,1,0,3:0:0:0:
443,278,10493,1,2,3:2:0:0:
443,278,10597,1,0,3:0:0:0:
443,278,10702,1,4,1:0:0:0:
319,220,10910,6,0,P|298:155|314:42,1,170,0|2,3:0|3:2,0:0:0:0:
319,29,11431,1,0,0:0:0:0:
319,29,11535,1,2,0:0:0:0:
435,92,11743,1,2,3:2:0:0:
158,152,11952,1,2,0:0:0:0:
346,110,12160,1,2,3:2:0:0:
346,110,12264,1,0,3:0:0:0:
346,110,12368,1,4,1:0:0:0:
74,188,12785,5,2,0:0:0:0:
74,188,13202,2,0,P|47:256|41:313,1,127.5,2|0,0:0|0:0,0:0:0:0:
0,149,13618,6,0,P|80:187|171:182,1,152.999995330811,4|0,1:2|0:0,0:0:0:0:
186,176,14035,6,0,P|202:144|212:88,1,85,2|0,3:2|0:0,0:0:0:0:
124,273,14452,2,0,P|126:322|139:361,1,85,0|0,1:0|0:0,0:0:0:0:
339,274,14868,1,2,3:2:0:0:
222,303,15077,1,8,0:0:0:0:
288,184,15285,1,2,1:2:0:0:
467,277,15493,2,0,P|480:230|466:170,1,85,2|0,0:0|3:0,0:0:0:0:
442,89,15910,5,0,0:0:0:0:
442,89,16014,1,0,0:0:0:0:
442,89,16118,2,0,P|400:106|357:115,1,85,0|8,1:0|0:0,0:0:0:0:
117,190,16535,1,0,3:0:0:0:
117,190,16639,2,0,L|100:136,2,42.5,0|4|0,1:0|0:0|0:0,0:0:0:0:
176,261,16952,2,0,L|274:301,1,85,2|8,1:2|0:0,0:0:0:0:
85,277,17368,5,2,3:2:0:0:
85,277,17472,1,0,0:0:0:0:
85,277,17577,1,0,0:0:0:0:
207,166,17785,1,0,1:0:0:0:
41,96,17993,1,0,0:0:0:0:
41,96,18097,1,0,0:0:0:0:
41,96,18202,2,0,L|-10:109,1,42.5,0|0,3:0|0:0,0:0:0:0:
124,47,18410,2,0,P|132:95|125:131,1,85,4|8,0:0|1:2,0:0:0:0:
11,237,18827,1,2,0:0:0:0:
153,317,19035,5,0,3:0:0:0:
184,328,19139,1,0,0:0:0:0:
217,331,19243,1,0,0:0:0:0:
250,323,19347,1,0,0:0:0:0:
281,308,19452,2,0,L|302:256,1,42.5,0|0,1:0|0:0,0:0:0:0:
420,274,19660,2,0,L|378:291,1,42.5
319,176,19868,2,0,L|349:205,1,42.5,0|0,3:0|0:0,0:0:0:0:
439,179,20077,1,0,3:0:0:0:
263,384,20285,2,0,P|227:327|226:255,1,127.5,0|0,1:0|0:0,0:0:0:0:
232,192,20702,5,14,3:2:0:0:
232,192,21118,1,0,1:0:0:0:
325,282,21327,1,2,0:0:0:0:
119,266,21535,2,0,L|102:359,1,85,0|0,3:0|0:0,0:0:0:0:
5,233,21952,1,14,1:2:0:0:
103,349,22160,6,0,P|144:362|196:354,1,85,0|10,0:0|3:2,0:0:0:0:
309,244,22577,2,0,P|262:229|214:235,1,85,0|0,0:0|1:0,0:0:0:0:
463,365,22993,2,0,P|506:326|481:202,1,170,14|2,0:0|0:0,0:0:0:0:
335,117,23618,1,8,1:2:0:0:
315,216,23827,1,2,0:0:0:0:
232,99,24035,5,14,3:2:0:0:
410,206,24243,1,0,0:0:0:0:
232,99,24452,2,0,P|188:107|133:114,1,85,0|12,1:0|0:0,0:0:0:0:
278,310,24868,2,0,P|321:301|377:295,1,85,0|2,3:0|0:0,0:0:0:0:
174,246,25285,1,10,1:2:0:0:
315,216,25493,6,0,L|338:129,1,85,4|14,0:0|3:2,0:0:0:0:
174,246,25910,2,0,L|148:341,1,85,0|0,0:0|1:0,0:0:0:0:
373,275,26327,2,0,P|393:220|315:127,1,170,2|2,0:0|0:0,0:0:0:0:
108,112,26952,2,0,P|67:126|24:138,1,85,4|8,1:2|0:0,0:0:0:0:
2,144,27264,5,0,0:0:0:0:
2,144,27368,1,14,3:2:0:0:
37,241,27577,1,0,0:0:0:0:
195,137,27785,2,0,P|212:182|227:230,1,85,0|10,1:0|0:0,0:0:0:0:
324,276,28202,1,0,3:0:0:0:
477,137,28410,1,0,0:0:0:0:
340,192,28618,1,8,1:2:0:0:
454,281,28827,1,0,0:0:0:0:
422,202,29035,5,14,3:2:0:0:
454,281,29243,1,0,0:0:0:0:
512,216,29452,1,0,1:0:0:0:
372,349,29660,2,0,L|279:366,1,85,2|0,0:0|3:0,0:0:0:0:
125,297,30077,2,0,L|220:280,1,85,8|4,0:0|1:2,0:0:0:0:
340,192,30493,1,8,0:0:0:0:
174,122,30702,5,10,3:2:0:0:
212,223,30910,1,0,0:0:0:0:
264,141,31118,1,0,1:0:0:0:
116,199,31327,1,10,0:0:0:0:
181,32,31535,1,0,3:0:0:0:
174,122,31743,1,2,0:0:0:0:
33,154,31952,1,8,0:0:0:0:
212,223,32160,1,4,0:0:0:0:
212,223,32577,6,0,L|229:281,1,42.5,0|0,3:0|0:0,0:0:0:0:
295,316,32785,2,0,P|316:268|312:221,1,85,2|0,0:0|3:0,0:0:0:0:
63,193,33097,2,0,P|99:225|154:230,1,85,2|2,0:0|0:0,0:0:0:0:
212,223,33410,2,0,L|225:167,1,42.5,0|0,3:0|0:0,0:0:0:0:
375,113,33618,2,0,P|339:110|283:95,1,85,2|0,0:0|3:0,0:0:0:0:
271,92,33931,2,0,L|265:119,2,21.25,0|0|14,3:0|3:0|3:2,0:0:0:0:
271,92,34452,5,0,1:0:0:0:
307,202,34660,1,2,0:0:0:0:
510,67,34868,2,0,P|507:114|496:159,1,85,0|0,3:0|0:0,0:0:0:0:
405,207,35285,1,14,1:2:0:0:
452,332,35493,1,0,0:0:0:0:
512,235,35702,5,10,3:2:0:0:
338,282,35910,2,0,L|302:190,1,85,0|0,0:0|1:0,0:0:0:0:
261,67,36327,1,14,0:0:0:0:
67,164,36535,2,0,P|131:164|204:128,1,127.5,0|0,3:0|0:0,0:0:0:0:
217,141,36952,2,0,P|237:183|249:224,1,85,8|2,1:2|0:0,0:0:0:0:
475,105,37368,6,0,P|427:102|305:143,1,170,14|0,3:2|1:2,0:0:0:0:
155,241,37993,1,12,0:0:0:0:
253,317,38202,1,0,3:0:0:0:
217,141,38410,1,2,0:0:0:0:
41,256,38618,1,10,1:2:0:0:
155,241,38827,2,0,P|204:234|252:225,1,85,2|14,0:0|3:2,0:0:0:0:
388,158,39243,5,0,0:0:0:0:
420,294,39452,1,0,1:2:0:0:
508,211,39660,1,2,0:0:0:0:
508,211,39764,1,0,0:0:0:0:
508,211,39868,1,0,3:0:0:0:
265,149,40077,1,2,0:0:0:0:
344,239,40285,1,4,1:2:0:0:
419,124,40493,1,8,0:0:0:0:
251,240,40702,6,0,P|207:250|137:263,1,85,14|0,3:2|0:0,0:0:0:0:
435,376,41118,2,0,P|432:333|411:278,1,85,0|10,1:0|0:0,0:0:0:0:
203,338,41535,2,0,L|295:316,1,85,0|0,3:0|0:0,0:0:0:0:
507,138,41952,2,0,P|497:182|480:224,1,85,8|0,1:2|0:0,0:0:0:0:
451,226,42264,5,0,0:0:0:0:
421,235,42368,2,0,L|338:254,1,85,14|0,3:2|0:0,0:0:0:0:
129,229,42785,2,0,L|212:210,1,85,0|8,1:0|0:0,0:0:0:0:
303,183,43202,1,0,3:0:0:0:
263,275,43410,1,0,0:0:0:0:
52,132,43618,1,10,1:2:0:0:
211,196,43827,1,0,0:0:0:0:
111,61,44035,5,14,3:2:0:0:
129,229,44243,1,0,0:0:0:0:
247,109,44452,1,0,1:0:0:0:
52,132,44660,1,4,0:0:0:0:
52,132,44764,1,0,0:0:0:0:
52,132,44868,1,0,3:2:0:0:
129,229,45077,1,2,0:0:0:0:
247,109,45285,1,8,1:2:0:0:
16,208,45493,6,0,P|61:216|125:159,1,127.5,4|0,1:2|0:0,0:0:0:0:
142,94,45910,2,0,L|179:224,1,127.5,2|0,3:2|0:0,0:0:0:0:
216,338,46327,2,0,L|202:296,1,42.5,2|0,3:2|0:0,0:0:0:0:
294,219,46535,2,0,P|320:259|317:311,1,85,2|0,0:0|3:0,0:0:0:0:
114,361,46952,2,0,P|88:321|91:269,1,85,0|0,1:0|3:0,0:0:0:0:
167,176,47368,5,4,1:0:0:0:
216,338,47577,1,0,1:0:0:0:
431,309,47785,2,0,L|333:286,1,97.7500018644333,8|2,0:0|0:0,0:0:0:0:
294,219,48097,1,0,1:0:0:0:
294,219,48202,2,0,L|277:169,1,48.8750009322167,0|0,0:0|1:0,0:0:0:0:
306,77,48410,1,0,1:0:0:0:
150,169,48618,1,4,0:0:0:0:
260,292,48827,6,0,P|327:297|376:228,1,146.62500279665,0|8,1:0|0:0,0:0:0:0:
427,182,49243,1,2,1:2:0:0:
395,31,49452,1,0,0:0:0:0:
500,93,49660,1,4,1:2:0:0:
303,171,49868,2,0,L|292:226,1,48.8750009322167,4|0,0:0|1:0,0:0:0:0:
297,367,50077,2,0,L|275:291,1,48.8750009322167,0|0,1:0|0:0,0:0:0:0:
158,267,50285,1,2,1:2:0:0:
260,292,50493,1,8,1:2:0:0:
134,169,50702,5,4,1:0:0:0:
83,334,50910,1,0,1:0:0:0:
260,292,51118,1,8,0:0:0:0:
208,108,51327,1,2,0:0:0:0:
208,108,51431,1,0,1:0:0:0:
208,108,51535,2,0,L|247:72,1,48.8750009322167,0|0,0:0|1:0,0:0:0:0:
245,203,51743,2,0,L|307:216,1,48.8750009322167,0|0,1:0|0:0,0:0:0:0:
174,23,51952,2,0,L|130:66,1,48.8750009322167,4|0,0:0|0:0,0:0:0:0:
303,132,52160,6,0,P|363:140|446:102,1,146.62500279665,0|8,1:0|0:0,0:0:0:0:
493,42,52577,2,0,P|444:30|394:8,1,97.7500018644333,2|0,1:2|0:0,0:0:0:0:
297,46,52993,1,4,1:2:0:0:
464,187,53202,2,0,P|475:229|476:286,1,97.7500018644333,4|0,0:0|0:0,0:0:0:0:
472,307,53514,1,0,1:0:0:0:
468,331,53618,1,4,1:2:0:0:
265,276,53827,1,8,1:2:0:0:
388,143,54035,6,0,P|387:96|378:50,1,85,2|0,3:2|0:0,0:0:0:0:
196,180,54452,1,0,1:0:0:0:
349,241,54660,2,0,P|403:247|442:244,1,85,4|0,0:0|3:0,0:0:0:0:
240,293,55077,2,0,P|234:347|237:386,1,85,0|0,0:0|1:0,0:0:0:0:
433,245,55493,6,0,P|439:191|436:152,1,85,8|0,0:0|3:0,0:0:0:0:
196,180,55910,1,8,0:0:0:0:
349,241,56118,1,2,1:2:0:0:
325,74,56327,1,2,0:0:0:0:
317,93,56431,1,8,0:0:0:0:
309,112,56535,1,4,0:0:0:0:
147,260,56743,2,0,P|93:208|101:151,1,127.5,8|0,1:2|0:0,0:0:0:0:
109,124,57160,1,4,1:2:0:0:
0,218,57368,5,4,3:2:0:0:
196,180,57577,1,0,3:0:0:0:
294,343,57785,1,2,3:2:0:0:
147,260,57993,1,0,3:0:0:0:
380,297,58202,1,2,3:2:0:0:
416,138,58410,1,0,3:0:0:0:
472,278,58618,1,2,3:2:0:0:
433,32,58827,1,2,3:2:0:0:
433,32,59243,5,2,0:0:0:0:
433,32,59347,1,0,0:0:0:0:
433,32,59452,1,2,0:0:0:0:
329,165,59660,1,8,0:0:0:0:
498,100,59868,1,2,0:0:0:0:
183,105,60077,1,4,0:0:0:0:
423,214,60285,2,0,P|426:167|380:80,1,127.500004863739,2|8,1:2|0:0,0:0:0:0:
395,95,60702,6,0,P|345:91|301:81,1,93.5000028533936,4|0,3:2|0:0,0:0:0:0:
102,201,61118,2,0,P|141:218|192:226,1,93.5000028533936,0|0,1:0|0:0,0:0:0:0:
328,165,61535,1,2,0:0:0:0:
257,331,61743,1,0,0:0:0:0:
219,230,61952,1,0,1:0:0:0:
443,301,62160,2,0,P|410:312|345:323,1,93.5000028533936,8|0,0:0|0:0,0:0:0:0:
166,352,62577,6,0,P|199:341|264:330,1,93.5000028533936,0|0,0:0|1:0,0:0:0:0:
385,232,62993,1,4,0:0:0:0:
250,95,63202,2,0,L|234:186,1,93.5000028533936,0|2,0:0|0:0,0:0:0:0:
91,321,63618,2,0,L|108:228,1,93.5000028533936,0|8,1:0|0:0,0:0:0:0:
1,207,63931,5,0,0:0:0:0:
1,207,64035,2,0,P|67:231|176:200,1,187.000005706787,4|0,0:0|1:0,0:0:0:0:
250,95,64660,1,8,0:0:0:0:
325,243,64868,1,0,0:0:0:0:
512,144,65077,1,0,0:0:0:0:
451,332,65285,1,4,1:2:0:0:
422,223,65493,1,0,0:0:0:0:
309,339,65702,5,4,0:0:0:0:
422,223,65910,2,0,L|394:131,1,93.5000028533936,0|0,0:0|1:0,0:0:0:0:
229,274,66327,1,4,0:0:0:0:
229,274,66431,1,0,0:0:0:0:
229,274,66535,1,0,0:0:0:0:
451,332,66743,1,2,0:0:0:0:
257,180,66952,2,0,P|208:193|141:205,1,93.5000028533936,8|4,1:2|0:0,0:0:0:0:
2,118,67368,6,0,P|50:87|144:100,1,140.25000428009,8|0,0:0|0:0,0:0:0:0:
169,97,67785,2,0,P|222:87|265:76,1,93.5000028533936,0|8,1:0|0:0,0:0:0:0:
294,66,68097,1,0,0:0:0:0:
294,66,68202,1,0,0:0:0:0:
165,188,68410,1,8,0:0:0:0:
80,70,68618,1,0,1:0:0:0:
257,180,68827,6,0,P|305:167|365:144,1,93.5000028533936,2|0,0:0|0:0,0:0:0:0:
98,271,69243,2,0,P|84:305|66:359,1,93.5000028533936,4|0,0:0|1:0,0:0:0:0:
253,365,69660,1,10,1:2:0:0:
294,372,69764,1,10,0:0:0:0:
335,367,69868,1,10,0:0:0:0:
375,347,69972,1,0,0:0:0:0:
403,314,70077,2,0,P|408:287|416:252,1,46.7500014266968,0|10,0:0|0:0,0:0:0:0:
496,296,70285,1,0,1:0:0:0:
455,94,70493,1,10,0:0:0:0:
496,296,70702,5,10,0:0:0:0:
139,247,71118,1,2,3:2:0:0:
325,208,71327,1,14,3:2:0:0:
221,330,71743,1,2,3:2:0:0:
242,120,71952,2,0,L|234:194,1,46.7500014266968,2|0,0:0|0:0,0:0:0:0:
69,177,72160,2,0,P|53:102|83:48,1,140.25000428009,10|0,0:0|0:0,0:0:0:0:
109,27,72577,5,2,1:2:0:0:
332,59,72785,1,2,3:2:0:0:
144,120,72993,1,8,0:0:0:0:
144,120,73097,1,0,0:0:0:0:
144,120,73202,1,2,3:2:0:0:
303,265,73410,1,4,3:2:0:0:
242,120,73618,1,2,1:2:0:0:
221,330,73827,1,8,0:0:0:0:
363,186,74035,6,0,P|414:192|461:202,1,93.5000028533936,4|0,3:2|0:0,0:0:0:0:
184,242,74452,2,0,P|136:238|86:226,1,93.5000028533936,0|0,1:0|0:0,0:0:0:0:
323,367,74868,1,2,0:0:0:0:
397,292,75077,1,0,0:0:0:0:
221,330,75285,1,0,1:0:0:0:
363,186,75493,2,0,P|376:138|385:80,1,93.5000028533936,8|0,0:0|0:0,0:0:0:0:
200,99,75910,6,0,P|242:111|319:119,1,93.5000028533936,0|0,0:0|1:0,0:0:0:0:
457,85,76327,1,4,0:0:0:0:
291,118,76535,2,0,P|278:166|269:224,1,93.5000028533936,0|2,0:0|0:0,0:0:0:0:
131,305,76952,2,0,P|167:320|224:330,1,93.5000028533936,0|8,1:0|0:0,0:0:0:0:
328,364,77264,5,0,0:0:0:0:
328,364,77368,2,0,P|354:313|362:185,1,187.000005706787,4|0,0:0|1:0,0:0:0:0:
200,236,77993,1,8,0:0:0:0:
230,354,78202,1,0,0:0:0:0:
296,217,78410,1,0,0:0:0:0:
124,183,78618,1,4,1:2:0:0:
354,138,78827,1,0,0:0:0:0:
354,138,78931,1,0,0:0:0:0:
354,138,79035,1,4,0:0:0:0:
143,91,79243,6,0,P|133:137|119:202,1,93.5000028533936,0|0,0:0|1:0,0:0:0:0:
92,316,79660,1,4,0:0:0:0:
92,316,79764,1,0,0:0:0:0:
92,316,79868,1,0,0:0:0:0:
46,127,80077,1,4,0:0:0:0:
251,203,80285,2,0,P|263:117|234:54,1,140.25000428009,2|0,1:2|0:0,0:0:0:0:
226,43,80702,5,4,1:0:0:0:
169,242,80910,1,2,0:0:0:0:
46,127,81118,1,0,3:0:0:0:
331,165,81327,1,4,1:0:0:0:
147,151,81743,5,0,3:0:0:0:
455,136,81952,1,2,0:0:0:0:
251,203,82160,1,4,1:0:0:0:
476,46,82577,5,0,3:0:0:0:
251,112,82785,1,2,3:2:0:0:
433,232,82993,2,0,L|409:343,1,93.5000028533936,4|0,1:0|0:0,0:0:0:0:
326,269,83410,5,2,3:2:0:0:
511,317,83618,1,0,3:0:0:0:
455,136,83827,1,2,3:2:0:0:
455,136,83931,1,0,3:0:0:0:
455,136,84035,1,4,1:0:0:0:
326,269,84243,6,0,P|241:287|151:211,1,203.999993774414,0|2,3:0|3:2,0:0:0:0:
143,191,84764,1,0,0:0:0:0:
143,191,84868,1,2,0:0:0:0:
105,61,85077,1,2,3:2:0:0:
251,202,85285,1,2,3:2:0:0:
71,306,85493,1,2,3:2:0:0:
71,306,85597,1,0,3:0:0:0:
71,306,85702,1,4,1:0:0:0:
354,168,86118,5,2,0:0:0:0:
168,292,86535,1,2,0:0:0:0:
437,95,86952,2,0,P|451:172|453:225,1,127.500004863739,0|2,0:0|0:0,0:0:0:0:
